<svg xmlns="http://www.w3.org/2000/svg">
<defs>
<font id="Vollkorn-Regular" horiz-adv-x="550" >
  <font-face 
    font-family="Vollkorn"
    font-weight="400"
    font-stretch="normal"
    units-per-em="1000"
    panose-1="0 0 0 0 0 0 0 0 0 0"
    ascent="800"
    descent="-200"
    x-height="460"
    cap-height="679"
    bbox="-180 -280 3056 1078"
    underline-thickness="40"
    underline-position="-360"
    unicode-range="U+000D-1D550"
  />
<missing-glyph horiz-adv-x="454" 
d="M51 0v677h352v-677h-352zM112 99q5 0 5 5t-5 5t-5 -5t5 -5zM117 163q5 0 7 2l-1 3q-2 -1 -4 -1q-3 0 -3 6v16h7v3h-7v7q0 3 -2 3l-5 -3v-7h-5v-3h5v-18q0 -8 8 -8zM133 148q3 0 5.5 2.5t5.5 10.5l9 22q3 6 5 6v3h-12v-3q6 0 3 -7l-4 -11l-5 12q-3 6 3 6v3h-17v-3
q4 0 6 -6l9 -21q-1 -3 -2.5 -5.5t-5.5 -2.5q-2 0 -5 1v-5q2 -2 5 -2zM161 148h18v3q-6 0 -6 6v6h5q16 0 16 16q0 14 -11 14q-7 0 -10 -6v3q0 2 -1 3q-4 -2 -11 -2v-3q5 0 5 -5v-26q0 -6 -5 -6v-3zM178 167h-5v9q0 12 7 12q6 0 6 -10q0 -7 -3 -9t-5 -2zM118 227h4l9 21
q3 6 5 6v3h-12v-3q6 0 3 -6l-5 -13l-4 10q-3 9 2 9v3h-16v-3q3 0 5 -6zM213 163q7 0 11 4l-2 3q-3 -3 -8 -3q-8 0 -8 10h17l1 3q0 13 -12 13q-14 0 -14 -15t15 -15zM153 227q15 0 15 15t-15 15t-15 -15t15 -15zM153 231q-7 0 -7 11t7 11t7 -11t-7 -11zM206 181q0 8 5 8
q6 0 6 -8h-11zM229 163h17v3q-6 0 -6 6v17h7v3h-7q0 11 4 11q5 0 5 -6h4v8q-2 2 -6 2q-14 0 -14 -14v-1h-5v-3h5v-17q0 -6 -4 -6v-3zM171 227h16v3q-4 0 -4 6v32q0 3 -2 3q-4 -2 -10 -2v-3q5 0 5 -4v-26q0 -6 -5 -6v-3zM262 167q-3 0 -3 4t9 6q0 -10 -6 -10zM259 163
q8 0 10 5q0 -5 2 -5l7 2v3q-3 0 -3 5v7q0 8 -3 10.5t-8 2.5q-6 0 -11 -3l1 -7h4q0 6 5 6t5 -9q-4 -1 -10.5 -3t-6.5 -8t8 -6zM191 227h15v3q-4 0 -4 6v32q0 3 -2 3q-4 -2 -10 -2v-3q5 0 5 -4v-26q0 -6 -4 -6v-3zM296 163q6 0 10 4l-2 3q-3 -3 -7 -3q-8 0 -8 11t6 11
q5 0 6 -7h4v8q-3 3 -9 3q-14 0 -14 -15t14 -15zM211 227h15v3q-4 0 -4 6v5l11 -14h9v3q-3 0 -14 14q6 6 8.5 7.5t4.5 1.5v3h-14v-3q3 0 3 -1q0 -2 -8 -9v25q0 3 -2 3q-4 -2 -10 -2v-3q5 0 5 -4v-26q0 -6 -4 -6v-3zM102 329v70h70v-70h-70zM112 339h50v50h-50v-50zM122 349

<glyph glyph-name="f_f" unicode="ff" horiz-adv-x="665" 
d="M333 448v-43q-56 0 -85.5 -4.5t-50.5 -11.5v59h136zM116 471q0 67 31.5 118.5t85.5 80.5t120 29q43 0 83.5 -14.5t73.5 -45.5l-46 -88q-21 44 -52.5 70t-73.5 26q-38 0 -68 -14.5t-47 -47t-17 -86.5v-277h-90v249zM131 448v-57q-25 7 -51 9.5t-44 2.5q0 13 3.5 24
t10.5 21h81zM206 147q0 -43 9 -65.5t29 -31t51 -10.5q3 -8 4 -18.5t1 -24.5q-23 2 -57 2.5t-69 0.5t-73.5 -0.5t-58.5 -2.5q0 14 1 24.5t4 18.5q27 2 42 9.5t21 26t6 51.5v100h90v-80zM631 448q0 -10 -2 -22.5t-8 -22.5q-29 0 -54.5 -3.5t-46.5 -10.5v59h111zM439 488
q0 75 30.5 125.5t78.5 75.5t100 25q39 0 59 -7.5t36 -17.5q-2 -31 -3 -60.5t-1 -56.5q-13 -4 -28 -6t-29 -2q0 41 -18 68t-60 27q-27 0 -43.5 -16.5t-24 -47.5t-7.5 -76v-297h-90v266zM454 448v-57q-25 7 -52.5 10.5t-68.5 3.5v43h121zM529 147q0 -43 9 -65.5t29 -31
t51 -10.5q3 -8 4 -18.5t1 -24.5q-15 1 -35.5 1.5t-43.5 1t-47 0.5q-35 0 -73.5 -0.5t-58.5 -2.5q0 14 1 24.5t4 18.5q27 2 42 9.5t21 26t6 51.5v100h90v-80z" />
    <glyph glyph-name="f_f_i" unicode="ffi" horiz-adv-x="950" 
d="M365 -3q0 14 1 24.5t4 18.5q27 2 42 9.5t21 26t6 51.5v361q0 65 29.5 116t84 81t129.5 30q47 0 83.5 -8.5t67.5 -22.5q-2 -31 -2.5 -51.5t-0.5 -40.5q-14 -10 -38.5 -14.5t-47.5 -0.5q0 41 -22 63.5t-66 22.5q-69 0 -98 -35.5t-29 -108.5v-71h167q16 0 33.5 1.5t35 3.5
t33.5 5.5t30 8.5q12 -5 17 -14t5 -29v-297q0 -50 13.5 -67.5t45.5 -19.5q3 -9 4 -20.5t1 -22.5q-13 1 -31 1.5t-39.5 1t-43.5 0.5t-43 -0.5t-39 -1t-32 -1.5q0 13 1 23t4 20q40 2 54.5 19.5t14.5 67.5v194q0 27 -6.5 44.5t-28.5 26.5t-69 10q-19 0 -45.5 -1.5t-49 -4.5
t-32.5 -6v-263q0 -32 6.5 -50.5t22 -26.5t40.5 -10q3 -9 4 -19t1 -24q-19 2 -51.5 2.5t-62.5 0.5t-67 -0.5t-57 -2.5zM131 391q-25 7 -51 9.5t-44 2.5q0 13 3.5 24t10.5 21h81v-57zM42 -3q0 14 1 24.5t4 18.5q27 2 42 9.5t21 26t6 51.5v344q0 67 31.5 118.5t85.5 80.5
t120 29q43 0 83.5 -14.5t73.5 -45.5l-46 -88q-21 44 -52.5 70t-73.5 26q-57 0 -94.5 -34t-37.5 -114v-352q0 -43 9 -65.5t29 -31t51 -10.5q3 -8 4 -18.5t1 -24.5q-23 2 -57 2.5t-69 0.5t-73.5 -0.5t-58.5 -2.5zM197 389v59h257v-57q-25 7 -52.5 10.5t-68.5 3.5
q-56 0 -85.5 -4.5t-50.5 -11.5z" />
    <glyph glyph-name="f_f_l" unicode="ffl" horiz-adv-x="946" 
d="M333 448v-43q-56 0 -85.5 -4.5t-50.5 -11.5v59h136zM116 471q0 67 31.5 118.5t85.5 80.5t120 29q43 0 83.5 -14.5t73.5 -45.5l-46 -88q-21 44 -52.5 70t-73.5 26q-57 0 -94.5 -34t-37.5 -114v-277h-90v249zM131 448v-57q-25 7 -51 9.5t-44 2.5q0 13 3.5 24t10.5 21h81z
M206 147q0 -43 9 -65.5t29 -31t51 -10.5q3 -8 4 -18.5t1 -24.5q-23 2 -57 2.5t-69 0.5t-73.5 -0.5t-58.5 -2.5q0 14 1 24.5t4 18.5q27 2 42 9.5t21 26t6 51.5v100h90v-80zM454 448v-57q-25 7 -52.5 10.5t-68.5 3.5v43h121zM631 448q0 -10 -2 -22.5t-8 -22.5
q-29 0 -54.5 -3.5t-46.5 -10.5v59h111zM439 488q0 59 20.5 102t54.5 70.5t76 41t84 13.5q34 0 64 -7.5t46 -17.5l10 -125h-37q0 32 -14 53t-39.5 32t-60.5 11q-57 0 -85.5 -32.5t-28.5 -109.5v-297h-90v266zM529 147q0 -43 6 -65.5t21.5 -31t41.5 -10.5q3 -8 4 -18.5
t1 -24.5q-23 2 -52 2.5t-64 0.5t-68.5 -0.5t-53.5 -2.5q0 14 1 24.5t4 18.5q27 2 42 9.5t21 26t6 51.5v100h90v-80zM757 176h90v-49q0 -50 13.5 -68.5t45.5 -18.5q3 -10 4 -23t1 -20q-17 1 -36 1.5t-38.5 1t-38.5 0.5t-39.5 -0.5t-39.5 -1t-36 -1.5q0 10 1 21.5t4 21.5
q40 0 54.5 18.5t14.5 68.5v49zM777 548l-34 142q20 2 42 8t40 19q9 -3 15.5 -12t6.5 -28v-139zM757 575h90v-408h-90v408z" />
    <glyph glyph-name="f_f_j.liga" unicode="ffj" horiz-adv-x="925" 
d="M684 -249q-7 4 -13.5 11t-8.5 17q40 46 61 83t29 75.5t8 88.5v295q0 27 -6.5 44.5t-26.5 26t-63 9.5q-23 1 -51 -1t-51 -4.5t-33 -5.5v-263q0 -32 6.5 -50.5t22 -26.5t40.5 -10q3 -9 4 -19t1 -24q-19 2 -51.5 2.5t-62.5 0.5t-67 -0.5t-57 -2.5q0 14 1 24.5t4 18.5
q27 2 42 9.5t21 26t6 51.5v361q0 65 29.5 116t85.5 81t133 30q43 0 79 -8.5t67 -22.5q-2 -31 -2.5 -51.5t-0.5 -40.5q-14 -10 -38.5 -14.5t-47.5 -0.5q0 41 -23 63.5t-75 22.5q-61 0 -89 -35.5t-28 -108.5v-71h167q32 1 68 5t64 14q12 -5 17 -14t5 -29v-401q0 -51 -15 -94
t-39.5 -77.5t-53.5 -60t-58 -40.5zM131 391q-25 7 -51 9.5t-44 2.5q0 13 3.5 24t10.5 21h81v-57zM42 -3q0 14 1 24.5t4 18.5q27 2 42 9.5t21 26t6 51.5v344q0 67 31.5 118.5t85 80.5t118.5 29q44 0 85 -14.5t74 -45.5l-46 -88q-21 44 -53.5 70t-80.5 26q-51 0 -87.5 -34
t-36.5 -114v-352q0 -43 9 -65.5t29 -31t51 -10.5q3 -8 4 -18.5t1 -24.5q-23 2 -57 2.5t-69 0.5t-73.5 -0.5t-58.5 -2.5zM197 390v58h257v-58q-25 8 -52.5 11.5t-68.5 3.5q-56 0 -85.5 -4.5t-50.5 -10.5z" />
    <glyph glyph-name="f_f_t.liga" unicode="fft" horiz-adv-x="1013" 
d="M333 448v-43q-56 0 -85.5 -4.5t-50.5 -11.5v59h136zM116 461q0 67 31.5 118.5t85.5 80.5t120 29q43 0 83.5 -14.5t73.5 -45.5l-46 -88q-21 44 -52.5 70t-73.5 26q-38 0 -68 -14.5t-47 -47t-17 -86.5v-267h-90v239zM131 448v-57q-25 7 -51 9.5t-44 2.5q0 13 3.5 24
t10.5 21h81zM206 147q0 -43 9 -65.5t29 -31t51 -10.5q3 -8 4 -18.5t1 -24.5q-23 2 -57 2.5t-69 0.5t-73.5 -0.5t-58.5 -2.5q0 14 1 24.5t4 18.5q27 2 42 9.5t21 26t6 51.5v100h90v-80zM631 448q0 -10 -2 -22.5t-8 -22.5q-29 0 -54.5 -3.5t-46.5 -10.5v59h111zM454 448v-57
q-25 7 -52.5 10.5t-68.5 3.5v43h121zM529 147q0 -43 9 -65.5t29 -31t51 -10.5q3 -8 4 -18.5t1 -24.5q-15 1 -35.5 1.5t-43.5 1t-47 0.5q-35 0 -73.5 -0.5t-58.5 -2.5q0 14 1 24.5t4 18.5q27 2 42 9.5t21 26t6 51.5v100h90v-80zM631 448q0 -10 -2 -22.5t-8 -22.5
q-29 0 -54.5 -3.5t-46.5 -10.5v59h111zM439 468q0 59 20.5 102t54.5 70.5t75.5 41t83.5 13.5q34 0 64.5 -8t49.5 -22l4 -120h-37q0 32 -13.5 53t-38.5 32t-60 11q-57 0 -85 -32.5t-28 -109.5v-297h-90v266zM774 518l-34 142q14 1 28 4t28 9t26 14q9 -3 16 -12t7 -28v-139z
M754 448v132l91 -12v-120h129q0 -10 -2 -21.5t-7 -22.5q-73 -3 -120 -13v-250q0 -33 6.5 -54.5t19.5 -31.5t31 -10q21 0 36.5 6t29.5 18q13 -15 15 -33q-16 -19 -48.5 -32t-64.5 -13q-59 0 -87.5 30.5t-28.5 98.5v271q-15 5 -31 8.5t-41 4.5q0 13 2 22.5t7 21.5h63zM529 147
q0 -43 9 -65.5t29 -31t51 -10.5q3 -8 4 -18.5t1 -24.5q-15 1 -35.5 1.5t-43.5 1t-47 0.5q-35 0 -73.5 -0.5t-58.5 -2.5q0 14 1 24.5t4 18.5q27 2 42 9.5t21 26t6 51.5v100h90v-80z" />
    <glyph glyph-name="f_i.liga" unicode="fi" horiz-adv-x="627" 
d="M42 -3q0 14 1 24.5t4 18.5q27 2 42 9.5t21 26t6 51.5v265q-12 5 -37 8.5t-43 3.5q0 9 3.5 21.5t10.5 22.5h66v40q0 65 29.5 116t84 81t129.5 30q47 0 83.5 -8.5t67.5 -22.5q-2 -31 -2.5 -51.5t-0.5 -40.5q-14 -10 -38.5 -14.5t-47.5 -0.5q0 27 -9.5 46.5t-29 29.5
t-49.5 10q-69 0 -98 -35.5t-29 -108.5v-71h167q32 1 68 5t64 14q12 -5 17 -14t5 -29v-297q0 -50 13.5 -67.5t45.5 -19.5q3 -9 4 -20.5t1 -22.5q-13 1 -31 1.5t-39.5 1t-43.5 0.5t-43 -0.5t-39 -1t-32 -1.5q0 13 1 23t4 20q40 2 54.5 19.5t14.5 67.5v194q0 27 -7 45t-29 27
t-67 9q-20 0 -46.5 -1.5t-49 -4.5t-32.5 -6v-263q0 -32 6.5 -50.5t22 -26.5t40.5 -10q3 -9 4 -19t1 -24q-19 2 -51.5 2.5t-62.5 0.5t-67 -0.5t-57 -2.5z" />
    <glyph glyph-name="f_j.liga" unicode="fj" horiz-adv-x="602" 
d="M116 392q-12 5 -37 8.5t-43 3.5q0 9 3.5 21.5t10.5 22.5h66v40q0 65 29.5 116t84 81t129.5 30q47 0 83.5 -8.5t67.5 -22.5q-2 -31 -2.5 -51.5t-0.5 -40.5q-14 -10 -38.5 -14.5t-47.5 -0.5q0 27 -9.5 46.5t-29 29.5t-49.5 10q-69 0 -98 -35.5t-29 -108.5v-71h167l-40 -46
q-19 0 -45.5 -1.5t-49 -4.5t-32.5 -6v-263q0 -32 6.5 -50.5t22 -26.5t40.5 -10q3 -9 4 -19t1 -24q-19 2 -51.5 2.5t-62.5 0.5t-67 -0.5t-57 -2.5q0 14 1 24.5t4 18.5q27 2 42 9.5t21 26t6 51.5v265zM437 321q0 27 -6.5 44.5t-28.5 26.5t-69 10l40 46q32 1 68 5t64 14
q12 -5 17 -14t5 -29v-157h-90v54zM437 305h90v-282q0 -51 -15 -94t-39.5 -77.5t-53.5 -60t-58 -40.5q-7 4 -13.5 11t-8.5 17q40 46 61 83t29 75.5t8 88.5v279z" />
    <glyph glyph-name="f_l.liga" unicode="fl" horiz-adv-x="623" 
d="M308 448q0 -10 -2 -22.5t-8 -22.5q-29 0 -54.5 -3.5t-46.5 -10.5v59h111zM116 488q0 59 20.5 102t54.5 70.5t76 41t84 13.5q34 0 64 -7.5t46 -17.5l10 -125h-37q0 32 -14 53t-39.5 32t-60.5 11q-57 0 -85.5 -32.5t-28.5 -109.5v-297h-90v266zM131 448v-57q-25 7 -51 9.5
t-44 2.5q0 13 3.5 24t10.5 21h81zM206 147q0 -43 6 -65.5t21 -31t42 -10.5q3 -8 4 -18.5t1 -24.5q-23 2 -52 2.5t-64 0.5t-68.5 -0.5t-53.5 -2.5q0 14 1 24.5t4 18.5q27 2 42 9.5t21 26t6 51.5v100h90v-80zM434 176h90v-49q0 -50 13.5 -68.5t45.5 -18.5q3 -10 4 -23t1 -20
q-17 1 -36 1.5t-38.5 1t-38.5 0.5t-39.5 -0.5t-39.5 -1t-36 -1.5q0 10 1 21.5t4 21.5q40 0 54.5 18.5t14.5 68.5v49zM454 548l-34 142q14 1 28 4t28 9t26 14q9 -3 15.5 -12t6.5 -28v-139zM434 575h90v-408h-90v408z" />
    <glyph glyph-name="f_t.liga" unicode="ft" horiz-adv-x="689" 
d="M42 -3q0 14 1 24.5t4 18.5q27 2 42 9.5t21 26t6 51.5v341q0 59 20.5 102t54.5 70.5t75.5 41t83.5 13.5q34 0 64.5 -8t49.5 -22l4 -120h-37q0 32 -13.5 53t-38.5 32t-60 11q-57 0 -85 -32.5t-28 -109.5v-352q0 -43 9 -65.5t29 -31t51 -10.5q3 -8 4 -18.5t1 -24.5
q-15 1 -35.5 1.5t-43.5 1t-47 0.5q-35 0 -73.5 -0.5t-58.5 -2.5zM131 391q-25 7 -51 9.5t-44 2.5q0 13 3.5 24t10.5 21h81v-57zM197 389v59h111q0 -10 -2 -22.5t-8 -22.5q-29 0 -54.5 -3.5t-46.5 -10.5zM546 -9q-58 0 -86.5 30.5t-28.5 98.5v271q-15 5 -31 8.5t-41 4.5
q0 13 2 22.5t7 21.5h63v132l-14 80q14 1 28 4t27.5 9t25.5 14q9 -3 16 -12t7 -28v-199h129q0 -10 -2 -21.5t-7 -22.5q-73 -3 -120 -13v-250q0 -33 6.5 -54.5t19.5 -31.5t31 -10q21 0 36.5 6t29.5 18q13 -15 15 -33q-16 -19 -48.5 -32t-64.5 -13z" />
    <glyph glyph-name="longs_t.liga" unicode="&#x17f;t" horiz-adv-x="673" 
d="M131 448v-57q-25 7 -51 9.5t-44 2.5q0 13 3.5 24t10.5 21h81zM206 147q0 -43 9 -65.5t29 -31t51 -10.5q3 -8 4 -18.5t1 -24.5q-15 1 -35.5 1.5t-43.5 1t-47 0.5q-35 0 -73.5 -0.5t-58.5 -2.5q0 14 1 24.5t4 18.5q27 2 42 9.5t21 26t6 51.5v100h90v-80zM414 448v132
q20 5 40 16t35 24q10 -4 13 -12t3 -40v-120h129q0 -10 -2 -21.5t-7 -22.5q-73 -3 -120 -13v-250q0 -33 6.5 -54.5t19.5 -31.5t31 -10q21 0 36.5 6t29.5 18q13 -15 15 -33q-16 -19 -48.5 -32t-64.5 -13q-59 0 -87.5 30.5t-28.5 98.5v271q-15 5 -31 8.5t-41 4.5q0 13 2 22.5
t7 21.5h63zM116 468q0 70 27.5 120.5t76 78.5t111.5 28q35 0 66 -8t50 -22l4 -120h-37q0 47 -28.5 71.5t-73.5 24.5q-53 0 -79.5 -35t-26.5 -107v-297h-90v266zM434 518l-34 142q14 1 28 4t28 9t26 14q9 -3 16 -12t7 -28v-139z" />
    <glyph glyph-name="longs_h.liga" unicode="&#x17f;h" horiz-adv-x="898" 
d="M116 488q0 59 19.5 102t51.5 70.5t71.5 41t78.5 13.5q32 0 59 -7.5t43 -17.5l10 -125h-37q0 47 -27 71.5t-76 24.5q-53 0 -78 -32.5t-25 -109.5v-297h-90v266zM131 448v-57q-25 7 -51 9.5t-44 2.5q0 13 3.5 24t10.5 21h81zM206 147q0 -43 6 -65.5t21 -31t42 -10.5
q3 -8 4 -18.5t1 -24.5q-23 2 -52 2.5t-64 0.5t-68.5 -0.5t-53.5 -2.5q0 14 1 24.5t4 18.5q27 2 42 9.5t21 26t6 51.5v100h90v-80zM432 548l-34 142q14 1 28 4t28 9t26 14q9 -3 15.5 -12t6.5 -28v-139zM798 127q0 -52 14.5 -69.5t44.5 -17.5q3 -9 4 -19t1 -24q-22 2 -50 2.5
t-59 0.5q-20 0 -42 -0.5t-41.5 -1t-35.5 -1.5q0 14 1 24.5t4 18.5q36 0 52.5 18.5t16.5 68.5v152q0 71 -26 96.5t-67 25.5q-26 0 -52 -16.5t-43.5 -53t-17.5 -97.5v-107q0 -50 15 -68.5t54 -18.5q3 -9 4 -19t1 -24q-14 1 -34 1.5t-42 1t-43 0.5q-20 0 -42 -0.5t-42 -1
t-35 -1.5q0 14 1 24.5t4 18.5q39 0 54 18.5t15 68.5v198l90 98q0 -12 -1 -27t-6 -32q3 5 6 11.5t9 14.5q17 23 54.5 47.5t90.5 24.5q38 0 70.5 -15.5t52.5 -51t20 -96.5v-172zM412 575h90v-152l-90 -113v265z" />
    <glyph glyph-name="longs_i.liga" unicode="&#x17f;i" horiz-adv-x="623" 
d="M523 127q0 -50 13.5 -68.5t45.5 -18.5q3 -10 4 -23t1 -20q-17 1 -36 1.5t-38.5 1t-38.5 0.5t-39.5 -0.5t-39.5 -1t-36 -1.5q0 10 1 21.5t4 21.5q40 0 54.5 18.5t14.5 68.5v198q0 24 -4.5 39.5t-20.5 23.5t-50 8q0 11 2 20t7 17q15 0 42 5t53.5 13t38.5 16q9 -3 15.5 -12
t6.5 -28v-300zM116 392q-12 5 -37 8.5t-43 3.5q0 9 3.5 21.5t10.5 22.5h66v40q0 65 29.5 116t84 81t129.5 30q47 0 83.5 -8.5t67.5 -22.5q-2 -31 -2.5 -51.5t-0.5 -40.5q-14 -10 -38.5 -14.5t-47.5 -0.5q0 27 -9.5 46.5t-29 29.5t-49.5 10q-69 0 -98 -35.5t-29 -108.5v-392
q0 -32 6.5 -50.5t22 -26.5t40.5 -10q3 -9 4 -19t1 -24q-19 2 -51.5 2.5t-62.5 0.5t-67 -0.5t-57 -2.5q0 14 1 24.5t4 18.5q27 2 42 9.5t21 26t6 51.5v265z" />
    <glyph glyph-name="longs_longs.liga" unicode="&#x17f;&#x17f;" horiz-adv-x="609" 
d="M333 699q40 0 76.5 -12.5t65.5 -37.5l-50 -72q-11 29 -38 49.5t-70 20.5q-32 0 -57.5 -14.5t-39.5 -47t-14 -86.5v-277h-90v249q0 67 28.5 118.5t78 80.5t110.5 29zM206 227v-80q0 -43 9 -65.5t29 -31t51 -10.5q3 -8 4 -18.5t1 -24.5q-23 2 -57 2.5t-69 0.5t-73.5 -0.5
t-58.5 -2.5q0 14 1 24.5t4 18.5q27 2 42 9.5t21 26t6 51.5v100h90zM131 448v-57q-25 7 -51 9.5t-44 2.5q0 13 3.5 24t10.5 21h81zM493 227v-80q0 -43 9 -65.5t29 -31t51 -10.5q3 -8 4 -18.5t1 -24.5q-15 1 -35.5 1.5t-43.5 1t-47 0.5q-23 0 -49 -0.5t-48 -1t-35 -1.5
q0 14 1 24.5t4 18.5q27 2 42 9.5t21 26t6 51.5v100h90zM418 448v-57q-25 7 -51 9.5t-44 2.5q0 13 3.5 24t10.5 21h81zM612 714q39 0 59 -7.5t36 -17.5q-2 -31 -3 -60.5t-1 -56.5q-13 -4 -28 -6t-29 -2q0 41 -18 68t-60 27q-27 0 -43.5 -16.5t-24 -47.5t-7.5 -76v-397h-90
v366q0 75 30.5 125.5t78.5 75.5t100 25z" />
    <glyph glyph-name="Yi_Yicy.rlig" unicode="&#x407;&#x407;" horiz-adv-x="708" 
d="M100 737q-25 0 -41 14t-16 34q0 21 13 37.5t42 16.5q30 0 43.5 -15t13.5 -37t-16 -36t-39 -14zM256 738q-29 0 -44 15t-15 38t15.5 35.5t40.5 12.5t41 -13.5t16 -34.5q0 -20 -12 -36.5t-42 -16.5zM454 737q-25 0 -41 14t-16 34q0 21 13 37.5t42 16.5q30 0 43.5 -15
t13.5 -37t-16 -36t-39 -14zM610 738q-29 0 -44 15t-15 38t15.5 35.5t40.5 12.5t41 -13.5t16 -34.5q0 -20 -12 -36.5t-42 -16.5zM129 549q0 34 -6 52t-21 26t-42 9q-3 8 -4 19t-1 24q19 -1 38.5 -1.5t40.5 -1t42 -0.5q22 0 42 0.5t39.5 1t39.5 1.5q0 -13 -1 -24t-4 -19
q-26 -1 -41.5 -9t-21.5 -26t-6 -52v-422q0 -33 6 -51.5t21.5 -26t41.5 -9.5q3 -8 4 -18.5t1 -24.5q-30 2 -61 2.5t-60 0.5t-62 -0.5t-59 -2.5q0 14 1 24.5t4 18.5q27 2 42 9.5t21 26t6 51.5v422zM483 549q0 34 -6 52t-21 26t-42 9q-3 8 -4 19t-1 24q19 -1 38.5 -1.5t40.5 -1
t42 -0.5q22 0 42 0.5t39.5 1t39.5 1.5q0 -13 -1 -24t-4 -19q-26 -1 -41.5 -9t-21.5 -26t-6 -52v-422q0 -33 6 -51.5t21.5 -26t41.5 -9.5q3 -8 4 -18.5t1 -24.5q-30 2 -61 2.5t-60 0.5t-62 -0.5t-59 -2.5q0 14 1 24.5t4 18.5q27 2 42 9.5t21 26t6 51.5v422z" />
    <glyph glyph-name="yi_yicy.rlig" unicode="&#x457;&#x457;" horiz-adv-x="602" 
d="M537 533q-29 0 -44 15.5t-15 40.5q0 24 15.5 37.5t40.5 13.5t41 -14t16 -37q0 -21 -12 -38.5t-42 -17.5zM381 532q-25 0 -41 14.5t-16 36.5t13 39.5t42 17.5q30 0 43.5 -16t13.5 -39t-16 -38t-39 -15zM224 533q-29 0 -44 15.5t-15 40.5q0 24 15.5 37.5t40.5 13.5t41 -14
t16 -37q0 -21 -12 -38.5t-42 -17.5zM68 532q-25 0 -41 14.5t-16 36.5t13 39.5t42 17.5q30 0 43.5 -16t13.5 -39t-16 -38t-39 -15zM37 -3q0 10 1 21.5t4 21.5q40 0 54.5 18.5t14.5 68.5v198q0 24 -4.5 39.5t-20.5 23.5t-50 8q0 11 2 20t7 17q15 0 42.5 5t53.5 13t38 16
q9 -3 15.5 -12t6.5 -28v-300q0 -50 13.5 -68.5t45.5 -18.5q3 -10 4 -23t1 -20q-17 1 -36 1.5t-38.5 1t-38.5 0.5t-39.5 -0.5t-39.5 -1t-36 -1.5zM338 -3q0 10 1 21.5t4 21.5q40 0 54.5 18.5t14.5 68.5v198q0 24 -4.5 39.5t-20.5 23.5t-50 8q0 11 2 20t7 17q15 0 42.5 5
t53.5 13t38 16q9 -3 15.5 -12t6.5 -28v-300q0 -50 13.5 -68.5t45.5 -18.5q3 -10 4 -23t1 -20q-17 1 -36 1.5t-38.5 1t-38.5 0.5t-39.5 -0.5t-39.5 -1t-36 -1.5z" />
    <glyph glyph-name=".notdef" horiz-adv-x="454" 
d="M51 0v677h352v-677h-352zM112 99q5 0 5 5t-5 5t-5 -5t5 -5zM117 163q5 0 7 2l-1 3q-2 -1 -4 -1q-3 0 -3 6v16h7v3h-7v7q0 3 -2 3l-5 -3v-7h-5v-3h5v-18q0 -8 8 -8zM133 148q3 0 5.5 2.5t5.5 10.5l9 22q3 6 5 6v3h-12v-3q6 0 3 -7l-4 -11l-5 12q-3 6 3 6v3h-17v-3
q4 0 6 -6l9 -21q-1 -3 -2.5 -5.5t-5.5 -2.5q-2 0 -5 1v-5q2 -2 5 -2zM161 148h18v3q-6 0 -6 6v6h5q16 0 16 16q0 14 -11 14q-7 0 -10 -6v3q0 2 -1 3q-4 -2 -11 -2v-3q5 0 5 -5v-26q0 -6 -5 -6v-3zM178 167h-5v9q0 12 7 12q6 0 6 -10q0 -7 -3 -9t-5 -2zM118 227h4l9 21
q3 6 5 6v3h-12v-3q6 0 3 -6l-5 -13l-4 10q-3 9 2 9v3h-16v-3q3 0 5 -6zM213 163q7 0 11 4l-2 3q-3 -3 -8 -3q-8 0 -8 10h17l1 3q0 13 -12 13q-14 0 -14 -15t15 -15zM153 227q15 0 15 15t-15 15t-15 -15t15 -15zM153 231q-7 0 -7 11t7 11t7 -11t-7 -11zM206 181q0 8 5 8
q6 0 6 -8h-11zM229 163h17v3q-6 0 -6 6v17h7v3h-7q0 11 4 11q5 0 5 -6h4v8q-2 2 -6 2q-14 0 -14 -14v-1h-5v-3h5v-17q0 -6 -4 -6v-3zM171 227h16v3q-4 0 -4 6v32q0 3 -2 3q-4 -2 -10 -2v-3q5 0 5 -4v-26q0 -6 -5 -6v-3zM262 167q-3 0 -3 4t9 6q0 -10 -6 -10zM259 163
q8 0 10 5q0 -5 2 -5l7 2v3q-3 0 -3 5v7q0 8 -3 10.5t-8 2.5q-6 0 -11 -3l1 -7h4q0 6 5 6t5 -9q-4 -1 -10.5 -3t-6.5 -8t8 -6zM191 227h15v3q-4 0 -4 6v32q0 3 -2 3q-4 -2 -10 -2v-3q5 0 5 -4v-26q0 -6 -4 -6v-3zM296 163q6 0 10 4l-2 3q-3 -3 -7 -3q-8 0 -8 11t6 11
q5 0 6 -7h4v8q-3 3 -9 3q-14 0 -14 -15t14 -15zM211 227h15v3q-4 0 -4 6v5l11 -14h9v3q-3 0 -14 14q6 6 8.5 7.5t4.5 1.5v3h-14v-3q3 0 3 -1q0 -2 -8 -9v25q0 3 -2 3q-4 -2 -10 -2v-3q5 0 5 -4v-26q0 -6 -4 -6v-3zM102 329v70h70v-70h-70zM112 339h50v50h-50v-50zM122 349
v30h30v-30h-30zM102 409v10h30v-10h-30zM102 429v10h10v10h10v-20h-20zM182 329v30h10v-20h10v20h10v10h10v-20h-10v-10h10v10h10v-20h-50zM306 227h15v3q-4 0 -4 6v6q0 11 7 11q5 0 5 -8v-9q0 -6 -4 -6v-3h15v3q-4 0 -4 6v10q0 11 -9 11q-8 0 -10 -7v3q0 3 -2 4
q-4 -2 -9 -2v-3q4 0 4 -5v-11q0 -6 -4 -6v-3zM182 379v10h10v-10h-10zM142 409v20h20v-10h20v-10h-40zM182 399v10h10v-10h-10zM242 339v20h10v-20h-10zM345 240h18v6h-18v-6zM132 459v10h10v-10h-10zM132 429v20h20v10h30v-20h-10v10h-10v-10h-20v-10h-10zM162 429v10h10
v-10h-10zM262 329v20h10v-20h-10zM102 459v40h30v-10h20v10h20v-10h-10v-10h20v-10h-30v10h-40v-10h10v-10h-20zM312 329v10h10v-10h-10zM92 319h270v270h-270v-270zM102 509v70h70v-70h-70zM112 519h50v50h-50v-50zM122 529v30h30v-30h-30zM272 379h30v30h-30v-30zM282 389
v10h10v-10h-10zM342 329v10h10v-10h-10zM232 469v10h10v-10h-10zM332 379v10h10v-10h-10zM282 339v10h20v10h-10v10h-10v-20h-10v10h-20v20h-10v10h-10v-20h-10v10h-10v-10h-20v10h10v10h-10v10h10v20h-20v20h10v30h10v-40h10v20h10v10h-10v20h-20v10h-10v50h20v20h-20v20
h10v-10h10v10h30v-20h-10v10h-10v-20h10v-10h-10v-10h-20v-30h10v20h10v-30h10v50h10v20h10v-10h10v-10h-10v-10h-10v-50h-10v-10h10v-30h-10v-20h10v-20h20v-10h10v10h-10v50h10v10h-20v10h10v20h10v-10h10v-50h-10v-10h30v20h-10v20h10v10h20v20h10v-10h10v-10h-10v-10
h-20v-40h10v-20h10v-10h-10v-10h10v-10h20v-10h10v-10h-20v10h-20v-20h-30zM322 399v10h10v-10h-10zM342 389v20h10v-20h-10zM332 409v10h10v-10h-10zM312 429v10h20v-10h-20zM242 509v10h10v-10h-10zM342 429v10h-10v10h10v10h10v-30h-10zM282 479v10h-20v40h10v-30h40v-10
h-10v-10h-20zM252 549v10h10v-10h-10zM262 539v10h10v-10h-10zM342 469v10h-10v20h20v-30h-10zM282 509v70h70v-70h-70zM292 519h50v50h-50v-50zM302 529v30h30v-30h-30zM278 227h18v3q-6 0 -6 6v5q0 10 5 10q3 0 3 -4h4v9q-1 1 -4 1q-5 0 -8 -7v3q0 3 -2 4q-4 -2 -10 -2v-3
q5 0 5 -5v-11q0 -6 -5 -6v-3zM259 227q15 0 15 15t-15 15t-15 -15t15 -15zM259 231q-7 0 -7 11t7 11t7 -11t-7 -11zM325 163q7 0 11 4l-2 3q-3 -3 -8 -3q-8 0 -8 10h17l1 3q0 13 -12 13q-14 0 -14 -15t15 -15zM318 181q0 8 5 8q6 0 6 -8h-11zM138 99q6 0 10 4l-2 3
q-3 -3 -7 -3q-8 0 -8 11t6 11q5 0 6 -7h4v8q-3 3 -9 3q-14 0 -14 -15t14 -15zM167 99q15 0 15 15t-15 15t-15 -15t15 -15zM167 103q-7 0 -7 11t7 11t7 -11t-7 -11zM215 114q0 11 7 11q5 0 5 -8v-9q0 -6 -4 -6v-3h15v3q-4 0 -4 6v10q0 11 -9 11q-8 0 -10 -6q-2 6 -9 6
q-8 0 -10 -7v3q0 3 -2 4q-4 -2 -9 -2v-3q4 0 4 -5v-11q0 -6 -4 -6v-3h15v3q-4 0 -4 6v6q0 11 7 11q5 0 5 -8v-9q0 -6 -4 -6v-3h15v3q-4 0 -4 6v6z" />
    <glyph glyph-name="A" unicode="A" horiz-adv-x="704" 
d="M358 682l238 -546q17 -37 28 -57t22.5 -28t26.5 -11q4 -13 5 -22t1 -21q-10 1 -31 1.5t-44 1t-39 0.5q-12 0 -28 -0.5t-33 -1t-30.5 -1t-21.5 -0.5q0 12 1.5 23t5.5 20q41 5 48.5 18.5t-12.5 59.5l-139 325q-13 31 -23 55t-24 61h5q-12 -38 -21.5 -64.5t-18.5 -50.5
l-114 -297q-22 -59 -13.5 -81.5t49.5 -25.5q4 -9 5.5 -20t1.5 -23q-11 1 -27 1.5t-33.5 1t-34.5 0.5q-25 0 -47 -1t-36 -2q0 10 1.5 21.5t5.5 20.5q18 4 30 14t23.5 32.5t26.5 61.5l207 531q10 2 18.5 3t20.5 1zM449 265l9 -45q-67 0 -143.5 -1t-138.5 -3l16 49h257z" />
    <glyph glyph-name="Aacute" unicode="&#xc1;" horiz-adv-x="704" 
d="M358 682l238 -546q17 -37 28 -57t22.5 -28t26.5 -11q4 -13 5 -22t1 -21q-10 1 -31 1.5t-44 1t-39 0.5q-12 0 -28 -0.5t-33 -1t-30.5 -1t-21.5 -0.5q0 12 1.5 23t5.5 20q41 5 48.5 18.5t-12.5 59.5l-139 325q-13 31 -23 55t-24 61h5q-12 -38 -21.5 -64.5t-18.5 -50.5
l-114 -297q-22 -59 -13.5 -81.5t49.5 -25.5q4 -9 5.5 -20t1.5 -23q-11 1 -27 1.5t-33.5 1t-34.5 0.5q-25 0 -47 -1t-36 -2q0 10 1.5 21.5t5.5 20.5q18 4 30 14t23.5 32.5t26.5 61.5l207 531q10 2 18.5 3t20.5 1zM449 265l9 -45q-67 0 -143.5 -1t-138.5 -3l16 49h257z
M346 732q-13 0 -22 0.5t-18 4.5q17 35 31.5 69t24.5 65q12 3 24 5t24 2q26 0 47 -8q-27 -32 -53.5 -65t-57.5 -73z" />
    <glyph glyph-name="Abreve" unicode="&#x102;" horiz-adv-x="704" 
d="M358 682l238 -546q17 -37 28 -57t22.5 -28t26.5 -11q4 -13 5 -22t1 -21q-10 1 -31 1.5t-44 1t-39 0.5q-12 0 -28 -0.5t-33 -1t-30.5 -1t-21.5 -0.5q0 12 1.5 23t5.5 20q41 5 48.5 18.5t-12.5 59.5l-139 325q-13 31 -23 55t-24 61h5q-12 -38 -21.5 -64.5t-18.5 -50.5
l-114 -297q-22 -59 -13.5 -81.5t49.5 -25.5q4 -9 5.5 -20t1.5 -23q-11 1 -27 1.5t-33.5 1t-34.5 0.5q-25 0 -47 -1t-36 -2q0 10 1.5 21.5t5.5 20.5q18 4 30 14t23.5 32.5t26.5 61.5l207 531q10 2 18.5 3t20.5 1zM449 265l9 -45q-67 0 -143.5 -1t-138.5 -3l16 49h257z
M487 865q0 -66 -39 -101.5t-111 -35.5q-70 0 -108.5 34.5t-38.5 98.5q10 5 22 7.5t23 1.5q6 -36 36 -57t75 -21t73 21t30 57q11 1 21 -0.5t17 -4.5z" />
    <glyph glyph-name="uni1EAE" unicode="&#x1eae;" horiz-adv-x="704" 
d="M358 682l238 -546q17 -37 28 -57t22.5 -28t26.5 -11q4 -13 5 -22t1 -21q-10 1 -31 1.5t-44 1t-39 0.5q-12 0 -28 -0.5t-33 -1t-30.5 -1t-21.5 -0.5q0 12 1.5 23t5.5 20q41 5 48.5 18.5t-12.5 59.5l-139 325q-13 31 -23 55t-24 61h5q-12 -38 -21.5 -64.5t-18.5 -50.5
l-114 -297q-22 -59 -13.5 -81.5t49.5 -25.5q4 -9 5.5 -20t1.5 -23q-11 1 -27 1.5t-33.5 1t-34.5 0.5q-25 0 -47 -1t-36 -2q0 10 1.5 21.5t5.5 20.5q18 4 30 14t23.5 32.5t26.5 61.5l207 531q10 2 18.5 3t20.5 1zM449 265l9 -45q-67 0 -143.5 -1t-138.5 -3l16 49h257z
M487 865q0 -66 -39 -101.5t-111 -35.5q-70 0 -108.5 34.5t-38.5 98.5q10 5 22 7.5t23 1.5q6 -36 36 -57t75 -21t73 21t30 57q11 1 21 -0.5t17 -4.5zM346 857q-13 0 -22 0.5t-18 4.5q17 35 31.5 69t24.5 65q12 3 24 5t24 2q26 0 47 -8q-27 -32 -53.5 -65t-57.5 -73z" />
    <glyph glyph-name="uni1EB6" unicode="&#x1eb6;" horiz-adv-x="704" 
d="M358 682l238 -546q17 -37 28 -57t22.5 -28t26.5 -11q4 -13 5 -22t1 -21q-10 1 -31 1.5t-44 1t-39 0.5q-12 0 -28 -0.5t-33 -1t-30.5 -1t-21.5 -0.5q0 12 1.5 23t5.5 20q41 5 48.5 18.5t-12.5 59.5l-139 325q-13 31 -23 55t-24 61h5q-12 -38 -21.5 -64.5t-18.5 -50.5
l-114 -297q-22 -59 -13.5 -81.5t49.5 -25.5q4 -9 5.5 -20t1.5 -23q-11 1 -27 1.5t-33.5 1t-34.5 0.5q-25 0 -47 -1t-36 -2q0 10 1.5 21.5t5.5 20.5q18 4 30 14t23.5 32.5t26.5 61.5l207 531q10 2 18.5 3t20.5 1zM449 265l9 -45q-67 0 -143.5 -1t-138.5 -3l16 49h257z
M327 -210q-25 0 -42 17t-17 41q0 27 18 44t41 17q27 0 43.5 -17t16.5 -44q0 -23 -17.5 -40.5t-42.5 -17.5zM487 865q0 -66 -39 -101.5t-111 -35.5q-70 0 -108.5 34.5t-38.5 98.5q10 5 22 7.5t23 1.5q6 -36 36 -57t75 -21t73 21t30 57q11 1 21 -0.5t17 -4.5z" />
    <glyph glyph-name="uni1EB0" unicode="&#x1eb0;" horiz-adv-x="704" 
d="M358 682l238 -546q17 -37 28 -57t22.5 -28t26.5 -11q4 -13 5 -22t1 -21q-10 1 -31 1.5t-44 1t-39 0.5q-12 0 -28 -0.5t-33 -1t-30.5 -1t-21.5 -0.5q0 12 1.5 23t5.5 20q41 5 48.5 18.5t-12.5 59.5l-139 325q-13 31 -23 55t-24 61h5q-12 -38 -21.5 -64.5t-18.5 -50.5
l-114 -297q-22 -59 -13.5 -81.5t49.5 -25.5q4 -9 5.5 -20t1.5 -23q-11 1 -27 1.5t-33.5 1t-34.5 0.5q-25 0 -47 -1t-36 -2q0 10 1.5 21.5t5.5 20.5q18 4 30 14t23.5 32.5t26.5 61.5l207 531q10 2 18.5 3t20.5 1zM449 265l9 -45q-67 0 -143.5 -1t-138.5 -3l16 49h257z
M487 865q0 -66 -39 -101.5t-111 -35.5q-70 0 -108.5 34.5t-38.5 98.5q10 5 22 7.5t23 1.5q6 -36 36 -57t75 -21t73 21t30 57q11 1 21 -0.5t17 -4.5zM332 860q-31 40 -57.5 70.5t-53.5 57.5q17 9 41.5 11.5t48.5 0.5q13 -31 27.5 -65.5t33.5 -69.5q-9 -4 -18 -4.5t-22 -0.5z
" />
    <glyph glyph-name="uni1EB2" unicode="&#x1eb2;" horiz-adv-x="704" 
d="M358 682l238 -546q17 -37 28 -57t22.5 -28t26.5 -11q4 -13 5 -22t1 -21q-10 1 -31 1.5t-44 1t-39 0.5q-12 0 -28 -0.5t-33 -1t-30.5 -1t-21.5 -0.5q0 12 1.5 23t5.5 20q41 5 48.5 18.5t-12.5 59.5l-139 325q-13 31 -23 55t-24 61h5q-12 -38 -21.5 -64.5t-18.5 -50.5
l-114 -297q-22 -59 -13.5 -81.5t49.5 -25.5q4 -9 5.5 -20t1.5 -23q-11 1 -27 1.5t-33.5 1t-34.5 0.5q-25 0 -47 -1t-36 -2q0 10 1.5 21.5t5.5 20.5q18 4 30 14t23.5 32.5t26.5 61.5l207 531q10 2 18.5 3t20.5 1zM449 265l9 -45q-67 0 -143.5 -1t-138.5 -3l16 49h257z
M487 865q0 -66 -39 -101.5t-111 -35.5q-70 0 -108.5 34.5t-38.5 98.5q10 5 22 7.5t23 1.5q6 -36 36 -57t75 -21t73 21t30 57q11 1 21 -0.5t17 -4.5zM319 851q-13 16 -13 31q0 16 9.5 25.5t22 17t22 15t9.5 19.5q0 10 -8 15t-22 5q-22 0 -33.5 -13t-15.5 -45q-12 0 -25.5 2.5
t-21.5 6.5q2 17 2.5 28.5t-2.5 26.5q16 12 39 22t61 10q40 0 66 -14t26 -42q0 -19 -12 -32t-27 -22t-27 -17.5t-12 -20.5q0 -5 2 -13q-10 -3 -19.5 -4t-20.5 -1z" />
    <glyph glyph-name="uni1EB4" unicode="&#x1eb4;" horiz-adv-x="704" 
d="M358 682l238 -546q17 -37 28 -57t22.5 -28t26.5 -11q4 -13 5 -22t1 -21q-10 1 -31 1.5t-44 1t-39 0.5q-12 0 -28 -0.5t-33 -1t-30.5 -1t-21.5 -0.5q0 12 1.5 23t5.5 20q41 5 48.5 18.5t-12.5 59.5l-139 325q-13 31 -23 55t-24 61h5q-12 -38 -21.5 -64.5t-18.5 -50.5
l-114 -297q-22 -59 -13.5 -81.5t49.5 -25.5q4 -9 5.5 -20t1.5 -23q-11 1 -27 1.5t-33.5 1t-34.5 0.5q-25 0 -47 -1t-36 -2q0 10 1.5 21.5t5.5 20.5q18 4 30 14t23.5 32.5t26.5 61.5l207 531q10 2 18.5 3t20.5 1zM449 265l9 -45q-67 0 -143.5 -1t-138.5 -3l16 49h257z
M487 865q0 -66 -39 -101.5t-111 -35.5q-70 0 -108.5 34.5t-38.5 98.5q10 5 22 7.5t23 1.5q6 -36 36 -57t75 -21t73 21t30 57q11 1 21 -0.5t17 -4.5zM396 903q-18 0 -35 5.5t-33 12t-32.5 12t-34.5 5.5q-19 0 -36.5 -8t-34.5 -24q-7 5 -10 13t-3 18q29 38 57 51.5t54 13.5
t48 -8.5t42 -17t41 -8.5q15 0 29 6.5t27 19.5q5 -1 13.5 -4t12.5 -10q-22 -41 -49 -59t-56 -18z" />
    <glyph glyph-name="uni01CD" unicode="&#x1cd;" horiz-adv-x="704" 
d="M358 682l238 -546q17 -37 28 -57t22.5 -28t26.5 -11q4 -13 5 -22t1 -21q-10 1 -31 1.5t-44 1t-39 0.5q-12 0 -28 -0.5t-33 -1t-30.5 -1t-21.5 -0.5q0 12 1.5 23t5.5 20q41 5 48.5 18.5t-12.5 59.5l-139 325q-13 31 -23 55t-24 61h5q-12 -38 -21.5 -64.5t-18.5 -50.5
l-114 -297q-22 -59 -13.5 -81.5t49.5 -25.5q4 -9 5.5 -20t1.5 -23q-11 1 -27 1.5t-33.5 1t-34.5 0.5q-25 0 -47 -1t-36 -2q0 10 1.5 21.5t5.5 20.5q18 4 30 14t23.5 32.5t26.5 61.5l207 531q10 2 18.5 3t20.5 1zM449 265l9 -45q-67 0 -143.5 -1t-138.5 -3l16 49h257z
M316 731q-24 28 -57 60t-73 64q5 8 14 14t20 9q28 -16 61 -36t61 -33q14 7 40 20.5t52 28t41 23.5q8 -4 11.5 -15t4.5 -19q-34 -22 -72 -52t-68 -60q-8 -2 -17.5 -3t-17.5 -1z" />
    <glyph glyph-name="Acircumflex" unicode="&#xc2;" horiz-adv-x="704" 
d="M358 682l238 -546q17 -37 28 -57t22.5 -28t26.5 -11q4 -13 5 -22t1 -21q-10 1 -31 1.5t-44 1t-39 0.5q-12 0 -28 -0.5t-33 -1t-30.5 -1t-21.5 -0.5q0 12 1.5 23t5.5 20q41 5 48.5 18.5t-12.5 59.5l-139 325q-13 31 -23 55t-24 61h5q-12 -38 -21.5 -64.5t-18.5 -50.5
l-114 -297q-22 -59 -13.5 -81.5t49.5 -25.5q4 -9 5.5 -20t1.5 -23q-11 1 -27 1.5t-33.5 1t-34.5 0.5q-25 0 -47 -1t-36 -2q0 10 1.5 21.5t5.5 20.5q18 4 30 14t23.5 32.5t26.5 61.5l207 531q10 2 18.5 3t20.5 1zM449 265l9 -45q-67 0 -143.5 -1t-138.5 -3l16 49h257z
M202 728q-8 5 -11.5 16t-4.5 18q34 22 72 52t68 60q8 2 18 3t17 1q24 -28 57 -60t73 -64q-5 -8 -14 -14t-20 -9q-28 17 -60.5 36.5t-61.5 32.5q-14 -6 -40 -20l-52 -28t-41 -24z" />
    <glyph glyph-name="uni1EA4" unicode="&#x1ea4;" horiz-adv-x="704" 
d="M358 682l238 -546q17 -37 28 -57t22.5 -28t26.5 -11q4 -13 5 -22t1 -21q-10 1 -31 1.5t-44 1t-39 0.5q-12 0 -28 -0.5t-33 -1t-30.5 -1t-21.5 -0.5q0 12 1.5 23t5.5 20q41 5 48.5 18.5t-12.5 59.5l-139 325q-13 31 -23 55t-24 61h5q-12 -38 -21.5 -64.5t-18.5 -50.5
l-114 -297q-22 -59 -13.5 -81.5t49.5 -25.5q4 -9 5.5 -20t1.5 -23q-11 1 -27 1.5t-33.5 1t-34.5 0.5q-25 0 -47 -1t-36 -2q0 10 1.5 21.5t5.5 20.5q18 4 30 14t23.5 32.5t26.5 61.5l207 531q10 2 18.5 3t20.5 1zM449 265l9 -45q-67 0 -143.5 -1t-138.5 -3l16 49h257z
M202 728q-8 5 -11.5 16t-4.5 18q34 22 72 52t68 60q8 2 18 3t17 1q24 -28 57 -60t73 -64q-5 -8 -14 -14t-20 -9q-28 17 -60.5 36.5t-61.5 32.5q-14 -6 -40 -20l-52 -28t-41 -24zM480.601 850.082q-12.2207 0 -20.6807 0.469727t-16.9199 4.23047
q15.9805 32.8994 29.6104 64.8594t23.0303 61.1006q11.2793 2.82031 22.5596 4.7002t22.5605 1.87988q24.4395 0 44.1797 -7.52051q-25.3799 -30.0801 -50.29 -61.0996q-24.9102 -31.0205 -54.0498 -68.6201z" />
    <glyph glyph-name="uni1EAC" unicode="&#x1eac;" horiz-adv-x="704" 
d="M358 682l238 -546q17 -37 28 -57t22.5 -28t26.5 -11q4 -13 5 -22t1 -21q-10 1 -31 1.5t-44 1t-39 0.5q-12 0 -28 -0.5t-33 -1t-30.5 -1t-21.5 -0.5q0 12 1.5 23t5.5 20q41 5 48.5 18.5t-12.5 59.5l-139 325q-13 31 -23 55t-24 61h5q-12 -38 -21.5 -64.5t-18.5 -50.5
l-114 -297q-22 -59 -13.5 -81.5t49.5 -25.5q4 -9 5.5 -20t1.5 -23q-11 1 -27 1.5t-33.5 1t-34.5 0.5q-25 0 -47 -1t-36 -2q0 10 1.5 21.5t5.5 20.5q18 4 30 14t23.5 32.5t26.5 61.5l207 531q10 2 18.5 3t20.5 1zM449 265l9 -45q-67 0 -143.5 -1t-138.5 -3l16 49h257z
M327 -210q-25 0 -42 17t-17 41q0 27 18 44t41 17q27 0 43.5 -17t16.5 -44q0 -23 -17.5 -40.5t-42.5 -17.5zM202 728q-8 5 -11.5 16t-4.5 18q34 22 72 52t68 60q8 2 18 3t17 1q24 -28 57 -60t73 -64q-5 -8 -14 -14t-20 -9q-28 17 -60.5 36.5t-61.5 32.5q-14 -6 -40 -20
l-52 -28t-41 -24z" />
    <glyph glyph-name="uni1EA6" unicode="&#x1ea6;" horiz-adv-x="704" 
d="M358 682l238 -546q17 -37 28 -57t22.5 -28t26.5 -11q4 -13 5 -22t1 -21q-10 1 -31 1.5t-44 1t-39 0.5q-12 0 -28 -0.5t-33 -1t-30.5 -1t-21.5 -0.5q0 12 1.5 23t5.5 20q41 5 48.5 18.5t-12.5 59.5l-139 325q-13 31 -23 55t-24 61h5q-12 -38 -21.5 -64.5t-18.5 -50.5
l-114 -297q-22 -59 -13.5 -81.5t49.5 -25.5q4 -9 5.5 -20t1.5 -23q-11 1 -27 1.5t-33.5 1t-34.5 0.5q-25 0 -47 -1t-36 -2q0 10 1.5 21.5t5.5 20.5q18 4 30 14t23.5 32.5t26.5 61.5l207 531q10 2 18.5 3t20.5 1zM449 265l9 -45q-67 0 -143.5 -1t-138.5 -3l16 49h257z
M202 728q-8 5 -11.5 16t-4.5 18q34 22 72 52t68 60q8 2 18 3t17 1q24 -28 57 -60t73 -64q-5 -8 -14 -14t-20 -9q-28 17 -60.5 36.5t-61.5 32.5q-14 -6 -40 -20l-52 -28t-41 -24zM455 844q-31 40 -57.5 70.5t-53.5 57.5q17 9 41.5 11.5t48.5 0.5q13 -31 27.5 -65.5
t33.5 -69.5q-9 -4 -18 -4.5t-22 -0.5z" />
    <glyph glyph-name="uni1EA8" unicode="&#x1ea8;" horiz-adv-x="704" 
d="M358 682l238 -546q17 -37 28 -57t22.5 -28t26.5 -11q4 -13 5 -22t1 -21q-10 1 -31 1.5t-44 1t-39 0.5q-12 0 -28 -0.5t-33 -1t-30.5 -1t-21.5 -0.5q0 12 1.5 23t5.5 20q41 5 48.5 18.5t-12.5 59.5l-139 325q-13 31 -23 55t-24 61h5q-12 -38 -21.5 -64.5t-18.5 -50.5
l-114 -297q-22 -59 -13.5 -81.5t49.5 -25.5q4 -9 5.5 -20t1.5 -23q-11 1 -27 1.5t-33.5 1t-34.5 0.5q-25 0 -47 -1t-36 -2q0 10 1.5 21.5t5.5 20.5q18 4 30 14t23.5 32.5t26.5 61.5l207 531q10 2 18.5 3t20.5 1zM449 265l9 -45q-67 0 -143.5 -1t-138.5 -3l16 49h257z
M202 728q-8 5 -11.5 16t-4.5 18q34 22 72 52t68 60q8 2 18 3t17 1q24 -28 57 -60t73 -64q-5 -8 -14 -14t-20 -9q-28 17 -60.5 36.5t-61.5 32.5q-14 -6 -40 -20l-52 -28t-41 -24zM449 864q-13 16 -13 31q0 16 9.5 25.5t22 17t22 15t9.5 19.5q0 10 -8 15t-22 5
q-22 0 -33.5 -13t-15.5 -45q-12 0 -25.5 2.5t-21.5 6.5q2 17 2.5 28.5t-2.5 26.5q16 12 39 22t61 10q40 0 66 -14t26 -42q0 -19 -12 -32t-27 -22t-27 -17.5t-12 -20.5q0 -5 2 -13q-10 -3 -19.5 -4t-20.5 -1z" />
    <glyph glyph-name="uni1EAA" unicode="&#x1eaa;" horiz-adv-x="704" 
d="M358 682l238 -546q17 -37 28 -57t22.5 -28t26.5 -11q4 -13 5 -22t1 -21q-10 1 -31 1.5t-44 1t-39 0.5q-12 0 -28 -0.5t-33 -1t-30.5 -1t-21.5 -0.5q0 12 1.5 23t5.5 20q41 5 48.5 18.5t-12.5 59.5l-139 325q-13 31 -23 55t-24 61h5q-12 -38 -21.5 -64.5t-18.5 -50.5
l-114 -297q-22 -59 -13.5 -81.5t49.5 -25.5q4 -9 5.5 -20t1.5 -23q-11 1 -27 1.5t-33.5 1t-34.5 0.5q-25 0 -47 -1t-36 -2q0 10 1.5 21.5t5.5 20.5q18 4 30 14t23.5 32.5t26.5 61.5l207 531q10 2 18.5 3t20.5 1zM449 265l9 -45q-67 0 -143.5 -1t-138.5 -3l16 49h257z
M202 728q-8 5 -11.5 16t-4.5 18q34 22 72 52t68 60q8 2 18 3t17 1q24 -28 57 -60t73 -64q-5 -8 -14 -14t-20 -9q-28 17 -60.5 36.5t-61.5 32.5q-14 -6 -40 -20l-52 -28t-41 -24zM396 930q-18 0 -35 5.5t-33 12t-32.5 12t-34.5 5.5q-19 0 -36.5 -8t-34.5 -24q-7 5 -10 13
t-3 18q29 38 57 51.5t54 13.5t48 -8.5t42 -17t41 -8.5q15 0 29 6.5t27 19.5q5 -1 13.5 -4t12.5 -10q-22 -41 -49 -59t-56 -18z" />
    <glyph glyph-name="uni0200" unicode="&#x200;" horiz-adv-x="704" 
d="M358 682l238 -546q17 -37 28 -57t22.5 -28t26.5 -11q4 -13 5 -22t1 -21q-10 1 -31 1.5t-44 1t-39 0.5q-12 0 -28 -0.5t-33 -1t-30.5 -1t-21.5 -0.5q0 12 1.5 23t5.5 20q41 5 48.5 18.5t-12.5 59.5l-139 325q-13 31 -23 55t-24 61h5q-12 -38 -21.5 -64.5t-18.5 -50.5
l-114 -297q-22 -59 -13.5 -81.5t49.5 -25.5q4 -9 5.5 -20t1.5 -23q-11 1 -27 1.5t-33.5 1t-34.5 0.5q-25 0 -47 -1t-36 -2q0 10 1.5 21.5t5.5 20.5q18 4 30 14t23.5 32.5t26.5 61.5l207 531q10 2 18.5 3t20.5 1zM449 265l9 -45q-67 0 -143.5 -1t-138.5 -3l16 49h257z
M254 722q-31 40 -57.5 70.5t-53.5 57.5q17 9 41.5 11.5t48.5 0.5q13 -31 27.5 -65.5t33.5 -69.5q-9 -4 -18 -4.5t-22 -0.5zM404 722q-31 40 -57.5 70.5t-53.5 57.5q17 9 41.5 11.5t48.5 0.5q13 -31 27.5 -65.5t33.5 -69.5q-9 -4 -18 -4.5t-22 -0.5z" />
    <glyph glyph-name="Adieresis" unicode="&#xc4;" horiz-adv-x="704" 
d="M358 682l238 -546q17 -37 28 -57t22.5 -28t26.5 -11q4 -13 5 -22t1 -21q-10 1 -31 1.5t-44 1t-39 0.5q-12 0 -28 -0.5t-33 -1t-30.5 -1t-21.5 -0.5q0 12 1.5 23t5.5 20q41 5 48.5 18.5t-12.5 59.5l-139 325q-13 31 -23 55t-24 61h5q-12 -38 -21.5 -64.5t-18.5 -50.5
l-114 -297q-22 -59 -13.5 -81.5t49.5 -25.5q4 -9 5.5 -20t1.5 -23q-11 1 -27 1.5t-33.5 1t-34.5 0.5q-25 0 -47 -1t-36 -2q0 10 1.5 21.5t5.5 20.5q18 4 30 14t23.5 32.5t26.5 61.5l207 531q10 2 18.5 3t20.5 1zM449 265l9 -45q-67 0 -143.5 -1t-138.5 -3l16 49h257z
M438 732q-29 0 -44 16t-15 41q0 24 15.5 37.5t40.5 13.5t41 -14t16 -37q0 -21 -12 -39t-42 -18zM242 732q-25 0 -41 14.5t-16 36.5t13 39.5t42 17.5q30 0 43.5 -16t13.5 -39t-16 -38t-39 -15z" />
    <glyph glyph-name="uni1EA0" unicode="&#x1ea0;" horiz-adv-x="704" 
d="M358 682l238 -546q17 -37 28 -57t22.5 -28t26.5 -11q4 -13 5 -22t1 -21q-10 1 -31 1.5t-44 1t-39 0.5q-12 0 -28 -0.5t-33 -1t-30.5 -1t-21.5 -0.5q0 12 1.5 23t5.5 20q41 5 48.5 18.5t-12.5 59.5l-139 325q-13 31 -23 55t-24 61h5q-12 -38 -21.5 -64.5t-18.5 -50.5
l-114 -297q-22 -59 -13.5 -81.5t49.5 -25.5q4 -9 5.5 -20t1.5 -23q-11 1 -27 1.5t-33.5 1t-34.5 0.5q-25 0 -47 -1t-36 -2q0 10 1.5 21.5t5.5 20.5q18 4 30 14t23.5 32.5t26.5 61.5l207 531q10 2 18.5 3t20.5 1zM449 265l9 -45q-67 0 -143.5 -1t-138.5 -3l16 49h257z
M327 -210q-25 0 -42 17t-17 41q0 27 18 44t41 17q27 0 43.5 -17t16.5 -44q0 -23 -17.5 -40.5t-42.5 -17.5z" />
    <glyph glyph-name="Agrave" unicode="&#xc0;" horiz-adv-x="704" 
d="M358 682l238 -546q17 -37 28 -57t22.5 -28t26.5 -11q4 -13 5 -22t1 -21q-10 1 -31 1.5t-44 1t-39 0.5q-12 0 -28 -0.5t-33 -1t-30.5 -1t-21.5 -0.5q0 12 1.5 23t5.5 20q41 5 48.5 18.5t-12.5 59.5l-139 325q-13 31 -23 55t-24 61h5q-12 -38 -21.5 -64.5t-18.5 -50.5
l-114 -297q-22 -59 -13.5 -81.5t49.5 -25.5q4 -9 5.5 -20t1.5 -23q-11 1 -27 1.5t-33.5 1t-34.5 0.5q-25 0 -47 -1t-36 -2q0 10 1.5 21.5t5.5 20.5q18 4 30 14t23.5 32.5t26.5 61.5l207 531q10 2 18.5 3t20.5 1zM449 265l9 -45q-67 0 -143.5 -1t-138.5 -3l16 49h257z
M332 732q-31 40 -57.5 70.5t-53.5 57.5q17 9 41.5 11.5t48.5 0.5q13 -31 27.5 -65.5t33.5 -69.5q-9 -4 -18 -4.5t-22 -0.5z" />
    <glyph glyph-name="uni1EA2" unicode="&#x1ea2;" horiz-adv-x="704" 
d="M358 682l238 -546q17 -37 28 -57t22.5 -28t26.5 -11q4 -13 5 -22t1 -21q-10 1 -31 1.5t-44 1t-39 0.5q-12 0 -28 -0.5t-33 -1t-30.5 -1t-21.5 -0.5q0 12 1.5 23t5.5 20q41 5 48.5 18.5t-12.5 59.5l-139 325q-13 31 -23 55t-24 61h5q-12 -38 -21.5 -64.5t-18.5 -50.5
l-114 -297q-22 -59 -13.5 -81.5t49.5 -25.5q4 -9 5.5 -20t1.5 -23q-11 1 -27 1.5t-33.5 1t-34.5 0.5q-25 0 -47 -1t-36 -2q0 10 1.5 21.5t5.5 20.5q18 4 30 14t23.5 32.5t26.5 61.5l207 531q10 2 18.5 3t20.5 1zM449 265l9 -45q-67 0 -143.5 -1t-138.5 -3l16 49h257z
M319 726q-13 16 -13 31q0 16 9.5 25.5t22 17t22 15t9.5 19.5q0 10 -8 15t-22 5q-22 0 -33.5 -13t-15.5 -45q-12 0 -25.5 2.5t-21.5 6.5q2 17 2.5 28.5t-2.5 26.5q16 12 39 22t61 10q40 0 66 -14t26 -42q0 -19 -12 -32t-27 -22t-27 -17.5t-12 -20.5q0 -5 2 -13
q-10 -3 -19.5 -4t-20.5 -1z" />
    <glyph glyph-name="uni0202" unicode="&#x202;" horiz-adv-x="704" 
d="M358 682l238 -546q17 -37 28 -57t22.5 -28t26.5 -11q4 -13 5 -22t1 -21q-10 1 -31 1.5t-44 1t-39 0.5q-12 0 -28 -0.5t-33 -1t-30.5 -1t-21.5 -0.5q0 12 1.5 23t5.5 20q41 5 48.5 18.5t-12.5 59.5l-139 325q-13 31 -23 55t-24 61h5q-12 -38 -21.5 -64.5t-18.5 -50.5
l-114 -297q-22 -59 -13.5 -81.5t49.5 -25.5q4 -9 5.5 -20t1.5 -23q-11 1 -27 1.5t-33.5 1t-34.5 0.5q-25 0 -47 -1t-36 -2q0 10 1.5 21.5t5.5 20.5q18 4 30 14t23.5 32.5t26.5 61.5l207 531q10 2 18.5 3t20.5 1zM449 265l9 -45q-67 0 -143.5 -1t-138.5 -3l16 49h257z
M190 733q0 66 39 101.5t111 35.5q70 0 108.5 -34.5t38.5 -98.5q-10 -5 -22 -7.5t-23 -1.5q-6 36 -36 57t-75 21t-73 -21t-30 -57q-11 -1 -21 0.5t-17 4.5z" />
    <glyph glyph-name="Amacron" unicode="&#x100;" horiz-adv-x="704" 
d="M358 682l238 -546q17 -37 28 -57t22.5 -28t26.5 -11q4 -13 5 -22t1 -21q-10 1 -31 1.5t-44 1t-39 0.5q-12 0 -28 -0.5t-33 -1t-30.5 -1t-21.5 -0.5q0 12 1.5 23t5.5 20q41 5 48.5 18.5t-12.5 59.5l-139 325q-13 31 -23 55t-24 61h5q-12 -38 -21.5 -64.5t-18.5 -50.5
l-114 -297q-22 -59 -13.5 -81.5t49.5 -25.5q4 -9 5.5 -20t1.5 -23q-11 1 -27 1.5t-33.5 1t-34.5 0.5q-25 0 -47 -1t-36 -2q0 10 1.5 21.5t5.5 20.5q18 4 30 14t23.5 32.5t26.5 61.5l207 531q10 2 18.5 3t20.5 1zM449 265l9 -45q-67 0 -143.5 -1t-138.5 -3l16 49h257z
M521 805q0 -10 -2 -21t-7 -22h-68t-126.5 -0.5t-160.5 -2.5q0 6 2.5 21.5t6.5 24.5h355z" />
    <glyph glyph-name="Aogonek" unicode="&#x104;" horiz-adv-x="704" 
d="M358 682l238 -546q17 -37 28 -57t22.5 -28t26.5 -11q4 -13 5 -22t1 -21q-10 1 -31 1.5t-44 1t-39 0.5q-12 0 -28 -0.5t-33 -1t-30.5 -1t-21.5 -0.5q0 12 1.5 23t5.5 20q41 5 48.5 18.5t-12.5 59.5l-139 325q-13 31 -23 55t-24 61h5q-12 -38 -21.5 -64.5t-18.5 -50.5
l-114 -297q-22 -59 -13.5 -81.5t49.5 -25.5q4 -9 5.5 -20t1.5 -23q-11 1 -27 1.5t-33.5 1t-34.5 0.5q-25 0 -47 -1t-36 -2q0 10 1.5 21.5t5.5 20.5q18 4 30 14t23.5 32.5t26.5 61.5l207 531q10 2 18.5 3t20.5 1zM449 265l9 -45q-67 0 -143.5 -1t-138.5 -3l16 49h257zM569 20
l33 -20q-53 -19 -78.5 -49t-25.5 -60q0 -25 16.5 -39.5t46.5 -14.5q9 0 20 2t22 6q3 -5 4.5 -11t2.5 -13t0 -15q-19 -10 -37.5 -23t-36.5 -30q-4 -1 -9 -1.5t-10 -0.5q-16 0 -39 8t-40.5 29t-17.5 60q0 45 32 87t117 85z" />
    <glyph glyph-name="Aring" unicode="&#xc5;" horiz-adv-x="704" 
d="M358 682l238 -546q17 -37 28 -57t22.5 -28t26.5 -11q4 -13 5 -22t1 -21q-10 1 -31 1.5t-44 1t-39 0.5q-12 0 -28 -0.5t-33 -1t-30.5 -1t-21.5 -0.5q0 12 1.5 23t5.5 20q41 5 48.5 18.5t-12.5 59.5l-139 325q-13 31 -23 55t-24 61h5q-12 -38 -21.5 -64.5t-18.5 -50.5
l-114 -297q-22 -59 -13.5 -81.5t49.5 -25.5q4 -9 5.5 -20t1.5 -23q-11 1 -27 1.5t-33.5 1t-34.5 0.5q-25 0 -47 -1t-36 -2q0 10 1.5 21.5t5.5 20.5q18 4 30 14t23.5 32.5t26.5 61.5l207 531q10 2 18.5 3t20.5 1zM449 265l9 -45q-67 0 -143.5 -1t-138.5 -3l16 49h257z
M335 723q-36 0 -63.5 20t-27.5 54q0 35 28.5 57t69.5 22q35 0 63.5 -17.5t28.5 -55.5q0 -34 -28.5 -57t-70.5 -23zM344 754q15 0 27 11t12 30q0 17 -11.5 35t-36.5 18q-17 0 -28 -12.5t-11 -34.5q0 -20 12.5 -33.5t35.5 -13.5z" />
    <glyph glyph-name="Aringacute" unicode="&#x1fa;" horiz-adv-x="704" 
d="M358 682l238 -546q17 -37 28 -57t22.5 -28t26.5 -11q4 -13 5 -22t1 -21q-10 1 -31 1.5t-44 1t-39 0.5q-12 0 -28 -0.5t-33 -1t-30.5 -1t-21.5 -0.5q0 12 1.5 23t5.5 20q41 5 48.5 18.5t-12.5 59.5l-139 325q-13 31 -23 55t-24 61h5q-12 -38 -21.5 -64.5t-18.5 -50.5
l-114 -297q-22 -59 -13.5 -81.5t49.5 -25.5q4 -9 5.5 -20t1.5 -23q-11 1 -27 1.5t-33.5 1t-34.5 0.5q-25 0 -47 -1t-36 -2q0 10 1.5 21.5t5.5 20.5q18 4 30 14t23.5 32.5t26.5 61.5l207 531q10 2 18.5 3t20.5 1zM449 265l9 -45q-67 0 -143.5 -1t-138.5 -3l16 49h257z
M335 723q-36 0 -63.5 20t-27.5 54q0 35 28.5 57t69.5 22q35 0 63.5 -17.5t28.5 -55.5q0 -34 -28.5 -57t-70.5 -23zM344 754q15 0 27 11t12 30q0 17 -11.5 35t-36.5 18q-17 0 -28 -12.5t-11 -34.5q0 -20 12.5 -33.5t35.5 -13.5zM346 932q-13 0 -22 0.5t-18 4.5q17 35 31.5 69
t24.5 65q12 3 24 5t24 2q26 0 47 -8q-27 -32 -53.5 -65t-57.5 -73z" />
    <glyph glyph-name="Atilde" unicode="&#xc3;" horiz-adv-x="704" 
d="M358 682l238 -546q17 -37 28 -57t22.5 -28t26.5 -11q4 -13 5 -22t1 -21q-10 1 -31 1.5t-44 1t-39 0.5q-12 0 -28 -0.5t-33 -1t-30.5 -1t-21.5 -0.5q0 12 1.5 23t5.5 20q41 5 48.5 18.5t-12.5 59.5l-139 325q-13 31 -23 55t-24 61h5q-12 -38 -21.5 -64.5t-18.5 -50.5
l-114 -297q-22 -59 -13.5 -81.5t49.5 -25.5q4 -9 5.5 -20t1.5 -23q-11 1 -27 1.5t-33.5 1t-34.5 0.5q-25 0 -47 -1t-36 -2q0 10 1.5 21.5t5.5 20.5q18 4 30 14t23.5 32.5t26.5 61.5l207 531q10 2 18.5 3t20.5 1zM449 265l9 -45q-67 0 -143.5 -1t-138.5 -3l16 49h257z
M396 748q-18 0 -35 5.5t-33 12t-32.5 12t-34.5 5.5q-19 0 -36.5 -8t-34.5 -24q-7 5 -10 13t-3 18q29 38 57 51.5t54 13.5t48 -8.5t42 -17t41 -8.5q15 0 29 6.5t27 19.5q5 -1 13.5 -4t12.5 -10q-22 -41 -49 -59t-56 -18z" />
    <glyph glyph-name="AE" unicode="&#xc6;" horiz-adv-x="911" 
d="M288 341h318q40 0 62 9.5t30.5 27.5t8.5 43q15 4 25.5 5.5t23.5 1.5q0 -10 -0.5 -29.5t-1 -41.5t-0.5 -40t0.5 -40.5t1 -42.5t0.5 -31q-13 0 -24 0.5t-22 4.5q-2 26 -10 46.5t-31 32t-71 11.5q-90 0 -152.5 -0.5t-105.5 -1.5t-77 -3zM461 540q0 24 0.5 41.5t2.5 39
t7 55.5h84v-538q0 -42 8.5 -62t24.5 -25.5t37 -5.5v-45h-68t-61 -0.5t-55.5 -1t-50.5 -0.5q0 11 1.5 22.5t5.5 19.5q26 4 39.5 11.5t19 27.5t5.5 59v402zM517 676q96 0 174 0.5t124 1.5q3 -34 8.5 -79.5t12.5 -77.5q-5 -4 -12.5 -7t-15.5 -4t-17 -1q-2 31 -16 60t-48.5 48
t-99.5 19h-110v40zM483 676q-11 -30 -18.5 -48t-16.5 -35.5t-26 -46.5q-28 -48 -60.5 -104.5t-64 -112t-57.5 -101.5t-41 -73q-23 -44 -27 -68t8 -34.5t36 -14.5q4 -9 5.5 -19t1.5 -22q-23 2 -51.5 2.5t-53.5 0.5q-16 0 -34 -0.5t-33.5 -1t-25.5 -1.5q0 10 1.5 21.5
t5.5 20.5q16 2 30.5 10.5t32.5 32t45 70.5l234 404q23 39 13.5 56.5t-57.5 22.5q-4 9 -5 20.5t-1 22.5q26 0 56.5 -0.5t58 -1t44.5 -0.5zM552 45h99q63 0 95 14.5t49 42.5t31 69q15 -4 25 -9.5t19 -14.5q-11 -34 -18.5 -74t-12.5 -75q-31 0 -67.5 0.5t-75.5 1t-76 0.5h-68
v45z" />
    <glyph glyph-name="AEacute" unicode="&#x1fc;" horiz-adv-x="911" 
d="M288 341h318q40 0 62 9.5t30.5 27.5t8.5 43q15 4 25.5 5.5t23.5 1.5q0 -10 -0.5 -29.5t-1 -41.5t-0.5 -40t0.5 -40.5t1 -42.5t0.5 -31q-13 0 -24 0.5t-22 4.5q-2 26 -10 46.5t-31 32t-71 11.5q-90 0 -152.5 -0.5t-105.5 -1.5t-77 -3zM461 540q0 24 0.5 41.5t2.5 39
t7 55.5h84v-538q0 -42 8.5 -62t24.5 -25.5t37 -5.5v-45h-68t-61 -0.5t-55.5 -1t-50.5 -0.5q0 11 1.5 22.5t5.5 19.5q26 4 39.5 11.5t19 27.5t5.5 59v402zM517 676q96 0 174 0.5t124 1.5q3 -34 8.5 -79.5t12.5 -77.5q-5 -4 -12.5 -7t-15.5 -4t-17 -1q-2 31 -16 60t-48.5 48
t-99.5 19h-110v40zM483 676q-11 -30 -18.5 -48t-16.5 -35.5t-26 -46.5q-28 -48 -60.5 -104.5t-64 -112t-57.5 -101.5t-41 -73q-23 -44 -27 -68t8 -34.5t36 -14.5q4 -9 5.5 -19t1.5 -22q-23 2 -51.5 2.5t-53.5 0.5q-16 0 -34 -0.5t-33.5 -1t-25.5 -1.5q0 10 1.5 21.5
t5.5 20.5q16 2 30.5 10.5t32.5 32t45 70.5l234 404q23 39 13.5 56.5t-57.5 22.5q-4 9 -5 20.5t-1 22.5q26 0 56.5 -0.5t58 -1t44.5 -0.5zM552 45h99q63 0 95 14.5t49 42.5t31 69q15 -4 25 -9.5t19 -14.5q-11 -34 -18.5 -74t-12.5 -75q-31 0 -67.5 0.5t-75.5 1t-76 0.5h-68
v45zM518 732q-13 0 -22 0.5t-18 4.5q17 35 31.5 69t24.5 65q12 3 24 5t24 2q26 0 47 -8q-27 -32 -53.5 -65t-57.5 -73z" />
    <glyph glyph-name="B" unicode="B" horiz-adv-x="623" 
d="M57 679q20 -1 48.5 -2t55.5 -1q24 0 48 0.5l48 1t47 0.5q58 0 106 -12t77.5 -43.5t29.5 -90.5q0 -64 -39 -109.5t-106 -55.5q53 -3 97.5 -19.5t71.5 -52.5t27 -98q0 -54 -24.5 -99t-77.5 -71.5t-138 -26.5h-66.5t-78.5 -0.5t-74 -1t-53 -1.5q0 14 1 24.5t4 18.5
q27 2 42 10t21.5 28.5t6.5 59.5v411q0 34 -6 52t-21 26t-42 9q-3 8 -4 19.5t-1 23.5zM225 641v-503q0 -41 7.5 -61.5t28 -27t57.5 -6.5q74 0 108.5 37.5t34.5 102.5q0 47 -19 76.5t-50.5 45t-69 21.5t-74.5 6h-35v43h43q65 0 99 18t47 47.5t13 61.5q0 52 -23.5 80.5t-58 40
t-67.5 11.5q-13 0 -25.5 -1.5t-29.5 -6.5z" />
    <glyph glyph-name="C" unicode="C" horiz-adv-x="653" 
d="M353 -9q-93 0 -164.5 44.5t-112.5 124t-41 183.5q0 86 28 150t75.5 107t107 64t123.5 21q63 0 115 -13t107 -39q-7 -35 -9 -74.5t-2 -80.5q-13 -5 -25 -7t-28 -2q-2 71 -21 109t-52 52t-77 14q-63 0 -108 -23t-73.5 -61.5t-42 -87.5t-13.5 -102q0 -89 30.5 -161.5
t87.5 -114.5t137 -42q48 0 98 16t92 43q6 -5 11.5 -14.5t6.5 -16.5q-59 -46 -116.5 -67.5t-133.5 -21.5z" />
    <glyph glyph-name="Cacute" unicode="&#x106;" horiz-adv-x="653" 
d="M353 -9q-93 0 -164.5 44.5t-112.5 124t-41 183.5q0 86 28 150t75.5 107t107 64t123.5 21q63 0 115 -13t107 -39q-7 -35 -9 -74.5t-2 -80.5q-13 -5 -25 -7t-28 -2q-2 71 -21 109t-52 52t-77 14q-63 0 -108 -23t-73.5 -61.5t-42 -87.5t-13.5 -102q0 -89 30.5 -161.5
t87.5 -114.5t137 -42q48 0 98 16t92 43q6 -5 11.5 -14.5t6.5 -16.5q-59 -46 -116.5 -67.5t-133.5 -21.5zM381 732q-13 0 -22 0.5t-18 4.5q17 35 31.5 69t24.5 65q12 3 24 5t24 2q26 0 47 -8q-27 -32 -53.5 -65t-57.5 -73z" />
    <glyph glyph-name="Ccaron" unicode="&#x10c;" horiz-adv-x="653" 
d="M353 -9q-93 0 -164.5 44.5t-112.5 124t-41 183.5q0 86 28 150t75.5 107t107 64t123.5 21q63 0 115 -13t107 -39q-7 -35 -9 -74.5t-2 -80.5q-13 -5 -25 -7t-28 -2q-2 71 -21 109t-52 52t-77 14q-63 0 -108 -23t-73.5 -61.5t-42 -87.5t-13.5 -102q0 -89 30.5 -161.5
t87.5 -114.5t137 -42q48 0 98 16t92 43q6 -5 11.5 -14.5t6.5 -16.5q-59 -46 -116.5 -67.5t-133.5 -21.5zM351 731q-24 28 -57 60t-73 64q5 8 14 14t20 9q28 -16 61 -36t61 -33q14 7 40 20.5t52 28t41 23.5q8 -4 11.5 -15t4.5 -19q-34 -22 -72 -52t-68 -60q-8 -2 -17.5 -3
t-17.5 -1z" />
    <glyph glyph-name="Ccedilla" unicode="&#xc7;" horiz-adv-x="653" 
d="M353 -9q-93 0 -164.5 44.5t-112.5 124t-41 183.5q0 86 28 150t75.5 107t107 64t123.5 21q63 0 115 -13t107 -39q-7 -35 -9 -74.5t-2 -80.5q-13 -5 -25 -7t-28 -2q-2 71 -21 109t-52 52t-77 14q-63 0 -108 -23t-73.5 -61.5t-42 -87.5t-13.5 -102q0 -89 30.5 -161.5
t87.5 -114.5t137 -42q48 0 98 16t92 43q6 -5 11.5 -14.5t6.5 -16.5q-59 -46 -116.5 -67.5t-133.5 -21.5zM299 -242q-4 7 -5.5 16t-1.5 16q30 0 54.5 14.5t24.5 40.5q0 25 -18.5 39.5t-46.5 14.5q-7 6 -12.5 15.5t-5.5 22.5l50 79h50l-48 -66q40 -7 63.5 -31t23.5 -60
q0 -33 -21 -55.5t-51 -34t-56 -11.5z" />
    <glyph glyph-name="uni1E08" unicode="&#x1e08;" horiz-adv-x="653" 
d="M353 -9q-93 0 -164.5 44.5t-112.5 124t-41 183.5q0 86 28 150t75.5 107t107 64t123.5 21q63 0 115 -13t107 -39q-7 -35 -9 -74.5t-2 -80.5q-13 -5 -25 -7t-28 -2q-2 71 -21 109t-52 52t-77 14q-63 0 -108 -23t-73.5 -61.5t-42 -87.5t-13.5 -102q0 -89 30.5 -161.5
t87.5 -114.5t137 -42q48 0 98 16t92 43q6 -5 11.5 -14.5t6.5 -16.5q-59 -46 -116.5 -67.5t-133.5 -21.5zM299 -242q-4 7 -5.5 16t-1.5 16q30 0 54.5 14.5t24.5 40.5q0 25 -18.5 39.5t-46.5 14.5q-7 6 -12.5 15.5t-5.5 22.5l50 79h50l-48 -66q40 -7 63.5 -31t23.5 -60
q0 -33 -21 -55.5t-51 -34t-56 -11.5zM381 732q-13 0 -22 0.5t-18 4.5q17 35 31.5 69t24.5 65q12 3 24 5t24 2q26 0 47 -8q-27 -32 -53.5 -65t-57.5 -73z" />
    <glyph glyph-name="Ccircumflex" unicode="&#x108;" horiz-adv-x="653" 
d="M353 -9q-93 0 -164.5 44.5t-112.5 124t-41 183.5q0 86 28 150t75.5 107t107 64t123.5 21q63 0 115 -13t107 -39q-7 -35 -9 -74.5t-2 -80.5q-13 -5 -25 -7t-28 -2q-2 71 -21 109t-52 52t-77 14q-63 0 -108 -23t-73.5 -61.5t-42 -87.5t-13.5 -102q0 -89 30.5 -161.5
t87.5 -114.5t137 -42q48 0 98 16t92 43q6 -5 11.5 -14.5t6.5 -16.5q-59 -46 -116.5 -67.5t-133.5 -21.5zM237 728q-8 5 -11.5 16t-4.5 18q34 22 72 52t68 60q8 2 18 3t17 1q24 -28 57 -60t73 -64q-5 -8 -14 -14t-20 -9q-28 17 -60.5 36.5t-61.5 32.5q-14 -6 -40 -20l-52 -28
t-41 -24z" />
    <glyph glyph-name="Cdotaccent" unicode="&#x10a;" horiz-adv-x="653" 
d="M353 -9q-93 0 -164.5 44.5t-112.5 124t-41 183.5q0 86 28 150t75.5 107t107 64t123.5 21q63 0 115 -13t107 -39q-7 -35 -9 -74.5t-2 -80.5q-13 -5 -25 -7t-28 -2q-2 71 -21 109t-52 52t-77 14q-63 0 -108 -23t-73.5 -61.5t-42 -87.5t-13.5 -102q0 -89 30.5 -161.5
t87.5 -114.5t137 -42q48 0 98 16t92 43q6 -5 11.5 -14.5t6.5 -16.5q-59 -46 -116.5 -67.5t-133.5 -21.5zM373 720q-25 0 -42 17t-17 41q0 27 18 44t41 17q27 0 43.5 -17t16.5 -44q0 -23 -17.5 -40.5t-42.5 -17.5z" />
    <glyph glyph-name="D" unicode="D" horiz-adv-x="730" 
d="M56 -3q0 14 1 24.5t4 18.5q27 2 42 10t21.5 28.5t6.5 59.5v411q0 34 -6 52t-21 26t-42 9q-3 8 -4 19.5t-1 23.5q16 -1 40.5 -1.5t51 -1t48.5 -0.5q29 0 59 1t59 1q53 0 107 -7.5t103 -27t87.5 -56t60.5 -93t22 -139.5q0 -81 -20 -139t-53.5 -97t-74.5 -63t-83.5 -36
t-81.5 -16t-67 -4h-64.5t-74 -0.5t-69.5 -1t-51 -1.5zM315 45q60 0 110.5 14.5t88 48t58 90.5t20.5 142q0 81 -24.5 138.5t-66 93t-94 52t-108.5 16.5q-22 0 -48 -3.5t-34 -8.5l8 26v-516q0 -37 7 -57t26.5 -28t56.5 -8z" />
    <glyph glyph-name="uni01F1" unicode="&#x1f1;" horiz-adv-x="1361" 
d="M56 -3q0 14 1 24.5t4 18.5q27 2 42 10t21.5 28.5t6.5 59.5v411q0 34 -6 52t-21 26t-42 9q-3 8 -4 19.5t-1 23.5q16 -1 40.5 -1.5t51 -1t48.5 -0.5q29 0 59 1t59 1q53 0 107 -7.5t103 -27t87.5 -56t60.5 -93t22 -139.5q0 -81 -20 -139t-53.5 -97t-74.5 -63t-83.5 -36
t-81.5 -16t-67 -4h-64.5t-74 -0.5t-69.5 -1t-51 -1.5zM315 45q60 0 110.5 14.5t88 48t58 90.5t20.5 142q0 81 -24.5 138.5t-66 93t-94 52t-108.5 16.5q-22 0 -48 -3.5t-34 -8.5l8 26v-516q0 -37 7 -57t26.5 -28t56.5 -8zM832 678q15 0 45.5 -0.5t67 -1t71.5 -0.5h60h63.5
t62 0.5t66.5 1.5q5 -5 8 -14t3 -19q-62 -108 -123.5 -212.5t-124 -205.5t-127.5 -202l-10 17h175q62 0 96.5 9t52 36t28.5 82q33 -3 52 -17q-5 -22 -9 -48t-6 -53.5t-3 -53.5q-49 2 -91 2.5t-83 0.5h-87q-69 0 -130.5 -0.5t-92.5 -2.5q-4 8 -6 15t-2 17q48 77 95 154l94 154
t93 154.5t91 155.5l11 -11h-159q-44 0 -71.5 -9.5t-44 -36.5t-27.5 -82q-13 0 -30 2t-27 8q9 32 14 76t5 84z" />
    <glyph glyph-name="uni01C4" unicode="&#x1c4;" horiz-adv-x="1361" 
d="M56 -3q0 14 1 24.5t4 18.5q27 2 42 10t21.5 28.5t6.5 59.5v411q0 34 -6 52t-21 26t-42 9q-3 8 -4 19.5t-1 23.5q16 -1 40.5 -1.5t51 -1t48.5 -0.5q29 0 59 1t59 1q53 0 107 -7.5t103 -27t87.5 -56t60.5 -93t22 -139.5q0 -81 -20 -139t-53.5 -97t-74.5 -63t-83.5 -36
t-81.5 -16t-67 -4h-64.5t-74 -0.5t-69.5 -1t-51 -1.5zM315 45q60 0 110.5 14.5t88 48t58 90.5t20.5 142q0 81 -24.5 138.5t-66 93t-94 52t-108.5 16.5q-22 0 -48 -3.5t-34 -8.5l8 26v-516q0 -37 7 -57t26.5 -28t56.5 -8zM832 678q15 0 45.5 -0.5t67 -1t71.5 -0.5h60h63.5
t62 0.5t66.5 1.5q5 -5 8 -14t3 -19q-62 -108 -123.5 -212.5t-124 -205.5t-127.5 -202l-10 17h175q62 0 96.5 9t52 36t28.5 82q33 -3 52 -17q-5 -22 -9 -48t-6 -53.5t-3 -53.5q-49 2 -91 2.5t-83 0.5h-87q-69 0 -130.5 -0.5t-92.5 -2.5q-4 8 -6 15t-2 17q48 77 95 154l94 154
t93 154.5t91 155.5l11 -11h-159q-44 0 -71.5 -9.5t-44 -36.5t-27.5 -82q-13 0 -30 2t-27 8q9 32 14 76t5 84zM1038 731q-24 28 -57 60t-73 64q5 8 14 14t20 9q28 -16 61 -36t61 -33q14 7 40 20.5t52 28t41 23.5q8 -4 11.5 -15t4.5 -19q-34 -22 -72 -52t-68 -60
q-8 -2 -17.5 -3t-17.5 -1z" />
    <glyph glyph-name="Eth" unicode="&#xd0;" horiz-adv-x="730" 
d="M56 -3q0 14 1 24.5t4 18.5q27 2 42 10t21.5 28.5t6.5 59.5v411q0 34 -6 52t-21 26t-42 9q-3 8 -4 19.5t-1 23.5q16 -1 40.5 -1.5t51 -1t48.5 -0.5q29 0 59 1t59 1q53 0 107 -7.5t103 -27t87.5 -56t60.5 -93t22 -139.5q0 -81 -20 -139t-53.5 -97t-74.5 -63t-83.5 -36
t-81.5 -16t-67 -4h-64.5t-74 -0.5t-69.5 -1t-51 -1.5zM315 45q60 0 110.5 14.5t88 48t58 90.5t20.5 142q0 81 -24.5 138.5t-66 93t-94 52t-108.5 16.5q-22 0 -48 -3.5t-34 -8.5l8 26v-516q0 -37 7 -57t26.5 -28t56.5 -8zM49.499 312q0 11 2.97461 27.5t6.375 23.5h129.196
h35.6992h136.846q0 -15 -1.7002 -27t-7.64941 -23q-23.7998 1 -43.7734 1h-39.9492h-45.4736h-34.8486h-42.499q-19.5498 0 -41.6494 -0.5q-22.0986 -0.5 -53.5479 -1.5z" />
    <glyph glyph-name="Dcaron" unicode="&#x10e;" horiz-adv-x="730" 
d="M56 -3q0 14 1 24.5t4 18.5q27 2 42 10t21.5 28.5t6.5 59.5v411q0 34 -6 52t-21 26t-42 9q-3 8 -4 19.5t-1 23.5q16 -1 40.5 -1.5t51 -1t48.5 -0.5q29 0 59 1t59 1q53 0 107 -7.5t103 -27t87.5 -56t60.5 -93t22 -139.5q0 -81 -20 -139t-53.5 -97t-74.5 -63t-83.5 -36
t-81.5 -16t-67 -4h-64.5t-74 -0.5t-69.5 -1t-51 -1.5zM315 45q60 0 110.5 14.5t88 48t58 90.5t20.5 142q0 81 -24.5 138.5t-66 93t-94 52t-108.5 16.5q-22 0 -48 -3.5t-34 -8.5l8 26v-516q0 -37 7 -57t26.5 -28t56.5 -8zM332 731q-24 28 -57 60t-73 64q5 8 14 14t20 9
q28 -16 61 -36t61 -33q14 7 40 20.5t52 28t41 23.5q8 -4 11.5 -15t4.5 -19q-34 -22 -72 -52t-68 -60q-8 -2 -17.5 -3t-17.5 -1z" />
    <glyph glyph-name="uni1E10" unicode="&#x1e10;" horiz-adv-x="730" 
d="M56 -3q0 14 1 24.5t4 18.5q27 2 42 10t21.5 28.5t6.5 59.5v411q0 34 -6 52t-21 26t-42 9q-3 8 -4 19.5t-1 23.5q16 -1 40.5 -1.5t51 -1t48.5 -0.5q29 0 59 1t59 1q53 0 107 -7.5t103 -27t87.5 -56t60.5 -93t22 -139.5q0 -81 -20 -139t-53.5 -97t-74.5 -63t-83.5 -36
t-81.5 -16t-67 -4h-64.5t-74 -0.5t-69.5 -1t-51 -1.5zM315 45q60 0 110.5 14.5t88 48t58 90.5t20.5 142q0 81 -24.5 138.5t-66 93t-94 52t-108.5 16.5q-22 0 -48 -3.5t-34 -8.5l8 26v-516q0 -37 7 -57t26.5 -28t56.5 -8zM370 -43q17 -7 25.5 -24.5t8.5 -42.5
q0 -52 -32.5 -95t-74.5 -75q-20 4 -28 21q25 25 37.5 48.5t12.5 41.5q0 32 -37 36q-1 8 1.5 28t6.5 32q23 5 43.5 12.5t36.5 17.5z" />
    <glyph glyph-name="Dcroat" unicode="&#x110;" horiz-adv-x="730" 
d="M56 -3q0 14 1 24.5t4 18.5q27 2 42 10t21.5 28.5t6.5 59.5v411q0 34 -6 52t-21 26t-42 9q-3 8 -4 19.5t-1 23.5q16 -1 40.5 -1.5t51 -1t48.5 -0.5q29 0 59 1t59 1q53 0 107 -7.5t103 -27t87.5 -56t60.5 -93t22 -139.5q0 -81 -20 -139t-53.5 -97t-74.5 -63t-83.5 -36
t-81.5 -16t-67 -4h-64.5t-74 -0.5t-69.5 -1t-51 -1.5zM315 45q60 0 110.5 14.5t88 48t58 90.5t20.5 142q0 81 -24.5 138.5t-66 93t-94 52t-108.5 16.5q-22 0 -48 -3.5t-34 -8.5l8 26v-516q0 -37 7 -57t26.5 -28t56.5 -8zM49.499 312q0 11 2.97461 27.5t6.375 23.5h129.196
h35.6992h136.846q0 -15 -1.7002 -27t-7.64941 -23q-23.7998 1 -43.7734 1h-39.9492h-45.4736h-34.8486h-42.499q-19.5498 0 -41.6494 -0.5q-22.0986 -0.5 -53.5479 -1.5z" />
    <glyph glyph-name="uni1E0C" unicode="&#x1e0c;" horiz-adv-x="730" 
d="M56 -3q0 14 1 24.5t4 18.5q27 2 42 10t21.5 28.5t6.5 59.5v411q0 34 -6 52t-21 26t-42 9q-3 8 -4 19.5t-1 23.5q16 -1 40.5 -1.5t51 -1t48.5 -0.5q29 0 59 1t59 1q53 0 107 -7.5t103 -27t87.5 -56t60.5 -93t22 -139.5q0 -81 -20 -139t-53.5 -97t-74.5 -63t-83.5 -36
t-81.5 -16t-67 -4h-64.5t-74 -0.5t-69.5 -1t-51 -1.5zM315 45q60 0 110.5 14.5t88 48t58 90.5t20.5 142q0 81 -24.5 138.5t-66 93t-94 52t-108.5 16.5q-22 0 -48 -3.5t-34 -8.5l8 26v-516q0 -37 7 -57t26.5 -28t56.5 -8zM344 -210q-25 0 -42 17t-17 41q0 27 18 44t41 17
q27 0 43.5 -17t16.5 -44q0 -23 -17.5 -40.5t-42.5 -17.5z" />
    <glyph glyph-name="uni1E0E" unicode="&#x1e0e;" horiz-adv-x="730" 
d="M56 -3q0 14 1 24.5t4 18.5q27 2 42 10t21.5 28.5t6.5 59.5v411q0 34 -6 52t-21 26t-42 9q-3 8 -4 19.5t-1 23.5q16 -1 40.5 -1.5t51 -1t48.5 -0.5q29 0 59 1t59 1q53 0 107 -7.5t103 -27t87.5 -56t60.5 -93t22 -139.5q0 -81 -20 -139t-53.5 -97t-74.5 -63t-83.5 -36
t-81.5 -16t-67 -4h-64.5t-74 -0.5t-69.5 -1t-51 -1.5zM315 45q60 0 110.5 14.5t88 48t58 90.5t20.5 142q0 81 -24.5 138.5t-66 93t-94 52t-108.5 16.5q-22 0 -48 -3.5t-34 -8.5l8 26v-516q0 -37 7 -57t26.5 -28t56.5 -8zM163 -165q0 6 2.5 21.5t6.5 24.5h355q0 -10 -2 -21
t-7 -22h-68t-126.5 -0.5t-160.5 -2.5z" />
    <glyph glyph-name="uni01F2" unicode="&#x1f2;" horiz-adv-x="1231" 
d="M56 -3q0 14 1 24.5t4 18.5q27 2 42 10t21.5 28.5t6.5 59.5v411q0 34 -6 52t-21 26t-42 9q-3 8 -4 19.5t-1 23.5q16 -1 40.5 -1.5t51 -1t48.5 -0.5q29 0 59 1t59 1q53 0 107 -7.5t103 -27t87.5 -56t60.5 -93t22 -139.5q0 -81 -20 -139t-53.5 -97t-74.5 -63t-83.5 -36
t-81.5 -16t-67 -4h-64.5t-74 -0.5t-69.5 -1t-51 -1.5zM315 45q60 0 110.5 14.5t88 48t58 90.5t20.5 142q0 81 -24.5 138.5t-66 93t-94 52t-108.5 16.5q-22 0 -48 -3.5t-34 -8.5l8 26v-516q0 -37 7 -57t26.5 -28t56.5 -8zM797 -2q-7 7 -11.5 17.5t-4.5 22.5q21 29 50.5 70.5
t62.5 88t64.5 91t56.5 81t38 57.5l20 -12h-120q-36 0 -57 -8t-32.5 -31t-21.5 -67q-12 0 -26.5 2t-25.5 6q3 33 5 70t2 75q21 -1 52 -1.5t66 -1t65 -0.5t63.5 0.5t64 1t49.5 1.5q7 -8 10 -20t3 -23q-26 -37 -63 -89t-77 -107.5t-76.5 -105.5t-62.5 -83l-8 12h144q36 0 56 8
t29.5 31.5t12.5 71.5q12 0 25 -1t28 -5q0 -16 1 -40.5t2.5 -49.5t4.5 -43q-9 -19 -32 -19q-25 1 -49.5 1t-55 0.5t-74.5 0.5q-66 0 -108.5 -0.5t-69.5 -1.5z" />
    <glyph glyph-name="uni01C5" unicode="&#x1c5;" horiz-adv-x="1231" 
d="M56 -3q0 14 1 24.5t4 18.5q27 2 42 10t21.5 28.5t6.5 59.5v411q0 34 -6 52t-21 26t-42 9q-3 8 -4 19.5t-1 23.5q16 -1 40.5 -1.5t51 -1t48.5 -0.5q29 0 59 1t59 1q53 0 107 -7.5t103 -27t87.5 -56t60.5 -93t22 -139.5q0 -81 -20 -139t-53.5 -97t-74.5 -63t-83.5 -36
t-81.5 -16t-67 -4h-64.5t-74 -0.5t-69.5 -1t-51 -1.5zM315 45q60 0 110.5 14.5t88 48t58 90.5t20.5 142q0 81 -24.5 138.5t-66 93t-94 52t-108.5 16.5q-22 0 -48 -3.5t-34 -8.5l8 26v-516q0 -37 7 -57t26.5 -28t56.5 -8zM797 -2q-7 7 -11.5 17.5t-4.5 22.5q21 29 50.5 70.5
t62.5 88t64.5 91t56.5 81t38 57.5l20 -12h-120q-36 0 -57 -8t-32.5 -31t-21.5 -67q-12 0 -26.5 2t-25.5 6q3 33 5 70t2 75q21 -1 52 -1.5t66 -1t65 -0.5t63.5 0.5t64 1t49.5 1.5q7 -8 10 -20t3 -23q-26 -37 -63 -89t-77 -107.5t-76.5 -105.5t-62.5 -83l-8 12h144q36 0 56 8
t29.5 31.5t12.5 71.5q12 0 25 -1t28 -5q0 -16 1 -40.5t2.5 -49.5t4.5 -43q-9 -19 -32 -19q-25 1 -49.5 1t-55 0.5t-74.5 0.5q-66 0 -108.5 -0.5t-69.5 -1.5zM957 517q-28 36 -64.5 77.5t-76.5 77.5q2 10 6.5 17.5t13.5 11.5q34 -22 72.5 -49t70.5 -44q12 6 32 19.5
t41.5 28.5t39 27.5t23.5 17.5q10 -1 18.5 -7t12.5 -16q-38 -31 -81 -73.5t-76 -83.5q-8 -2 -17 -3t-15 -1z" />
    <glyph glyph-name="E" unicode="E" horiz-adv-x="601" 
d="M56 679q15 -1 37.5 -1.5t47.5 -1t47.5 -0.5h35.5v-538q0 -37 7 -57t27 -28t57 -8v-45h-64.5t-74 -0.5t-69.5 -1t-51 -1.5q0 14 1 24.5t4 18.5q27 2 42 10t21 28.5t6 59.5v411q0 34 -6 52t-21 26t-42 9q-3 8 -4 19.5t-1 23.5zM516 171q15 -4 25 -9.5t19 -14.5
q-11 -34 -18.5 -74t-12.5 -75q-19 1 -51.5 1t-74 0.5t-88.5 0.5v45h6q72 0 108.5 14.5t54.5 42.5t32 69zM446 450q-1 -25 -1.5 -54t-0.5 -55t0.5 -58t1.5 -58q-13 0 -24 1t-22 4q-4 52 -27.5 70.5t-85.5 18.5h-72v43h72q62 0 86 16t25 65q13 4 24 5.5t24 1.5zM505 679
q2 -22 5 -51t7 -57t9 -50q-8 -7 -19.5 -9.5t-25.5 -2.5q-2 31 -16 60t-48.5 48t-99.5 19h-114l21 40q79 0 135.5 0.5t93 1.5t52.5 1z" />
    <glyph glyph-name="Eacute" unicode="&#xc9;" horiz-adv-x="601" 
d="M56 679q15 -1 37.5 -1.5t47.5 -1t47.5 -0.5h35.5v-538q0 -37 7 -57t27 -28t57 -8v-45h-64.5t-74 -0.5t-69.5 -1t-51 -1.5q0 14 1 24.5t4 18.5q27 2 42 10t21 28.5t6 59.5v411q0 34 -6 52t-21 26t-42 9q-3 8 -4 19.5t-1 23.5zM516 171q15 -4 25 -9.5t19 -14.5
q-11 -34 -18.5 -74t-12.5 -75q-19 1 -51.5 1t-74 0.5t-88.5 0.5v45h6q72 0 108.5 14.5t54.5 42.5t32 69zM446 450q-1 -25 -1.5 -54t-0.5 -55t0.5 -58t1.5 -58q-13 0 -24 1t-22 4q-4 52 -27.5 70.5t-85.5 18.5h-72v43h72q62 0 86 16t25 65q13 4 24 5.5t24 1.5zM505 679
q2 -22 5 -51t7 -57t9 -50q-8 -7 -19.5 -9.5t-25.5 -2.5q-2 31 -16 60t-48.5 48t-99.5 19h-114l21 40q79 0 135.5 0.5t93 1.5t52.5 1zM295 732q-13 0 -22 0.5t-18 4.5q17 35 31.5 69t24.5 65q12 3 24 5t24 2q26 0 47 -8q-27 -32 -53.5 -65t-57.5 -73z" />
    <glyph glyph-name="Ebreve" unicode="&#x114;" horiz-adv-x="601" 
d="M56 679q15 -1 37.5 -1.5t47.5 -1t47.5 -0.5h35.5v-538q0 -37 7 -57t27 -28t57 -8v-45h-64.5t-74 -0.5t-69.5 -1t-51 -1.5q0 14 1 24.5t4 18.5q27 2 42 10t21 28.5t6 59.5v411q0 34 -6 52t-21 26t-42 9q-3 8 -4 19.5t-1 23.5zM516 171q15 -4 25 -9.5t19 -14.5
q-11 -34 -18.5 -74t-12.5 -75q-19 1 -51.5 1t-74 0.5t-88.5 0.5v45h6q72 0 108.5 14.5t54.5 42.5t32 69zM446 450q-1 -25 -1.5 -54t-0.5 -55t0.5 -58t1.5 -58q-13 0 -24 1t-22 4q-4 52 -27.5 70.5t-85.5 18.5h-72v43h72q62 0 86 16t25 65q13 4 24 5.5t24 1.5zM505 679
q2 -22 5 -51t7 -57t9 -50q-8 -7 -19.5 -9.5t-25.5 -2.5q-2 31 -16 60t-48.5 48t-99.5 19h-114l21 40q79 0 135.5 0.5t93 1.5t52.5 1zM436 865q0 -66 -39 -101.5t-111 -35.5q-70 0 -108.5 34.5t-38.5 98.5q10 5 22 7.5t23 1.5q6 -36 36 -57t75 -21t73 21t30 57q11 1 21 -0.5
t17 -4.5z" />
    <glyph glyph-name="Ecaron" unicode="&#x11a;" horiz-adv-x="601" 
d="M56 679q15 -1 37.5 -1.5t47.5 -1t47.5 -0.5h35.5v-538q0 -37 7 -57t27 -28t57 -8v-45h-64.5t-74 -0.5t-69.5 -1t-51 -1.5q0 14 1 24.5t4 18.5q27 2 42 10t21 28.5t6 59.5v411q0 34 -6 52t-21 26t-42 9q-3 8 -4 19.5t-1 23.5zM516 171q15 -4 25 -9.5t19 -14.5
q-11 -34 -18.5 -74t-12.5 -75q-19 1 -51.5 1t-74 0.5t-88.5 0.5v45h6q72 0 108.5 14.5t54.5 42.5t32 69zM446 450q-1 -25 -1.5 -54t-0.5 -55t0.5 -58t1.5 -58q-13 0 -24 1t-22 4q-4 52 -27.5 70.5t-85.5 18.5h-72v43h72q62 0 86 16t25 65q13 4 24 5.5t24 1.5zM505 679
q2 -22 5 -51t7 -57t9 -50q-8 -7 -19.5 -9.5t-25.5 -2.5q-2 31 -16 60t-48.5 48t-99.5 19h-114l21 40q79 0 135.5 0.5t93 1.5t52.5 1zM265 731q-24 28 -57 60t-73 64q5 8 14 14t20 9q28 -16 61 -36t61 -33q14 7 40 20.5t52 28t41 23.5q8 -4 11.5 -15t4.5 -19q-34 -22 -72 -52
t-68 -60q-8 -2 -17.5 -3t-17.5 -1z" />
    <glyph glyph-name="uni0228" unicode="&#x228;" horiz-adv-x="601" 
d="M56 679q15 -1 37.5 -1.5t47.5 -1t47.5 -0.5h35.5v-538q0 -37 7 -57t27 -28t57 -8v-45h-64.5t-74 -0.5t-69.5 -1t-51 -1.5q0 14 1 24.5t4 18.5q27 2 42 10t21 28.5t6 59.5v411q0 34 -6 52t-21 26t-42 9q-3 8 -4 19.5t-1 23.5zM516 171q15 -4 25 -9.5t19 -14.5
q-11 -34 -18.5 -74t-12.5 -75q-19 1 -51.5 1t-74 0.5t-88.5 0.5v45h6q72 0 108.5 14.5t54.5 42.5t32 69zM446 450q-1 -25 -1.5 -54t-0.5 -55t0.5 -58t1.5 -58q-13 0 -24 1t-22 4q-4 52 -27.5 70.5t-85.5 18.5h-72v43h72q62 0 86 16t25 65q13 4 24 5.5t24 1.5zM505 679
q2 -22 5 -51t7 -57t9 -50q-8 -7 -19.5 -9.5t-25.5 -2.5q-2 31 -16 60t-48.5 48t-99.5 19h-114l21 40q79 0 135.5 0.5t93 1.5t52.5 1zM245 -242q-4 7 -5.5 16t-1.5 16q30 0 54.5 14.5t24.5 40.5q0 25 -18.5 39.5t-46.5 14.5q-7 6 -12.5 15.5t-5.5 22.5l50 79h50l-48 -66
q40 -7 63.5 -31t23.5 -60q0 -33 -21 -55.5t-51 -34t-56 -11.5z" />
    <glyph glyph-name="uni1E1C" unicode="&#x1e1c;" horiz-adv-x="601" 
d="M56 679q15 -1 37.5 -1.5t47.5 -1t47.5 -0.5h35.5v-538q0 -37 7 -57t27 -28t57 -8v-45h-64.5t-74 -0.5t-69.5 -1t-51 -1.5q0 14 1 24.5t4 18.5q27 2 42 10t21 28.5t6 59.5v411q0 34 -6 52t-21 26t-42 9q-3 8 -4 19.5t-1 23.5zM516 171q15 -4 25 -9.5t19 -14.5
q-11 -34 -18.5 -74t-12.5 -75q-19 1 -51.5 1t-74 0.5t-88.5 0.5v45h6q72 0 108.5 14.5t54.5 42.5t32 69zM446 450q-1 -25 -1.5 -54t-0.5 -55t0.5 -58t1.5 -58q-13 0 -24 1t-22 4q-4 52 -27.5 70.5t-85.5 18.5h-72v43h72q62 0 86 16t25 65q13 4 24 5.5t24 1.5zM505 679
q2 -22 5 -51t7 -57t9 -50q-8 -7 -19.5 -9.5t-25.5 -2.5q-2 31 -16 60t-48.5 48t-99.5 19h-114l21 40q79 0 135.5 0.5t93 1.5t52.5 1zM245 -242q-4 7 -5.5 16t-1.5 16q30 0 54.5 14.5t24.5 40.5q0 25 -18.5 39.5t-46.5 14.5q-7 6 -12.5 15.5t-5.5 22.5l50 79h50l-48 -66
q40 -7 63.5 -31t23.5 -60q0 -33 -21 -55.5t-51 -34t-56 -11.5zM436 865q0 -66 -39 -101.5t-111 -35.5q-70 0 -108.5 34.5t-38.5 98.5q10 5 22 7.5t23 1.5q6 -36 36 -57t75 -21t73 21t30 57q11 1 21 -0.5t17 -4.5z" />
    <glyph glyph-name="Ecircumflex" unicode="&#xca;" horiz-adv-x="601" 
d="M56 679q15 -1 37.5 -1.5t47.5 -1t47.5 -0.5h35.5v-538q0 -37 7 -57t27 -28t57 -8v-45h-64.5t-74 -0.5t-69.5 -1t-51 -1.5q0 14 1 24.5t4 18.5q27 2 42 10t21 28.5t6 59.5v411q0 34 -6 52t-21 26t-42 9q-3 8 -4 19.5t-1 23.5zM516 171q15 -4 25 -9.5t19 -14.5
q-11 -34 -18.5 -74t-12.5 -75q-19 1 -51.5 1t-74 0.5t-88.5 0.5v45h6q72 0 108.5 14.5t54.5 42.5t32 69zM446 450q-1 -25 -1.5 -54t-0.5 -55t0.5 -58t1.5 -58q-13 0 -24 1t-22 4q-4 52 -27.5 70.5t-85.5 18.5h-72v43h72q62 0 86 16t25 65q13 4 24 5.5t24 1.5zM505 679
q2 -22 5 -51t7 -57t9 -50q-8 -7 -19.5 -9.5t-25.5 -2.5q-2 31 -16 60t-48.5 48t-99.5 19h-114l21 40q79 0 135.5 0.5t93 1.5t52.5 1zM151 728q-8 5 -11.5 16t-4.5 18q34 22 72 52t68 60q8 2 18 3t17 1q24 -28 57 -60t73 -64q-5 -8 -14 -14t-20 -9q-28 17 -60.5 36.5
t-61.5 32.5q-14 -6 -40 -20l-52 -28t-41 -24z" />
    <glyph glyph-name="uni1EBE" unicode="&#x1ebe;" horiz-adv-x="601" 
d="M56 679q15 -1 37.5 -1.5t47.5 -1t47.5 -0.5h35.5v-538q0 -37 7 -57t27 -28t57 -8v-45h-64.5t-74 -0.5t-69.5 -1t-51 -1.5q0 14 1 24.5t4 18.5q27 2 42 10t21 28.5t6 59.5v411q0 34 -6 52t-21 26t-42 9q-3 8 -4 19.5t-1 23.5zM516 171q15 -4 25 -9.5t19 -14.5
q-11 -34 -18.5 -74t-12.5 -75q-19 1 -51.5 1t-74 0.5t-88.5 0.5v45h6q72 0 108.5 14.5t54.5 42.5t32 69zM446 450q-1 -25 -1.5 -54t-0.5 -55t0.5 -58t1.5 -58q-13 0 -24 1t-22 4q-4 52 -27.5 70.5t-85.5 18.5h-72v43h72q62 0 86 16t25 65q13 4 24 5.5t24 1.5zM505 679
q2 -22 5 -51t7 -57t9 -50q-8 -7 -19.5 -9.5t-25.5 -2.5q-2 31 -16 60t-48.5 48t-99.5 19h-114l21 40q79 0 135.5 0.5t93 1.5t52.5 1zM151 728q-8 5 -11.5 16t-4.5 18q34 22 72 52t68 60q8 2 18 3t17 1q24 -28 57 -60t73 -64q-5 -8 -14 -14t-20 -9q-28 17 -60.5 36.5
t-61.5 32.5q-14 -6 -40 -20l-52 -28t-41 -24zM429.601 850.082q-12.2207 0 -20.6807 0.469727t-16.9199 4.23047q15.9805 32.8994 29.6104 64.8594t23.0303 61.1006q11.2793 2.82031 22.5596 4.7002t22.5605 1.87988q24.4395 0 44.1797 -7.52051
q-25.3799 -30.0801 -50.29 -61.0996q-24.9102 -31.0205 -54.0498 -68.6201z" />
    <glyph glyph-name="uni1EC6" unicode="&#x1ec6;" horiz-adv-x="601" 
d="M56 679q15 -1 37.5 -1.5t47.5 -1t47.5 -0.5h35.5v-538q0 -37 7 -57t27 -28t57 -8v-45h-64.5t-74 -0.5t-69.5 -1t-51 -1.5q0 14 1 24.5t4 18.5q27 2 42 10t21 28.5t6 59.5v411q0 34 -6 52t-21 26t-42 9q-3 8 -4 19.5t-1 23.5zM516 171q15 -4 25 -9.5t19 -14.5
q-11 -34 -18.5 -74t-12.5 -75q-19 1 -51.5 1t-74 0.5t-88.5 0.5v45h6q72 0 108.5 14.5t54.5 42.5t32 69zM446 450q-1 -25 -1.5 -54t-0.5 -55t0.5 -58t1.5 -58q-13 0 -24 1t-22 4q-4 52 -27.5 70.5t-85.5 18.5h-72v43h72q62 0 86 16t25 65q13 4 24 5.5t24 1.5zM505 679
q2 -22 5 -51t7 -57t9 -50q-8 -7 -19.5 -9.5t-25.5 -2.5q-2 31 -16 60t-48.5 48t-99.5 19h-114l21 40q79 0 135.5 0.5t93 1.5t52.5 1zM303 -210q-25 0 -42 17t-17 41q0 27 18 44t41 17q27 0 43.5 -17t16.5 -44q0 -23 -17.5 -40.5t-42.5 -17.5zM151 728q-8 5 -11.5 16t-4.5 18
q34 22 72 52t68 60q8 2 18 3t17 1q24 -28 57 -60t73 -64q-5 -8 -14 -14t-20 -9q-28 17 -60.5 36.5t-61.5 32.5q-14 -6 -40 -20l-52 -28t-41 -24z" />
    <glyph glyph-name="uni1EC0" unicode="&#x1ec0;" horiz-adv-x="601" 
d="M56 679q15 -1 37.5 -1.5t47.5 -1t47.5 -0.5h35.5v-538q0 -37 7 -57t27 -28t57 -8v-45h-64.5t-74 -0.5t-69.5 -1t-51 -1.5q0 14 1 24.5t4 18.5q27 2 42 10t21 28.5t6 59.5v411q0 34 -6 52t-21 26t-42 9q-3 8 -4 19.5t-1 23.5zM516 171q15 -4 25 -9.5t19 -14.5
q-11 -34 -18.5 -74t-12.5 -75q-19 1 -51.5 1t-74 0.5t-88.5 0.5v45h6q72 0 108.5 14.5t54.5 42.5t32 69zM446 450q-1 -25 -1.5 -54t-0.5 -55t0.5 -58t1.5 -58q-13 0 -24 1t-22 4q-4 52 -27.5 70.5t-85.5 18.5h-72v43h72q62 0 86 16t25 65q13 4 24 5.5t24 1.5zM505 679
q2 -22 5 -51t7 -57t9 -50q-8 -7 -19.5 -9.5t-25.5 -2.5q-2 31 -16 60t-48.5 48t-99.5 19h-114l21 40q79 0 135.5 0.5t93 1.5t52.5 1zM151 728q-8 5 -11.5 16t-4.5 18q34 22 72 52t68 60q8 2 18 3t17 1q24 -28 57 -60t73 -64q-5 -8 -14 -14t-20 -9q-28 17 -60.5 36.5
t-61.5 32.5q-14 -6 -40 -20l-52 -28t-41 -24zM404 844q-31 40 -57.5 70.5t-53.5 57.5q17 9 41.5 11.5t48.5 0.5q13 -31 27.5 -65.5t33.5 -69.5q-9 -4 -18 -4.5t-22 -0.5z" />
    <glyph glyph-name="uni1EC2" unicode="&#x1ec2;" horiz-adv-x="601" 
d="M56 679q15 -1 37.5 -1.5t47.5 -1t47.5 -0.5h35.5v-538q0 -37 7 -57t27 -28t57 -8v-45h-64.5t-74 -0.5t-69.5 -1t-51 -1.5q0 14 1 24.5t4 18.5q27 2 42 10t21 28.5t6 59.5v411q0 34 -6 52t-21 26t-42 9q-3 8 -4 19.5t-1 23.5zM516 171q15 -4 25 -9.5t19 -14.5
q-11 -34 -18.5 -74t-12.5 -75q-19 1 -51.5 1t-74 0.5t-88.5 0.5v45h6q72 0 108.5 14.5t54.5 42.5t32 69zM446 450q-1 -25 -1.5 -54t-0.5 -55t0.5 -58t1.5 -58q-13 0 -24 1t-22 4q-4 52 -27.5 70.5t-85.5 18.5h-72v43h72q62 0 86 16t25 65q13 4 24 5.5t24 1.5zM505 679
q2 -22 5 -51t7 -57t9 -50q-8 -7 -19.5 -9.5t-25.5 -2.5q-2 31 -16 60t-48.5 48t-99.5 19h-114l21 40q79 0 135.5 0.5t93 1.5t52.5 1zM151 728q-8 5 -11.5 16t-4.5 18q34 22 72 52t68 60q8 2 18 3t17 1q24 -28 57 -60t73 -64q-5 -8 -14 -14t-20 -9q-28 17 -60.5 36.5
t-61.5 32.5q-14 -6 -40 -20l-52 -28t-41 -24zM398 864q-13 16 -13 31q0 16 9.5 25.5t22 17t22 15t9.5 19.5q0 10 -8 15t-22 5q-22 0 -33.5 -13t-15.5 -45q-12 0 -25.5 2.5t-21.5 6.5q2 17 2.5 28.5t-2.5 26.5q16 12 39 22t61 10q40 0 66 -14t26 -42q0 -19 -12 -32t-27 -22
t-27 -17.5t-12 -20.5q0 -5 2 -13q-10 -3 -19.5 -4t-20.5 -1z" />
    <glyph glyph-name="uni1EC4" unicode="&#x1ec4;" horiz-adv-x="601" 
d="M56 679q15 -1 37.5 -1.5t47.5 -1t47.5 -0.5h35.5v-538q0 -37 7 -57t27 -28t57 -8v-45h-64.5t-74 -0.5t-69.5 -1t-51 -1.5q0 14 1 24.5t4 18.5q27 2 42 10t21 28.5t6 59.5v411q0 34 -6 52t-21 26t-42 9q-3 8 -4 19.5t-1 23.5zM516 171q15 -4 25 -9.5t19 -14.5
q-11 -34 -18.5 -74t-12.5 -75q-19 1 -51.5 1t-74 0.5t-88.5 0.5v45h6q72 0 108.5 14.5t54.5 42.5t32 69zM446 450q-1 -25 -1.5 -54t-0.5 -55t0.5 -58t1.5 -58q-13 0 -24 1t-22 4q-4 52 -27.5 70.5t-85.5 18.5h-72v43h72q62 0 86 16t25 65q13 4 24 5.5t24 1.5zM505 679
q2 -22 5 -51t7 -57t9 -50q-8 -7 -19.5 -9.5t-25.5 -2.5q-2 31 -16 60t-48.5 48t-99.5 19h-114l21 40q79 0 135.5 0.5t93 1.5t52.5 1zM151 728q-8 5 -11.5 16t-4.5 18q34 22 72 52t68 60q8 2 18 3t17 1q24 -28 57 -60t73 -64q-5 -8 -14 -14t-20 -9q-28 17 -60.5 36.5
t-61.5 32.5q-14 -6 -40 -20l-52 -28t-41 -24zM345 930q-18 0 -35 5.5t-33 12t-32.5 12t-34.5 5.5q-19 0 -36.5 -8t-34.5 -24q-7 5 -10 13t-3 18q29 38 57 51.5t54 13.5t48 -8.5t42 -17t41 -8.5q15 0 29 6.5t27 19.5q5 -1 13.5 -4t12.5 -10q-22 -41 -49 -59t-56 -18z" />
    <glyph glyph-name="uni0204" unicode="&#x204;" horiz-adv-x="601" 
d="M56 679q15 -1 37.5 -1.5t47.5 -1t47.5 -0.5h35.5v-538q0 -37 7 -57t27 -28t57 -8v-45h-64.5t-74 -0.5t-69.5 -1t-51 -1.5q0 14 1 24.5t4 18.5q27 2 42 10t21 28.5t6 59.5v411q0 34 -6 52t-21 26t-42 9q-3 8 -4 19.5t-1 23.5zM516 171q15 -4 25 -9.5t19 -14.5
q-11 -34 -18.5 -74t-12.5 -75q-19 1 -51.5 1t-74 0.5t-88.5 0.5v45h6q72 0 108.5 14.5t54.5 42.5t32 69zM446 450q-1 -25 -1.5 -54t-0.5 -55t0.5 -58t1.5 -58q-13 0 -24 1t-22 4q-4 52 -27.5 70.5t-85.5 18.5h-72v43h72q62 0 86 16t25 65q13 4 24 5.5t24 1.5zM505 679
q2 -22 5 -51t7 -57t9 -50q-8 -7 -19.5 -9.5t-25.5 -2.5q-2 31 -16 60t-48.5 48t-99.5 19h-114l21 40q79 0 135.5 0.5t93 1.5t52.5 1zM203 722q-31 40 -57.5 70.5t-53.5 57.5q17 9 41.5 11.5t48.5 0.5q13 -31 27.5 -65.5t33.5 -69.5q-9 -4 -18 -4.5t-22 -0.5zM353 722
q-31 40 -57.5 70.5t-53.5 57.5q17 9 41.5 11.5t48.5 0.5q13 -31 27.5 -65.5t33.5 -69.5q-9 -4 -18 -4.5t-22 -0.5z" />
    <glyph glyph-name="Edieresis" unicode="&#xcb;" horiz-adv-x="601" 
d="M56 679q15 -1 37.5 -1.5t47.5 -1t47.5 -0.5h35.5v-538q0 -37 7 -57t27 -28t57 -8v-45h-64.5t-74 -0.5t-69.5 -1t-51 -1.5q0 14 1 24.5t4 18.5q27 2 42 10t21 28.5t6 59.5v411q0 34 -6 52t-21 26t-42 9q-3 8 -4 19.5t-1 23.5zM516 171q15 -4 25 -9.5t19 -14.5
q-11 -34 -18.5 -74t-12.5 -75q-19 1 -51.5 1t-74 0.5t-88.5 0.5v45h6q72 0 108.5 14.5t54.5 42.5t32 69zM446 450q-1 -25 -1.5 -54t-0.5 -55t0.5 -58t1.5 -58q-13 0 -24 1t-22 4q-4 52 -27.5 70.5t-85.5 18.5h-72v43h72q62 0 86 16t25 65q13 4 24 5.5t24 1.5zM505 679
q2 -22 5 -51t7 -57t9 -50q-8 -7 -19.5 -9.5t-25.5 -2.5q-2 31 -16 60t-48.5 48t-99.5 19h-114l21 40q79 0 135.5 0.5t93 1.5t52.5 1zM387 732q-29 0 -44 16t-15 41q0 24 15.5 37.5t40.5 13.5t41 -14t16 -37q0 -21 -12 -39t-42 -18zM191 732q-25 0 -41 14.5t-16 36.5t13 39.5
t42 17.5q30 0 43.5 -16t13.5 -39t-16 -38t-39 -15z" />
    <glyph glyph-name="Edotaccent" unicode="&#x116;" horiz-adv-x="601" 
d="M56 679q15 -1 37.5 -1.5t47.5 -1t47.5 -0.5h35.5v-538q0 -37 7 -57t27 -28t57 -8v-45h-64.5t-74 -0.5t-69.5 -1t-51 -1.5q0 14 1 24.5t4 18.5q27 2 42 10t21 28.5t6 59.5v411q0 34 -6 52t-21 26t-42 9q-3 8 -4 19.5t-1 23.5zM516 171q15 -4 25 -9.5t19 -14.5
q-11 -34 -18.5 -74t-12.5 -75q-19 1 -51.5 1t-74 0.5t-88.5 0.5v45h6q72 0 108.5 14.5t54.5 42.5t32 69zM446 450q-1 -25 -1.5 -54t-0.5 -55t0.5 -58t1.5 -58q-13 0 -24 1t-22 4q-4 52 -27.5 70.5t-85.5 18.5h-72v43h72q62 0 86 16t25 65q13 4 24 5.5t24 1.5zM505 679
q2 -22 5 -51t7 -57t9 -50q-8 -7 -19.5 -9.5t-25.5 -2.5q-2 31 -16 60t-48.5 48t-99.5 19h-114l21 40q79 0 135.5 0.5t93 1.5t52.5 1zM287 720q-25 0 -42 17t-17 41q0 27 18 44t41 17q27 0 43.5 -17t16.5 -44q0 -23 -17.5 -40.5t-42.5 -17.5z" />
    <glyph glyph-name="uni1EB8" unicode="&#x1eb8;" horiz-adv-x="601" 
d="M56 679q15 -1 37.5 -1.5t47.5 -1t47.5 -0.5h35.5v-538q0 -37 7 -57t27 -28t57 -8v-45h-64.5t-74 -0.5t-69.5 -1t-51 -1.5q0 14 1 24.5t4 18.5q27 2 42 10t21 28.5t6 59.5v411q0 34 -6 52t-21 26t-42 9q-3 8 -4 19.5t-1 23.5zM516 171q15 -4 25 -9.5t19 -14.5
q-11 -34 -18.5 -74t-12.5 -75q-19 1 -51.5 1t-74 0.5t-88.5 0.5v45h6q72 0 108.5 14.5t54.5 42.5t32 69zM446 450q-1 -25 -1.5 -54t-0.5 -55t0.5 -58t1.5 -58q-13 0 -24 1t-22 4q-4 52 -27.5 70.5t-85.5 18.5h-72v43h72q62 0 86 16t25 65q13 4 24 5.5t24 1.5zM505 679
q2 -22 5 -51t7 -57t9 -50q-8 -7 -19.5 -9.5t-25.5 -2.5q-2 31 -16 60t-48.5 48t-99.5 19h-114l21 40q79 0 135.5 0.5t93 1.5t52.5 1zM303 -210q-25 0 -42 17t-17 41q0 27 18 44t41 17q27 0 43.5 -17t16.5 -44q0 -23 -17.5 -40.5t-42.5 -17.5z" />
    <glyph glyph-name="Egrave" unicode="&#xc8;" horiz-adv-x="601" 
d="M56 679q15 -1 37.5 -1.5t47.5 -1t47.5 -0.5h35.5v-538q0 -37 7 -57t27 -28t57 -8v-45h-64.5t-74 -0.5t-69.5 -1t-51 -1.5q0 14 1 24.5t4 18.5q27 2 42 10t21 28.5t6 59.5v411q0 34 -6 52t-21 26t-42 9q-3 8 -4 19.5t-1 23.5zM516 171q15 -4 25 -9.5t19 -14.5
q-11 -34 -18.5 -74t-12.5 -75q-19 1 -51.5 1t-74 0.5t-88.5 0.5v45h6q72 0 108.5 14.5t54.5 42.5t32 69zM446 450q-1 -25 -1.5 -54t-0.5 -55t0.5 -58t1.5 -58q-13 0 -24 1t-22 4q-4 52 -27.5 70.5t-85.5 18.5h-72v43h72q62 0 86 16t25 65q13 4 24 5.5t24 1.5zM505 679
q2 -22 5 -51t7 -57t9 -50q-8 -7 -19.5 -9.5t-25.5 -2.5q-2 31 -16 60t-48.5 48t-99.5 19h-114l21 40q79 0 135.5 0.5t93 1.5t52.5 1zM281 732q-31 40 -57.5 70.5t-53.5 57.5q17 9 41.5 11.5t48.5 0.5q13 -31 27.5 -65.5t33.5 -69.5q-9 -4 -18 -4.5t-22 -0.5z" />
    <glyph glyph-name="uni1EBA" unicode="&#x1eba;" horiz-adv-x="601" 
d="M56 679q15 -1 37.5 -1.5t47.5 -1t47.5 -0.5h35.5v-538q0 -37 7 -57t27 -28t57 -8v-45h-64.5t-74 -0.5t-69.5 -1t-51 -1.5q0 14 1 24.5t4 18.5q27 2 42 10t21 28.5t6 59.5v411q0 34 -6 52t-21 26t-42 9q-3 8 -4 19.5t-1 23.5zM516 171q15 -4 25 -9.5t19 -14.5
q-11 -34 -18.5 -74t-12.5 -75q-19 1 -51.5 1t-74 0.5t-88.5 0.5v45h6q72 0 108.5 14.5t54.5 42.5t32 69zM446 450q-1 -25 -1.5 -54t-0.5 -55t0.5 -58t1.5 -58q-13 0 -24 1t-22 4q-4 52 -27.5 70.5t-85.5 18.5h-72v43h72q62 0 86 16t25 65q13 4 24 5.5t24 1.5zM505 679
q2 -22 5 -51t7 -57t9 -50q-8 -7 -19.5 -9.5t-25.5 -2.5q-2 31 -16 60t-48.5 48t-99.5 19h-114l21 40q79 0 135.5 0.5t93 1.5t52.5 1zM268 726q-13 16 -13 31q0 16 9.5 25.5t22 17t22 15t9.5 19.5q0 10 -8 15t-22 5q-22 0 -33.5 -13t-15.5 -45q-12 0 -25.5 2.5t-21.5 6.5
q2 17 2.5 28.5t-2.5 26.5q16 12 39 22t61 10q40 0 66 -14t26 -42q0 -19 -12 -32t-27 -22t-27 -17.5t-12 -20.5q0 -5 2 -13q-10 -3 -19.5 -4t-20.5 -1z" />
    <glyph glyph-name="uni0206" unicode="&#x206;" horiz-adv-x="601" 
d="M56 679q15 -1 37.5 -1.5t47.5 -1t47.5 -0.5h35.5v-538q0 -37 7 -57t27 -28t57 -8v-45h-64.5t-74 -0.5t-69.5 -1t-51 -1.5q0 14 1 24.5t4 18.5q27 2 42 10t21 28.5t6 59.5v411q0 34 -6 52t-21 26t-42 9q-3 8 -4 19.5t-1 23.5zM516 171q15 -4 25 -9.5t19 -14.5
q-11 -34 -18.5 -74t-12.5 -75q-19 1 -51.5 1t-74 0.5t-88.5 0.5v45h6q72 0 108.5 14.5t54.5 42.5t32 69zM446 450q-1 -25 -1.5 -54t-0.5 -55t0.5 -58t1.5 -58q-13 0 -24 1t-22 4q-4 52 -27.5 70.5t-85.5 18.5h-72v43h72q62 0 86 16t25 65q13 4 24 5.5t24 1.5zM505 679
q2 -22 5 -51t7 -57t9 -50q-8 -7 -19.5 -9.5t-25.5 -2.5q-2 31 -16 60t-48.5 48t-99.5 19h-114l21 40q79 0 135.5 0.5t93 1.5t52.5 1zM139 733q0 66 39 101.5t111 35.5q70 0 108.5 -34.5t38.5 -98.5q-10 -5 -22 -7.5t-23 -1.5q-6 36 -36 57t-75 21t-73 -21t-30 -57
q-11 -1 -21 0.5t-17 4.5z" />
    <glyph glyph-name="Emacron" unicode="&#x112;" horiz-adv-x="601" 
d="M56 679q15 -1 37.5 -1.5t47.5 -1t47.5 -0.5h35.5v-538q0 -37 7 -57t27 -28t57 -8v-45h-64.5t-74 -0.5t-69.5 -1t-51 -1.5q0 14 1 24.5t4 18.5q27 2 42 10t21 28.5t6 59.5v411q0 34 -6 52t-21 26t-42 9q-3 8 -4 19.5t-1 23.5zM516 171q15 -4 25 -9.5t19 -14.5
q-11 -34 -18.5 -74t-12.5 -75q-19 1 -51.5 1t-74 0.5t-88.5 0.5v45h6q72 0 108.5 14.5t54.5 42.5t32 69zM446 450q-1 -25 -1.5 -54t-0.5 -55t0.5 -58t1.5 -58q-13 0 -24 1t-22 4q-4 52 -27.5 70.5t-85.5 18.5h-72v43h72q62 0 86 16t25 65q13 4 24 5.5t24 1.5zM505 679
q2 -22 5 -51t7 -57t9 -50q-8 -7 -19.5 -9.5t-25.5 -2.5q-2 31 -16 60t-48.5 48t-99.5 19h-114l21 40q79 0 135.5 0.5t93 1.5t52.5 1zM470 805q0 -10 -2 -21t-7 -22h-68t-126.5 -0.5t-160.5 -2.5q0 6 2.5 21.5t6.5 24.5h355z" />
    <glyph glyph-name="uni1E16" unicode="&#x1e16;" horiz-adv-x="601" 
d="M56 679q15 -1 37.5 -1.5t47.5 -1t47.5 -0.5h35.5v-538q0 -37 7 -57t27 -28t57 -8v-45h-64.5t-74 -0.5t-69.5 -1t-51 -1.5q0 14 1 24.5t4 18.5q27 2 42 10t21 28.5t6 59.5v411q0 34 -6 52t-21 26t-42 9q-3 8 -4 19.5t-1 23.5zM516 171q15 -4 25 -9.5t19 -14.5
q-11 -34 -18.5 -74t-12.5 -75q-19 1 -51.5 1t-74 0.5t-88.5 0.5v45h6q72 0 108.5 14.5t54.5 42.5t32 69zM446 450q-1 -25 -1.5 -54t-0.5 -55t0.5 -58t1.5 -58q-13 0 -24 1t-22 4q-4 52 -27.5 70.5t-85.5 18.5h-72v43h72q62 0 86 16t25 65q13 4 24 5.5t24 1.5zM505 679
q2 -22 5 -51t7 -57t9 -50q-8 -7 -19.5 -9.5t-25.5 -2.5q-2 31 -16 60t-48.5 48t-99.5 19h-114l21 40q79 0 135.5 0.5t93 1.5t52.5 1zM470 805q0 -10 -2 -21t-7 -22h-68t-126.5 -0.5t-160.5 -2.5q0 6 2.5 21.5t6.5 24.5h355zM295 861q-13 0 -22 0.5t-18 4.5q17 35 31.5 69
t24.5 65q12 3 24 5t24 2q26 0 47 -8q-27 -32 -53.5 -65t-57.5 -73z" />
    <glyph glyph-name="uni1E14" unicode="&#x1e14;" horiz-adv-x="601" 
d="M56 679q15 -1 37.5 -1.5t47.5 -1t47.5 -0.5h35.5v-538q0 -37 7 -57t27 -28t57 -8v-45h-64.5t-74 -0.5t-69.5 -1t-51 -1.5q0 14 1 24.5t4 18.5q27 2 42 10t21 28.5t6 59.5v411q0 34 -6 52t-21 26t-42 9q-3 8 -4 19.5t-1 23.5zM516 171q15 -4 25 -9.5t19 -14.5
q-11 -34 -18.5 -74t-12.5 -75q-19 1 -51.5 1t-74 0.5t-88.5 0.5v45h6q72 0 108.5 14.5t54.5 42.5t32 69zM446 450q-1 -25 -1.5 -54t-0.5 -55t0.5 -58t1.5 -58q-13 0 -24 1t-22 4q-4 52 -27.5 70.5t-85.5 18.5h-72v43h72q62 0 86 16t25 65q13 4 24 5.5t24 1.5zM505 679
q2 -22 5 -51t7 -57t9 -50q-8 -7 -19.5 -9.5t-25.5 -2.5q-2 31 -16 60t-48.5 48t-99.5 19h-114l21 40q79 0 135.5 0.5t93 1.5t52.5 1zM470 805q0 -10 -2 -21t-7 -22h-68t-126.5 -0.5t-160.5 -2.5q0 6 2.5 21.5t6.5 24.5h355zM281 861q-31 40 -57.5 70.5t-53.5 57.5
q17 9 41.5 11.5t48.5 0.5q13 -31 27.5 -65.5t33.5 -69.5q-9 -4 -18 -4.5t-22 -0.5z" />
    <glyph glyph-name="Eogonek" unicode="&#x118;" horiz-adv-x="601" 
d="M56 679q15 -1 37.5 -1.5t47.5 -1t47.5 -0.5h35.5v-538q0 -37 7 -57t27 -28t57 -8v-45h-64.5t-74 -0.5t-69.5 -1t-51 -1.5q0 14 1 24.5t4 18.5q27 2 42 10t21 28.5t6 59.5v411q0 34 -6 52t-21 26t-42 9q-3 8 -4 19.5t-1 23.5zM516 171q15 -4 25 -9.5t19 -14.5
q-11 -34 -18.5 -74t-12.5 -75q-19 1 -51.5 1t-74 0.5t-88.5 0.5v45h6q72 0 108.5 14.5t54.5 42.5t32 69zM446 450q-1 -25 -1.5 -54t-0.5 -55t0.5 -58t1.5 -58q-13 0 -24 1t-22 4q-4 52 -27.5 70.5t-85.5 18.5h-72v43h72q62 0 86 16t25 65q13 4 24 5.5t24 1.5zM505 679
q2 -22 5 -51t7 -57t9 -50q-8 -7 -19.5 -9.5t-25.5 -2.5q-2 31 -16 60t-48.5 48t-99.5 19h-114l21 40q79 0 135.5 0.5t93 1.5t52.5 1zM446 20l33 -20q-53 -19 -78.5 -49t-25.5 -60q0 -25 16.5 -39.5t46.5 -14.5q9 0 20 2t22 6q3 -5 4.5 -11t2.5 -13t0 -15q-19 -10 -37.5 -23
t-36.5 -30q-4 -1 -9 -1.5t-10 -0.5q-16 0 -39 8t-40.5 29t-17.5 60q0 45 32 87t117 85z" />
    <glyph glyph-name="uni018E" unicode="&#x18e;" horiz-adv-x="601" 
d="M545 679q-15 -1 -37.5 -1.5t-47.5 -1t-47.5 -0.5h-35.5v-538q0 -37 -7 -57t-27 -28t-57 -8v-45h64.5t74 -0.5t69.5 -1t51 -1.5q0 14 -1 24.5t-4 18.5q-27 2 -42 10t-21 28.5t-6 59.5v411q0 34 6 52t21 26t42 9q3 8 4 19.5t1 23.5zM85 171q-15 -4 -25 -9.5t-19 -14.5
q11 -34 18.5 -74t12.5 -75q19 1 51.5 1t74 0.5t88.5 0.5v45h-6q-72 0 -108.5 14.5t-54.5 42.5t-32 69zM155 450q1 -25 1.5 -54t0.5 -55t-0.5 -58t-1.5 -58q13 0 24 1t22 4q4 52 27.5 70.5t85.5 18.5h72v43h-72q-62 0 -86 16t-25 65q-13 4 -24 5.5t-24 1.5zM96 679
q-2 -22 -5 -51t-7 -57t-9 -50q8 -7 19.5 -9.5t25.5 -2.5q2 31 16 60t48.5 48t99.5 19h114l-21 40q-79 0 -135.5 0.5t-93 1.5t-52.5 1z" />
    <glyph glyph-name="uni1EBC" unicode="&#x1ebc;" horiz-adv-x="601" 
d="M56 679q15 -1 37.5 -1.5t47.5 -1t47.5 -0.5h35.5v-538q0 -37 7 -57t27 -28t57 -8v-45h-64.5t-74 -0.5t-69.5 -1t-51 -1.5q0 14 1 24.5t4 18.5q27 2 42 10t21 28.5t6 59.5v411q0 34 -6 52t-21 26t-42 9q-3 8 -4 19.5t-1 23.5zM516 171q15 -4 25 -9.5t19 -14.5
q-11 -34 -18.5 -74t-12.5 -75q-19 1 -51.5 1t-74 0.5t-88.5 0.5v45h6q72 0 108.5 14.5t54.5 42.5t32 69zM446 450q-1 -25 -1.5 -54t-0.5 -55t0.5 -58t1.5 -58q-13 0 -24 1t-22 4q-4 52 -27.5 70.5t-85.5 18.5h-72v43h72q62 0 86 16t25 65q13 4 24 5.5t24 1.5zM505 679
q2 -22 5 -51t7 -57t9 -50q-8 -7 -19.5 -9.5t-25.5 -2.5q-2 31 -16 60t-48.5 48t-99.5 19h-114l21 40q79 0 135.5 0.5t93 1.5t52.5 1zM345 748q-18 0 -35 5.5t-33 12t-32.5 12t-34.5 5.5q-19 0 -36.5 -8t-34.5 -24q-7 5 -10 13t-3 18q29 38 57 51.5t54 13.5t48 -8.5t42 -17
t41 -8.5q15 0 29 6.5t27 19.5q5 -1 13.5 -4t12.5 -10q-22 -41 -49 -59t-56 -18z" />
    <glyph glyph-name="uni01B7" unicode="&#x1b7;" horiz-adv-x="609" 
d="M280 -9q-64 0 -115 13.5t-97 36.5q1 23 0.5 49t-2.5 52.5t-5 48.5q12 3 29 4.5t29 1.5q8 -78 44 -118t116 -40q81 0 124 38.5t43 104.5q0 77 -58 118t-162 41q-4 9 -7.5 19.5t-3.5 21.5q36 41 73 89.5t71 98t62 94.5l1 -28h-159q-44 0 -71.5 -9.5t-44 -36.5t-27.5 -82
q-13 0 -30 2t-27 8q9 32 14 76t5 84q15 0 45.5 -0.5t67 -1t71.5 -0.5h60h63.5t62 0.5t66.5 1.5q5 -5 8 -14t3 -19q-35 -54 -88.5 -127.5t-115.5 -145.5l-3 8q113 -2 172.5 -50.5t59.5 -134.5q0 -95 -71.5 -149.5t-202.5 -54.5z" />
    <glyph glyph-name="uni01EE" unicode="&#x1ee;" horiz-adv-x="609" 
d="M280 -9q-64 0 -115 13.5t-97 36.5q1 23 0.5 49t-2.5 52.5t-5 48.5q12 3 29 4.5t29 1.5q8 -78 44 -118t116 -40q81 0 124 38.5t43 104.5q0 77 -58 118t-162 41q-4 9 -7.5 19.5t-3.5 21.5q36 41 73 89.5t71 98t62 94.5l1 -28h-159q-44 0 -71.5 -9.5t-44 -36.5t-27.5 -82
q-13 0 -30 2t-27 8q9 32 14 76t5 84q15 0 45.5 -0.5t67 -1t71.5 -0.5h60h63.5t62 0.5t66.5 1.5q5 -5 8 -14t3 -19q-35 -54 -88.5 -127.5t-115.5 -145.5l-3 8q113 -2 172.5 -50.5t59.5 -134.5q0 -95 -71.5 -149.5t-202.5 -54.5zM268 731q-24 28 -57 60t-73 64q5 8 14 14t20 9
q28 -16 61 -36t61 -33q14 7 40 20.5t52 28t41 23.5q8 -4 11.5 -15t4.5 -19q-34 -22 -72 -52t-68 -60q-8 -2 -17.5 -3t-17.5 -1z" />
    <glyph glyph-name="F" unicode="F" horiz-adv-x="561" 
d="M56 -3q0 14 1 24.5t4 18.5q27 2 42 9.5t21 26t6 51.5v422q0 34 -6 52t-21 26t-42 9q-3 8 -4 19t-1 24q17 -1 38 -1.5t44.5 -1t45.5 -0.5h40v-529q0 -43 9 -65.5t29 -31t51 -10.5q3 -8 4 -18.5t1 -24.5q-15 1 -35.5 1.5t-43.5 1t-47 0.5q-35 0 -75.5 -0.5t-60.5 -2.5z
M452 205q-13 0 -24 1t-22 4q-4 52 -27.5 70.5t-85.5 18.5h-72v43h72q62 0 86 16t25 65q13 4 24 5.5t24 1.5q-1 -25 -1.5 -54t-0.5 -55t0.5 -58t1.5 -58zM477 509q-2 31 -16 60t-48.5 48t-99.5 19h-114l22 40q79 0 135.5 0.5t92.5 1.5t52 1q2 -22 5 -51t7 -57t9 -50
q-8 -7 -19.5 -9.5t-25.5 -2.5z" />
    <glyph glyph-name="G" unicode="G" horiz-adv-x="731" 
d="M364 -9q-98 0 -172.5 44t-115.5 124t-41 188q0 84 29 147.5t78.5 105.5t111.5 63.5t128 21.5q72 0 134 -13t106 -34q-7 -35 -9 -73t-2 -82q-12 -4 -24.5 -6.5t-28.5 -2.5q-2 70 -25 106.5t-60 50t-83 13.5q-85 0 -140.5 -39t-82 -101.5t-26.5 -134.5q0 -91 27 -165.5
t81 -119t135 -44.5q30 0 53.5 3t47.5 13q17 8 25.5 22.5t8.5 52.5v50q0 46 -5.5 66.5t-24 26.5t-56.5 7q-3 8 -4.5 21t-1.5 25q19 -1 55 -2t67 -1t66 0.5t51 1.5q0 -9 -1 -22t-5 -23q-20 -1 -30 -7t-13.5 -27t-3.5 -66v-45q0 -21 2.5 -38t10.5 -32q-43 -31 -110 -53
t-152 -22z" />
    <glyph glyph-name="Gbreve" unicode="&#x11e;" horiz-adv-x="731" 
d="M364 -9q-98 0 -172.5 44t-115.5 124t-41 188q0 84 29 147.5t78.5 105.5t111.5 63.5t128 21.5q72 0 134 -13t106 -34q-7 -35 -9 -73t-2 -82q-12 -4 -24.5 -6.5t-28.5 -2.5q-2 70 -25 106.5t-60 50t-83 13.5q-85 0 -140.5 -39t-82 -101.5t-26.5 -134.5q0 -91 27 -165.5
t81 -119t135 -44.5q30 0 53.5 3t47.5 13q17 8 25.5 22.5t8.5 52.5v50q0 46 -5.5 66.5t-24 26.5t-56.5 7q-3 8 -4.5 21t-1.5 25q19 -1 55 -2t67 -1t66 0.5t51 1.5q0 -9 -1 -22t-5 -23q-20 -1 -30 -7t-13.5 -27t-3.5 -66v-45q0 -21 2.5 -38t10.5 -32q-43 -31 -110 -53
t-152 -22zM526 865q0 -66 -39 -101.5t-111 -35.5q-70 0 -108.5 34.5t-38.5 98.5q10 5 22 7.5t23 1.5q6 -36 36 -57t75 -21t73 21t30 57q11 1 21 -0.5t17 -4.5z" />
    <glyph glyph-name="Gcaron" unicode="&#x1e6;" horiz-adv-x="731" 
d="M364 -9q-98 0 -172.5 44t-115.5 124t-41 188q0 84 29 147.5t78.5 105.5t111.5 63.5t128 21.5q72 0 134 -13t106 -34q-7 -35 -9 -73t-2 -82q-12 -4 -24.5 -6.5t-28.5 -2.5q-2 70 -25 106.5t-60 50t-83 13.5q-85 0 -140.5 -39t-82 -101.5t-26.5 -134.5q0 -91 27 -165.5
t81 -119t135 -44.5q30 0 53.5 3t47.5 13q17 8 25.5 22.5t8.5 52.5v50q0 46 -5.5 66.5t-24 26.5t-56.5 7q-3 8 -4.5 21t-1.5 25q19 -1 55 -2t67 -1t66 0.5t51 1.5q0 -9 -1 -22t-5 -23q-20 -1 -30 -7t-13.5 -27t-3.5 -66v-45q0 -21 2.5 -38t10.5 -32q-43 -31 -110 -53
t-152 -22zM355 731q-24 28 -57 60t-73 64q5 8 14 14t20 9q28 -16 61 -36t61 -33q14 7 40 20.5t52 28t41 23.5q8 -4 11.5 -15t4.5 -19q-34 -22 -72 -52t-68 -60q-8 -2 -17.5 -3t-17.5 -1z" />
    <glyph glyph-name="Gcircumflex" unicode="&#x11c;" horiz-adv-x="731" 
d="M364 -9q-98 0 -172.5 44t-115.5 124t-41 188q0 84 29 147.5t78.5 105.5t111.5 63.5t128 21.5q72 0 134 -13t106 -34q-7 -35 -9 -73t-2 -82q-12 -4 -24.5 -6.5t-28.5 -2.5q-2 70 -25 106.5t-60 50t-83 13.5q-85 0 -140.5 -39t-82 -101.5t-26.5 -134.5q0 -91 27 -165.5
t81 -119t135 -44.5q30 0 53.5 3t47.5 13q17 8 25.5 22.5t8.5 52.5v50q0 46 -5.5 66.5t-24 26.5t-56.5 7q-3 8 -4.5 21t-1.5 25q19 -1 55 -2t67 -1t66 0.5t51 1.5q0 -9 -1 -22t-5 -23q-20 -1 -30 -7t-13.5 -27t-3.5 -66v-45q0 -21 2.5 -38t10.5 -32q-43 -31 -110 -53
t-152 -22zM241 728q-8 5 -11.5 16t-4.5 18q34 22 72 52t68 60q8 2 18 3t17 1q24 -28 57 -60t73 -64q-5 -8 -14 -14t-20 -9q-28 17 -60.5 36.5t-61.5 32.5q-14 -6 -40 -20l-52 -28t-41 -24z" />
    <glyph glyph-name="uni0122" unicode="&#x122;" horiz-adv-x="731" 
d="M364 -9q-98 0 -172.5 44t-115.5 124t-41 188q0 84 29 147.5t78.5 105.5t111.5 63.5t128 21.5q72 0 134 -13t106 -34q-7 -35 -9 -73t-2 -82q-12 -4 -24.5 -6.5t-28.5 -2.5q-2 70 -25 106.5t-60 50t-83 13.5q-85 0 -140.5 -39t-82 -101.5t-26.5 -134.5q0 -91 27 -165.5
t81 -119t135 -44.5q30 0 53.5 3t47.5 13q17 8 25.5 22.5t8.5 52.5v50q0 46 -5.5 66.5t-24 26.5t-56.5 7q-3 8 -4.5 21t-1.5 25q19 -1 55 -2t67 -1t66 0.5t51 1.5q0 -9 -1 -22t-5 -23q-20 -1 -30 -7t-13.5 -27t-3.5 -66v-45q0 -21 2.5 -38t10.5 -32q-43 -31 -110 -53
t-152 -22zM398 -43q17 -7 25.5 -24.5t8.5 -42.5q0 -52 -32.5 -95t-74.5 -75q-20 4 -28 21q25 25 37.5 48.5t12.5 41.5q0 32 -37 36q-1 8 1.5 28t6.5 32q23 5 43.5 12.5t36.5 17.5z" />
    <glyph glyph-name="Gdotaccent" unicode="&#x120;" horiz-adv-x="731" 
d="M364 -9q-98 0 -172.5 44t-115.5 124t-41 188q0 84 29 147.5t78.5 105.5t111.5 63.5t128 21.5q72 0 134 -13t106 -34q-7 -35 -9 -73t-2 -82q-12 -4 -24.5 -6.5t-28.5 -2.5q-2 70 -25 106.5t-60 50t-83 13.5q-85 0 -140.5 -39t-82 -101.5t-26.5 -134.5q0 -91 27 -165.5
t81 -119t135 -44.5q30 0 53.5 3t47.5 13q17 8 25.5 22.5t8.5 52.5v50q0 46 -5.5 66.5t-24 26.5t-56.5 7q-3 8 -4.5 21t-1.5 25q19 -1 55 -2t67 -1t66 0.5t51 1.5q0 -9 -1 -22t-5 -23q-20 -1 -30 -7t-13.5 -27t-3.5 -66v-45q0 -21 2.5 -38t10.5 -32q-43 -31 -110 -53
t-152 -22zM377 720q-25 0 -42 17t-17 41q0 27 18 44t41 17q27 0 43.5 -17t16.5 -44q0 -23 -17.5 -40.5t-42.5 -17.5z" />
    <glyph glyph-name="uni1E20" unicode="&#x1e20;" horiz-adv-x="731" 
d="M364 -9q-98 0 -172.5 44t-115.5 124t-41 188q0 84 29 147.5t78.5 105.5t111.5 63.5t128 21.5q72 0 134 -13t106 -34q-7 -35 -9 -73t-2 -82q-12 -4 -24.5 -6.5t-28.5 -2.5q-2 70 -25 106.5t-60 50t-83 13.5q-85 0 -140.5 -39t-82 -101.5t-26.5 -134.5q0 -91 27 -165.5
t81 -119t135 -44.5q30 0 53.5 3t47.5 13q17 8 25.5 22.5t8.5 52.5v50q0 46 -5.5 66.5t-24 26.5t-56.5 7q-3 8 -4.5 21t-1.5 25q19 -1 55 -2t67 -1t66 0.5t51 1.5q0 -9 -1 -22t-5 -23q-20 -1 -30 -7t-13.5 -27t-3.5 -66v-45q0 -21 2.5 -38t10.5 -32q-43 -31 -110 -53
t-152 -22zM560 805q0 -10 -2 -21t-7 -22h-68t-126.5 -0.5t-160.5 -2.5q0 6 2.5 21.5t6.5 24.5h355z" />
    <glyph glyph-name="uni01E4" unicode="&#x1e4;" horiz-adv-x="731" 
d="M364 -9q-98 0 -172.5 44t-115.5 124t-41 188q0 84 29 147.5t78.5 105.5t111.5 63.5t128 21.5q72 0 134 -13t106 -34q-7 -35 -9 -73t-2 -82q-12 -4 -24.5 -6.5t-28.5 -2.5q-2 70 -25 106.5t-60 50t-83 13.5q-85 0 -140.5 -39t-82 -101.5t-26.5 -134.5q0 -91 27 -165.5
t81 -119t135 -44.5q30 0 53.5 3t47.5 13q17 8 25.5 22.5t8.5 52.5v50q0 46 -5.5 66.5t-24 26.5t-56.5 7q-3 8 -4.5 21t-1.5 25q19 -1 55 -2t67 -1t66 0.5t51 1.5q0 -9 -1 -22t-5 -23q-20 -1 -30 -7t-13.5 -27t-3.5 -66v-45q0 -21 2.5 -38t10.5 -32q-43 -31 -110 -53
t-152 -22zM371.001 141q0 11 3.15039 27.5t6.75 23.5h136.804h37.8008h144.904q0 -15 -1.7998 -27t-8.10059 -23q-25.2002 1 -46.3516 1h-42.3008h-48.1514h-36.9014h-45.001q-20.7002 0 -44.1006 -0.5q-23.4014 -0.5 -56.7021 -1.5z" />
    <glyph glyph-name="uni021C" unicode="&#x21c;" horiz-adv-x="586" 
d="M228 -171q-57 0 -97 13t-63 32q0 8 3 16.5t10 16.5q11 -9 50 -18.5t82 -9.5q65 0 113 26t75 74.5t27 115.5q0 83 -40.5 125t-111.5 42q-25 0 -51.5 -5.5t-50.5 -17.5q-7 12 -9.5 26t-2.5 26q95 24 145 55t68 68.5t18 80.5q0 72 -36 108.5t-100 36.5q-52 0 -82.5 -30
t-44.5 -108q-13 -1 -24.5 0.5t-25.5 5.5q2 31 2.5 63.5t-3.5 66.5q35 23 84 35t104 12q116 0 172.5 -50.5t56.5 -128.5q0 -46 -21 -85t-67 -71t-122 -58l15 16q58 4 110.5 -14t86 -63.5t33.5 -125.5q0 -82 -38 -144.5t-106.5 -97t-158.5 -34.5z" />
    <glyph glyph-name="H" unicode="H" horiz-adv-x="753" 
d="M455 -3q0 14 1 24.5t4 18.5q27 2 42 9.5t21 26t6 51.5v422q0 34 -6 52t-21 26t-42 9q-3 8 -4 19t-1 24q19 -1 38.5 -1.5t40.5 -1t42 -0.5q22 0 42 0.5t39.5 1t39.5 1.5q0 -13 -1 -24t-4 -19q-26 -1 -41.5 -9t-21.5 -26t-6 -52v-422q0 -33 6 -51.5t21.5 -26t41.5 -9.5
q3 -8 4 -18.5t1 -24.5q-30 2 -61 2.5t-60 0.5t-62 -0.5t-59 -2.5zM56 -3q0 14 1 24.5t4 18.5q27 2 42 9.5t21 26t6 51.5v422q0 34 -6 52t-21 26t-42 9q-3 8 -4 19t-1 24q19 -1 38.5 -1.5t40.5 -1t42 -0.5q22 0 42 0.5t39.5 1t39.5 1.5q0 -13 -1 -24t-4 -19q-26 -1 -41.5 -9
t-21.5 -26t-6 -52v-422q0 -33 6 -51.5t21.5 -26t41.5 -9.5q3 -8 4 -18.5t1 -24.5q-30 2 -61 2.5t-60 0.5t-62 -0.5t-59 -2.5zM219 319v49h315v-43h-70t-87.5 -0.5t-87 -2t-70.5 -3.5z" />
    <glyph glyph-name="Hbar" unicode="&#x126;" horiz-adv-x="753" 
d="M455 -3q0 14 1 24.5t4 18.5q27 2 42 9.5t21 26t6 51.5v422q0 34 -6 52t-21 26t-42 9q-3 8 -4 19t-1 24q19 -1 38.5 -1.5t40.5 -1t42 -0.5q22 0 42 0.5t39.5 1t39.5 1.5q0 -13 -1 -24t-4 -19q-26 -1 -41.5 -9t-21.5 -26t-6 -52v-422q0 -33 6 -51.5t21.5 -26t41.5 -9.5
q3 -8 4 -18.5t1 -24.5q-30 2 -61 2.5t-60 0.5t-62 -0.5t-59 -2.5zM56 -3q0 14 1 24.5t4 18.5q27 2 42 9.5t21 26t6 51.5v422q0 34 -6 52t-21 26t-42 9q-3 8 -4 19t-1 24q19 -1 38.5 -1.5t40.5 -1t42 -0.5q22 0 42 0.5t39.5 1t39.5 1.5q0 -13 -1 -24t-4 -19q-26 -1 -41.5 -9
t-21.5 -26t-6 -52v-422q0 -33 6 -51.5t21.5 -26t41.5 -9.5q3 -8 4 -18.5t1 -24.5q-30 2 -61 2.5t-60 0.5t-62 -0.5t-59 -2.5zM219 319v49h315v-43h-70t-87.5 -0.5t-87 -2t-70.5 -3.5zM65 457q0 6 2.5 21.5t6.5 24.5h614q0 -10 -2 -21t-7 -22h-44h-91t-120 -0.5t-131.5 -0.5
t-125.5 -0.5t-102 -1.5z" />
    <glyph glyph-name="uni1E2A" unicode="&#x1e2a;" horiz-adv-x="753" 
d="M455 -3q0 14 1 24.5t4 18.5q27 2 42 9.5t21 26t6 51.5v422q0 34 -6 52t-21 26t-42 9q-3 8 -4 19t-1 24q19 -1 38.5 -1.5t40.5 -1t42 -0.5q22 0 42 0.5t39.5 1t39.5 1.5q0 -13 -1 -24t-4 -19q-26 -1 -41.5 -9t-21.5 -26t-6 -52v-422q0 -33 6 -51.5t21.5 -26t41.5 -9.5
q3 -8 4 -18.5t1 -24.5q-30 2 -61 2.5t-60 0.5t-62 -0.5t-59 -2.5zM56 -3q0 14 1 24.5t4 18.5q27 2 42 9.5t21 26t6 51.5v422q0 34 -6 52t-21 26t-42 9q-3 8 -4 19t-1 24q19 -1 38.5 -1.5t40.5 -1t42 -0.5q22 0 42 0.5t39.5 1t39.5 1.5q0 -13 -1 -24t-4 -19q-26 -1 -41.5 -9
t-21.5 -26t-6 -52v-422q0 -33 6 -51.5t21.5 -26t41.5 -9.5q3 -8 4 -18.5t1 -24.5q-30 2 -61 2.5t-60 0.5t-62 -0.5t-59 -2.5zM219 319v49h315v-43h-70t-87.5 -0.5t-87 -2t-70.5 -3.5zM525 -55q0 -66 -39 -101.5t-111 -35.5q-70 0 -108.5 34.5t-38.5 98.5q10 5 22 7.5t23 1.5
q6 -36 36 -57t75 -21t73 21t30 57q11 1 21 -0.5t17 -4.5z" />
    <glyph glyph-name="uni021E" unicode="&#x21e;" horiz-adv-x="753" 
d="M455 -3q0 14 1 24.5t4 18.5q27 2 42 9.5t21 26t6 51.5v422q0 34 -6 52t-21 26t-42 9q-3 8 -4 19t-1 24q19 -1 38.5 -1.5t40.5 -1t42 -0.5q22 0 42 0.5t39.5 1t39.5 1.5q0 -13 -1 -24t-4 -19q-26 -1 -41.5 -9t-21.5 -26t-6 -52v-422q0 -33 6 -51.5t21.5 -26t41.5 -9.5
q3 -8 4 -18.5t1 -24.5q-30 2 -61 2.5t-60 0.5t-62 -0.5t-59 -2.5zM56 -3q0 14 1 24.5t4 18.5q27 2 42 9.5t21 26t6 51.5v422q0 34 -6 52t-21 26t-42 9q-3 8 -4 19t-1 24q19 -1 38.5 -1.5t40.5 -1t42 -0.5q22 0 42 0.5t39.5 1t39.5 1.5q0 -13 -1 -24t-4 -19q-26 -1 -41.5 -9
t-21.5 -26t-6 -52v-422q0 -33 6 -51.5t21.5 -26t41.5 -9.5q3 -8 4 -18.5t1 -24.5q-30 2 -61 2.5t-60 0.5t-62 -0.5t-59 -2.5zM219 319v49h315v-43h-70t-87.5 -0.5t-87 -2t-70.5 -3.5zM354 731q-24 28 -57 60t-73 64q5 8 14 14t20 9q28 -16 61 -36t61 -33q14 7 40 20.5t52 28
t41 23.5q8 -4 11.5 -15t4.5 -19q-34 -22 -72 -52t-68 -60q-8 -2 -17.5 -3t-17.5 -1z" />
    <glyph glyph-name="Hcircumflex" unicode="&#x124;" horiz-adv-x="753" 
d="M455 -3q0 14 1 24.5t4 18.5q27 2 42 9.5t21 26t6 51.5v422q0 34 -6 52t-21 26t-42 9q-3 8 -4 19t-1 24q19 -1 38.5 -1.5t40.5 -1t42 -0.5q22 0 42 0.5t39.5 1t39.5 1.5q0 -13 -1 -24t-4 -19q-26 -1 -41.5 -9t-21.5 -26t-6 -52v-422q0 -33 6 -51.5t21.5 -26t41.5 -9.5
q3 -8 4 -18.5t1 -24.5q-30 2 -61 2.5t-60 0.5t-62 -0.5t-59 -2.5zM56 -3q0 14 1 24.5t4 18.5q27 2 42 9.5t21 26t6 51.5v422q0 34 -6 52t-21 26t-42 9q-3 8 -4 19t-1 24q19 -1 38.5 -1.5t40.5 -1t42 -0.5q22 0 42 0.5t39.5 1t39.5 1.5q0 -13 -1 -24t-4 -19q-26 -1 -41.5 -9
t-21.5 -26t-6 -52v-422q0 -33 6 -51.5t21.5 -26t41.5 -9.5q3 -8 4 -18.5t1 -24.5q-30 2 -61 2.5t-60 0.5t-62 -0.5t-59 -2.5zM219 319v49h315v-43h-70t-87.5 -0.5t-87 -2t-70.5 -3.5zM240 728q-8 5 -11.5 16t-4.5 18q34 22 72 52t68 60q8 2 18 3t17 1q24 -28 57 -60t73 -64
q-5 -8 -14 -14t-20 -9q-28 17 -60.5 36.5t-61.5 32.5q-14 -6 -40 -20l-52 -28t-41 -24z" />
    <glyph glyph-name="uni1E24" unicode="&#x1e24;" horiz-adv-x="753" 
d="M455 -3q0 14 1 24.5t4 18.5q27 2 42 9.5t21 26t6 51.5v422q0 34 -6 52t-21 26t-42 9q-3 8 -4 19t-1 24q19 -1 38.5 -1.5t40.5 -1t42 -0.5q22 0 42 0.5t39.5 1t39.5 1.5q0 -13 -1 -24t-4 -19q-26 -1 -41.5 -9t-21.5 -26t-6 -52v-422q0 -33 6 -51.5t21.5 -26t41.5 -9.5
q3 -8 4 -18.5t1 -24.5q-30 2 -61 2.5t-60 0.5t-62 -0.5t-59 -2.5zM56 -3q0 14 1 24.5t4 18.5q27 2 42 9.5t21 26t6 51.5v422q0 34 -6 52t-21 26t-42 9q-3 8 -4 19t-1 24q19 -1 38.5 -1.5t40.5 -1t42 -0.5q22 0 42 0.5t39.5 1t39.5 1.5q0 -13 -1 -24t-4 -19q-26 -1 -41.5 -9
t-21.5 -26t-6 -52v-422q0 -33 6 -51.5t21.5 -26t41.5 -9.5q3 -8 4 -18.5t1 -24.5q-30 2 -61 2.5t-60 0.5t-62 -0.5t-59 -2.5zM219 319v49h315v-43h-70t-87.5 -0.5t-87 -2t-70.5 -3.5zM376 -210q-25 0 -42 17t-17 41q0 27 18 44t41 17q27 0 43.5 -17t16.5 -44
q0 -23 -17.5 -40.5t-42.5 -17.5z" />
    <glyph glyph-name="I" unicode="I" horiz-adv-x="354" 
d="M130 549q0 34 -6 52t-21 26t-42 9q-3 8 -4 19t-1 24q19 -1 38.5 -1.5t40.5 -1t42 -0.5q22 0 42 0.5t39.5 1t39.5 1.5q0 -13 -1 -24t-4 -19q-26 -1 -41.5 -9t-21.5 -26t-6 -52v-422q0 -33 6 -51.5t21.5 -26t41.5 -9.5q3 -8 4 -18.5t1 -24.5q-30 2 -61 2.5t-60 0.5
t-62 -0.5t-59 -2.5q0 14 1 24.5t4 18.5q27 2 42 9.5t21 26t6 51.5v422z" />
    <glyph glyph-name="IJ" unicode="&#x132;" horiz-adv-x="604" 
d="M130 549q0 34 -6 52t-21 26t-42 9q-3 8 -4 19t-1 24q19 -1 38.5 -1.5t40.5 -1t42 -0.5q22 0 42 0.5t39.5 1t39.5 1.5q0 -13 -1 -24t-4 -19q-26 -1 -41.5 -9t-21.5 -26t-6 -52v-422q0 -33 6 -51.5t21.5 -26t41.5 -9.5q3 -8 4 -18.5t1 -24.5q-30 2 -61 2.5t-60 0.5
t-62 -0.5t-59 -2.5q0 14 1 24.5t4 18.5q27 2 42 9.5t21 26t6 51.5v422zM489 125q0 -70 -6.5 -124t-26.5 -97.5t-58.5 -80.5t-102.5 -72q-7 4 -11 11t-6 15q38 32 64 67t39.5 81t13.5 109v515q0 34 -6 52t-21 26t-42 9q-3 8 -4 19t-1 24q15 -1 34.5 -1.5t42 -1t44.5 -0.5
q33 0 68 1t53 2q0 -13 -1 -24t-4 -19q-25 -1 -40.5 -9t-22 -26t-6.5 -52v-424z" />
    <glyph glyph-name="Iacute" unicode="&#xcd;" horiz-adv-x="354" 
d="M130 549q0 34 -6 52t-21 26t-42 9q-3 8 -4 19t-1 24q19 -1 38.5 -1.5t40.5 -1t42 -0.5q22 0 42 0.5t39.5 1t39.5 1.5q0 -13 -1 -24t-4 -19q-26 -1 -41.5 -9t-21.5 -26t-6 -52v-422q0 -33 6 -51.5t21.5 -26t41.5 -9.5q3 -8 4 -18.5t1 -24.5q-30 2 -61 2.5t-60 0.5
t-62 -0.5t-59 -2.5q0 14 1 24.5t4 18.5q27 2 42 9.5t21 26t6 51.5v422zM184 732q-13 0 -22 0.5t-18 4.5q17 35 31.5 69t24.5 65q12 3 24 5t24 2q26 0 47 -8q-27 -32 -53.5 -65t-57.5 -73z" />
    <glyph glyph-name="Ibreve" unicode="&#x12c;" horiz-adv-x="354" 
d="M130 549q0 34 -6 52t-21 26t-42 9q-3 8 -4 19t-1 24q19 -1 38.5 -1.5t40.5 -1t42 -0.5q22 0 42 0.5t39.5 1t39.5 1.5q0 -13 -1 -24t-4 -19q-26 -1 -41.5 -9t-21.5 -26t-6 -52v-422q0 -33 6 -51.5t21.5 -26t41.5 -9.5q3 -8 4 -18.5t1 -24.5q-30 2 -61 2.5t-60 0.5
t-62 -0.5t-59 -2.5q0 14 1 24.5t4 18.5q27 2 42 9.5t21 26t6 51.5v422zM175 716q-67 0 -101 37t-34 105q9 5 19.5 7.5t20.5 1.5q8 -40 33.5 -63.5t68.5 -23.5q44 0 69.5 23.5t28.5 63.5q11 1 20 -0.5t13 -4.5q0 -70 -34.5 -108t-103.5 -38z" />
    <glyph glyph-name="uni01CF" unicode="&#x1cf;" horiz-adv-x="354" 
d="M130 549q0 34 -6 52t-21 26t-42 9q-3 8 -4 19t-1 24q19 -1 38.5 -1.5t40.5 -1t42 -0.5q22 0 42 0.5t39.5 1t39.5 1.5q0 -13 -1 -24t-4 -19q-26 -1 -41.5 -9t-21.5 -26t-6 -52v-422q0 -33 6 -51.5t21.5 -26t41.5 -9.5q3 -8 4 -18.5t1 -24.5q-30 2 -61 2.5t-60 0.5
t-62 -0.5t-59 -2.5q0 14 1 24.5t4 18.5q27 2 42 9.5t21 26t6 51.5v422zM157 709q-24 33 -52 68.5t-59 72.5q5 7 15.5 12t20.5 7q24 -22 51.5 -43.5t51.5 -38.5q28 20 52.5 42t46.5 43q21 -12 24 -34q-30 -28 -60 -60t-57 -64q-13 -3 -20.5 -4t-13.5 -1z" />
    <glyph glyph-name="Icircumflex" unicode="&#xce;" horiz-adv-x="354" 
d="M130 549q0 34 -6 52t-21 26t-42 9q-3 8 -4 19t-1 24q19 -1 38.5 -1.5t40.5 -1t42 -0.5q22 0 42 0.5t39.5 1t39.5 1.5q0 -13 -1 -24t-4 -19q-26 -1 -41.5 -9t-21.5 -26t-6 -52v-422q0 -33 6 -51.5t21.5 -26t41.5 -9.5q3 -8 4 -18.5t1 -24.5q-30 2 -61 2.5t-60 0.5
t-62 -0.5t-59 -2.5q0 14 1 24.5t4 18.5q27 2 42 9.5t21 26t6 51.5v422zM70 710q-10 5 -16 14t-8 20q30 27 60 59.5t57 64.5q13 2 20.5 3.5t13.5 1.5q24 -33 52 -68t59 -73q-5 -7 -15.5 -12t-20.5 -7q-24 22 -51.5 43.5t-51.5 37.5q-28 -20 -52.5 -41.5t-46.5 -42.5z" />
    <glyph glyph-name="uni0208" unicode="&#x208;" horiz-adv-x="354" 
d="M130 549q0 34 -6 52t-21 26t-42 9q-3 8 -4 19t-1 24q19 -1 38.5 -1.5t40.5 -1t42 -0.5q22 0 42 0.5t39.5 1t39.5 1.5q0 -13 -1 -24t-4 -19q-26 -1 -41.5 -9t-21.5 -26t-6 -52v-422q0 -33 6 -51.5t21.5 -26t41.5 -9.5q3 -8 4 -18.5t1 -24.5q-30 2 -61 2.5t-60 0.5
t-62 -0.5t-59 -2.5q0 14 1 24.5t4 18.5q27 2 42 9.5t21 26t6 51.5v422zM96 722q-28 40 -52 70.5t-49 57.5q17 9 41.5 11.5t48.5 0.5q11 -31 23 -65.5t28 -69.5q-9 -4 -18 -4.5t-22 -0.5zM237 722q-28 40 -51.5 70.5t-47.5 57.5q17 9 41 11.5t47 0.5q11 -31 23 -65.5
t28 -69.5q-9 -4 -18 -4.5t-22 -0.5z" />
    <glyph glyph-name="Idieresis" unicode="&#xcf;" horiz-adv-x="354" 
d="M130 549q0 34 -6 52t-21 26t-42 9q-3 8 -4 19t-1 24q19 -1 38.5 -1.5t40.5 -1t42 -0.5q22 0 42 0.5t39.5 1t39.5 1.5q0 -13 -1 -24t-4 -19q-26 -1 -41.5 -9t-21.5 -26t-6 -52v-422q0 -33 6 -51.5t21.5 -26t41.5 -9.5q3 -8 4 -18.5t1 -24.5q-30 2 -61 2.5t-60 0.5
t-62 -0.5t-59 -2.5q0 14 1 24.5t4 18.5q27 2 42 9.5t21 26t6 51.5v422zM100 737q-25 0 -41 14t-16 34q0 21 13 37.5t42 16.5q30 0 43.5 -15t13.5 -37t-16 -36t-39 -14zM256 738q-29 0 -44 15t-15 38t15.5 35.5t40.5 12.5t41 -13.5t16 -34.5q0 -20 -12 -36.5t-42 -16.5z" />
    <glyph glyph-name="uni1E2E" unicode="&#x1e2e;" horiz-adv-x="354" 
d="M130 549q0 34 -6 52t-21 26t-42 9q-3 8 -4 19t-1 24q19 -1 38.5 -1.5t40.5 -1t42 -0.5q22 0 42 0.5t39.5 1t39.5 1.5q0 -13 -1 -24t-4 -19q-26 -1 -41.5 -9t-21.5 -26t-6 -52v-422q0 -33 6 -51.5t21.5 -26t41.5 -9.5q3 -8 4 -18.5t1 -24.5q-30 2 -61 2.5t-60 0.5
t-62 -0.5t-59 -2.5q0 14 1 24.5t4 18.5q27 2 42 9.5t21 26t6 51.5v422zM100 737q-25 0 -41 14t-16 34q0 21 13 37.5t42 16.5q30 0 43.5 -15t13.5 -37t-16 -36t-39 -14zM256 738q-29 0 -44 15t-15 38t15.5 35.5t40.5 12.5t41 -13.5t16 -34.5q0 -20 -12 -36.5t-42 -16.5z
M184 874q-13 0 -22 0.5t-18 4.5q17 35 31.5 69t24.5 65q12 3 24 5t24 2q26 0 47 -8q-27 -32 -53.5 -65t-57.5 -73z" />
    <glyph glyph-name="Idotaccent" unicode="&#x130;" horiz-adv-x="354" 
d="M130 549q0 34 -6 52t-21 26t-42 9q-3 8 -4 19t-1 24q19 -1 38.5 -1.5t40.5 -1t42 -0.5q22 0 42 0.5t39.5 1t39.5 1.5q0 -13 -1 -24t-4 -19q-26 -1 -41.5 -9t-21.5 -26t-6 -52v-422q0 -33 6 -51.5t21.5 -26t41.5 -9.5q3 -8 4 -18.5t1 -24.5q-30 2 -61 2.5t-60 0.5
t-62 -0.5t-59 -2.5q0 14 1 24.5t4 18.5q27 2 42 9.5t21 26t6 51.5v422zM176 720q-25 0 -42 17t-17 41q0 27 18 44t41 17q27 0 43.5 -17t16.5 -44q0 -23 -17.5 -40.5t-42.5 -17.5z" />
    <glyph glyph-name="uni1ECA" unicode="&#x1eca;" horiz-adv-x="354" 
d="M130 549q0 34 -6 52t-21 26t-42 9q-3 8 -4 19t-1 24q19 -1 38.5 -1.5t40.5 -1t42 -0.5q22 0 42 0.5t39.5 1t39.5 1.5q0 -13 -1 -24t-4 -19q-26 -1 -41.5 -9t-21.5 -26t-6 -52v-422q0 -33 6 -51.5t21.5 -26t41.5 -9.5q3 -8 4 -18.5t1 -24.5q-30 2 -61 2.5t-60 0.5
t-62 -0.5t-59 -2.5q0 14 1 24.5t4 18.5q27 2 42 9.5t21 26t6 51.5v422zM176 -210q-25 0 -42 17t-17 41q0 27 18 44t41 17q27 0 43.5 -17t16.5 -44q0 -23 -17.5 -40.5t-42.5 -17.5z" />
    <glyph glyph-name="Igrave" unicode="&#xcc;" horiz-adv-x="354" 
d="M130 549q0 34 -6 52t-21 26t-42 9q-3 8 -4 19t-1 24q19 -1 38.5 -1.5t40.5 -1t42 -0.5q22 0 42 0.5t39.5 1t39.5 1.5q0 -13 -1 -24t-4 -19q-26 -1 -41.5 -9t-21.5 -26t-6 -52v-422q0 -33 6 -51.5t21.5 -26t41.5 -9.5q3 -8 4 -18.5t1 -24.5q-30 2 -61 2.5t-60 0.5
t-62 -0.5t-59 -2.5q0 14 1 24.5t4 18.5q27 2 42 9.5t21 26t6 51.5v422zM170 732q-31 40 -57.5 70.5t-53.5 57.5q17 9 41.5 11.5t48.5 0.5q13 -31 27.5 -65.5t33.5 -69.5q-9 -4 -18 -4.5t-22 -0.5z" />
    <glyph glyph-name="uni1EC8" unicode="&#x1ec8;" horiz-adv-x="354" 
d="M130 549q0 34 -6 52t-21 26t-42 9q-3 8 -4 19t-1 24q19 -1 38.5 -1.5t40.5 -1t42 -0.5q22 0 42 0.5t39.5 1t39.5 1.5q0 -13 -1 -24t-4 -19q-26 -1 -41.5 -9t-21.5 -26t-6 -52v-422q0 -33 6 -51.5t21.5 -26t41.5 -9.5q3 -8 4 -18.5t1 -24.5q-30 2 -61 2.5t-60 0.5
t-62 -0.5t-59 -2.5q0 14 1 24.5t4 18.5q27 2 42 9.5t21 26t6 51.5v422zM157 726q-13 16 -13 31q0 16 9.5 25.5t22 17t22 15t9.5 19.5q0 10 -8 15t-22 5q-22 0 -33.5 -13t-15.5 -45q-12 0 -25.5 2.5t-21.5 6.5q2 17 2.5 28.5t-2.5 26.5q16 12 39 22t61 10q40 0 66 -14t26 -42
q0 -19 -12 -32t-27 -22t-27 -17.5t-12 -20.5q0 -5 2 -13q-10 -3 -19.5 -4t-20.5 -1z" />
    <glyph glyph-name="uni020A" unicode="&#x20a;" horiz-adv-x="354" 
d="M130 549q0 34 -6 52t-21 26t-42 9q-3 8 -4 19t-1 24q19 -1 38.5 -1.5t40.5 -1t42 -0.5q22 0 42 0.5t39.5 1t39.5 1.5q0 -13 -1 -24t-4 -19q-26 -1 -41.5 -9t-21.5 -26t-6 -52v-422q0 -33 6 -51.5t21.5 -26t41.5 -9.5q3 -8 4 -18.5t1 -24.5q-30 2 -61 2.5t-60 0.5
t-62 -0.5t-59 -2.5q0 14 1 24.5t4 18.5q27 2 42 9.5t21 26t6 51.5v422zM178 867q67 0 101 -37t34 -105q-9 -5 -19.5 -7.5t-20.5 -1.5q-8 40 -33.5 63.5t-68.5 23.5q-44 0 -69.5 -23.5t-28.5 -63.5q-11 -1 -20 0.5t-13 4.5q0 70 34.5 108t103.5 38z" />
    <glyph glyph-name="Imacron" unicode="&#x12a;" horiz-adv-x="354" 
d="M130 549q0 34 -6 52t-21 26t-42 9q-3 8 -4 19t-1 24q19 -1 38.5 -1.5t40.5 -1t42 -0.5q22 0 42 0.5t39.5 1t39.5 1.5q0 -13 -1 -24t-4 -19q-26 -1 -41.5 -9t-21.5 -26t-6 -52v-422q0 -33 6 -51.5t21.5 -26t41.5 -9.5q3 -8 4 -18.5t1 -24.5q-30 2 -61 2.5t-60 0.5
t-62 -0.5t-59 -2.5q0 14 1 24.5t4 18.5q27 2 42 9.5t21 26t6 51.5v422zM45 756q0 9 2.5 25t6.5 24h255q0 -9 -2 -20.5t-7 -24.5q-28 0 -96.5 -0.5t-158.5 -3.5z" />
    <glyph glyph-name="Iogonek" unicode="&#x12e;" horiz-adv-x="354" 
d="M192 20l23 -20q-31 -24 -47.5 -50.5t-16.5 -55.5q0 -28 16.5 -42.5t46.5 -14.5q9 0 20 2t22 6q3 -5 4.5 -11t2.5 -13t0 -15q-19 -10 -37.5 -23t-36.5 -30q-4 -1 -9 -1.5t-10 -0.5q-16 0 -39 8t-40.5 29.5t-17.5 60.5q0 44 28.5 86t90.5 85zM130 549q0 34 -6 52t-21 26
t-42 9q-3 8 -4 19t-1 24q19 -1 38.5 -1.5t40.5 -1t42 -0.5q22 0 42 0.5t39.5 1t39.5 1.5q0 -13 -1 -24t-4 -19q-26 -1 -41.5 -9t-21.5 -26t-6 -52v-422q0 -33 6 -51.5t21.5 -26t41.5 -9.5q3 -8 4 -18.5t1 -24.5q-30 2 -61 2.5t-60 0.5t-62 -0.5t-59 -2.5q0 14 1 24.5t4 18.5
q27 2 42 9.5t21 26t6 51.5v422z" />
    <glyph glyph-name="Itilde" unicode="&#x128;" horiz-adv-x="354" 
d="M130 549q0 34 -6 52t-21 26t-42 9q-3 8 -4 19t-1 24q19 -1 38.5 -1.5t40.5 -1t42 -0.5q22 0 42 0.5t39.5 1t39.5 1.5q0 -13 -1 -24t-4 -19q-26 -1 -41.5 -9t-21.5 -26t-6 -52v-422q0 -33 6 -51.5t21.5 -26t41.5 -9.5q3 -8 4 -18.5t1 -24.5q-30 2 -61 2.5t-60 0.5
t-62 -0.5t-59 -2.5q0 14 1 24.5t4 18.5q27 2 42 9.5t21 26t6 51.5v422zM229 733q-28 0 -43 9.5t-27.5 18.5t-34.5 9q-19 0 -37.5 -9t-38.5 -25q-14 9 -16 24q26 47 53.5 64t52.5 17q24 0 38.5 -8.5t28.5 -17t34 -8.5q13 0 29 6t29 21q17 -4 24 -14q-15 -48 -38 -67.5
t-54 -19.5z" />
    <glyph glyph-name="J" unicode="J" horiz-adv-x="329" 
d="M214 125q0 -70 -6.5 -124t-26.5 -97.5t-58.5 -80.5t-102.5 -72q-7 4 -11 11t-6 15q38 32 64 67t39.5 81t13.5 109v515q0 34 -6 52t-21 26t-42 9q-3 8 -4 19t-1 24q15 -1 34.5 -1.5t42 -1t44.5 -0.5q33 0 68 1t53 2q0 -13 -1 -24t-4 -19q-25 -1 -40.5 -9t-22 -26t-6.5 -52
v-424z" />
    <glyph glyph-name="uni00A40301" horiz-adv-x="329" 
d="M214 125q0 -70 -6.5 -124t-26.5 -97.5t-58.5 -80.5t-102.5 -72q-7 4 -11 11t-6 15q38 32 64 67t39.5 81t13.5 109v515q0 34 -6 52t-21 26t-42 9q-3 8 -4 19t-1 24q15 -1 34.5 -1.5t42 -1t44.5 -0.5q33 0 68 1t53 2q0 -13 -1 -24t-4 -19q-25 -1 -40.5 -9t-22 -26t-6.5 -52
v-424zM174 732q-13 0 -22 0.5t-18 4.5q17 35 31.5 69t24.5 65q12 3 24 5t24 2q26 0 47 -8q-27 -32 -53.5 -65t-57.5 -73z" />
    <glyph glyph-name="Jcircumflex" unicode="&#x134;" horiz-adv-x="329" 
d="M214 125q0 -70 -6.5 -124t-26.5 -97.5t-58.5 -80.5t-102.5 -72q-7 4 -11 11t-6 15q38 32 64 67t39.5 81t13.5 109v515q0 34 -6 52t-21 26t-42 9q-3 8 -4 19t-1 24q15 -1 34.5 -1.5t42 -1t44.5 -0.5q33 0 68 1t53 2q0 -13 -1 -24t-4 -19q-25 -1 -40.5 -9t-22 -26t-6.5 -52
v-424zM60 710q-10 5 -16 14t-8 20q30 27 60 59.5t57 64.5q13 2 20.5 3.5t13.5 1.5q24 -33 52 -68t59 -73q-5 -7 -15.5 -12t-20.5 -7q-24 22 -51.5 43.5t-51.5 37.5q-28 -20 -52.5 -41.5t-46.5 -42.5z" />
    <glyph glyph-name="K" unicode="K" horiz-adv-x="678" 
d="M492 -6q-18 29 -50 74.5t-72.5 96.5t-82.5 97t-78 77l204 214q37 38 37.5 59.5t-33.5 23.5q-3 10 -4 21t-1 22q17 -1 45 -2t58 -1q20 0 38.5 0.5t35 1t29.5 1.5q0 -10 -1 -22t-5 -21q-22 -1 -42.5 -8.5t-44 -25.5t-55.5 -53l-175 -186v24q42 -37 95.5 -101.5
t114.5 -143.5q25 -32 44 -53t43.5 -32t63.5 -14q0 -8 -1 -20t-4 -23h-39t-41 -1t-41 -2t-38 -3zM56 -3q0 14 1 24.5t4 18.5q27 2 42 9.5t21 26t6 51.5v422q0 34 -6 52t-21 26t-42 9q-3 8 -4 19t-1 24q19 -1 38.5 -1.5t40.5 -1t42 -0.5q22 0 42 0.5t39.5 1t39.5 1.5
q0 -13 -1 -24t-4 -19q-26 -1 -41.5 -9t-21.5 -26t-6 -52v-422q0 -33 6 -51.5t21.5 -26t41.5 -9.5q3 -8 4 -18.5t1 -24.5q-30 2 -61 2.5t-60 0.5t-62 -0.5t-59 -2.5z" />
    <glyph glyph-name="uni01E8" unicode="&#x1e8;" horiz-adv-x="678" 
d="M492 -6q-18 29 -50 74.5t-72.5 96.5t-82.5 97t-78 77l204 214q37 38 37.5 59.5t-33.5 23.5q-3 10 -4 21t-1 22q17 -1 45 -2t58 -1q20 0 38.5 0.5t35 1t29.5 1.5q0 -10 -1 -22t-5 -21q-22 -1 -42.5 -8.5t-44 -25.5t-55.5 -53l-175 -186v24q42 -37 95.5 -101.5
t114.5 -143.5q25 -32 44 -53t43.5 -32t63.5 -14q0 -8 -1 -20t-4 -23h-39t-41 -1t-41 -2t-38 -3zM56 -3q0 14 1 24.5t4 18.5q27 2 42 9.5t21 26t6 51.5v422q0 34 -6 52t-21 26t-42 9q-3 8 -4 19t-1 24q19 -1 38.5 -1.5t40.5 -1t42 -0.5q22 0 42 0.5t39.5 1t39.5 1.5
q0 -13 -1 -24t-4 -19q-26 -1 -41.5 -9t-21.5 -26t-6 -52v-422q0 -33 6 -51.5t21.5 -26t41.5 -9.5q3 -8 4 -18.5t1 -24.5q-30 2 -61 2.5t-60 0.5t-62 -0.5t-59 -2.5zM333 731q-24 28 -57 60t-73 64q5 8 14 14t20 9q28 -16 61 -36t61 -33q14 7 40 20.5t52 28t41 23.5
q8 -4 11.5 -15t4.5 -19q-34 -22 -72 -52t-68 -60q-8 -2 -17.5 -3t-17.5 -1z" />
    <glyph glyph-name="uni0136" unicode="&#x136;" horiz-adv-x="678" 
d="M492 -6q-18 29 -50 74.5t-72.5 96.5t-82.5 97t-78 77l204 214q37 38 37.5 59.5t-33.5 23.5q-3 10 -4 21t-1 22q17 -1 45 -2t58 -1q20 0 38.5 0.5t35 1t29.5 1.5q0 -10 -1 -22t-5 -21q-22 -1 -42.5 -8.5t-44 -25.5t-55.5 -53l-175 -186v24q42 -37 95.5 -101.5
t114.5 -143.5q25 -32 44 -53t43.5 -32t63.5 -14q0 -8 -1 -20t-4 -23h-39t-41 -1t-41 -2t-38 -3zM56 -3q0 14 1 24.5t4 18.5q27 2 42 9.5t21 26t6 51.5v422q0 34 -6 52t-21 26t-42 9q-3 8 -4 19t-1 24q19 -1 38.5 -1.5t40.5 -1t42 -0.5q22 0 42 0.5t39.5 1t39.5 1.5
q0 -13 -1 -24t-4 -19q-26 -1 -41.5 -9t-21.5 -26t-6 -52v-422q0 -33 6 -51.5t21.5 -26t41.5 -9.5q3 -8 4 -18.5t1 -24.5q-30 2 -61 2.5t-60 0.5t-62 -0.5t-59 -2.5zM364 -43q17 -7 25.5 -24.5t8.5 -42.5q0 -52 -32.5 -95t-74.5 -75q-20 4 -28 21q25 25 37.5 48.5t12.5 41.5
q0 32 -37 36q-1 8 1.5 28t6.5 32q23 5 43.5 12.5t36.5 17.5z" />
    <glyph glyph-name="L" unicode="L" horiz-adv-x="560" 
d="M321 45q56 0 88 12t51.5 40t35.5 74q15 -4 25 -9.5t19 -14.5q-11 -34 -18.5 -74t-12.5 -75q-19 1 -50.5 1t-69 0.5t-74.5 0.5h-64.5t-74 -0.5t-69.5 -1t-51 -1.5q0 14 1 24.5t4 18.5q27 2 42 10t21.5 28.5t6.5 59.5v411q0 34 -6 52t-21 26t-42 9q-3 8 -4 19.5t-1 23.5
q20 -1 42.5 -1.5t43.5 -1t35 -0.5q22 0 42 0.5t39.5 1t39.5 1.5q0 -13 -1 -24t-4 -19q-26 -1 -41.5 -9t-21.5 -27t-6 -54v-408q0 -37 7 -57t26.5 -28t56.5 -8h6z" />
    <glyph glyph-name="uni01C7" unicode="&#x1c7;" horiz-adv-x="889" 
d="M321 45q56 0 88 12t51.5 40t35.5 74q15 -4 25 -9.5t19 -14.5q-11 -34 -18.5 -74t-12.5 -75q-19 1 -50.5 1t-69 0.5t-74.5 0.5h-64.5t-74 -0.5t-69.5 -1t-51 -1.5q0 14 1 24.5t4 18.5q27 2 42 10t21.5 28.5t6.5 59.5v411q0 34 -6 52t-21 26t-42 9q-3 8 -4 19.5t-1 23.5
q20 -1 42.5 -1.5t43.5 -1t35 -0.5q22 0 42 0.5t39.5 1t39.5 1.5q0 -13 -1 -24t-4 -19q-26 -1 -41.5 -9t-21.5 -27t-6 -54v-408q0 -37 7 -57t26.5 -28t56.5 -8h6zM774 125q0 -70 -6.5 -124t-26.5 -97.5t-58.5 -80.5t-102.5 -72q-7 4 -11 11t-6 15q38 32 64 67t39.5 81
t13.5 109v515q0 34 -6 52t-21 26t-42 9q-3 8 -4 19t-1 24q15 -1 34.5 -1.5t42 -1t44.5 -0.5q33 0 68 1t53 2q0 -13 -1 -24t-4 -19q-25 -1 -40.5 -9t-22 -26t-6.5 -52v-424z" />
    <glyph glyph-name="Lacute" unicode="&#x139;" horiz-adv-x="560" 
d="M321 45q56 0 88 12t51.5 40t35.5 74q15 -4 25 -9.5t19 -14.5q-11 -34 -18.5 -74t-12.5 -75q-19 1 -50.5 1t-69 0.5t-74.5 0.5h-64.5t-74 -0.5t-69.5 -1t-51 -1.5q0 14 1 24.5t4 18.5q27 2 42 10t21.5 28.5t6.5 59.5v411q0 34 -6 52t-21 26t-42 9q-3 8 -4 19.5t-1 23.5
q20 -1 42.5 -1.5t43.5 -1t35 -0.5q22 0 42 0.5t39.5 1t39.5 1.5q0 -13 -1 -24t-4 -19q-26 -1 -41.5 -9t-21.5 -27t-6 -54v-408q0 -37 7 -57t26.5 -28t56.5 -8h6zM185 732q-13 0 -22 0.5t-18 4.5q17 35 31.5 69t24.5 65q12 3 24 5t24 2q26 0 47 -8q-27 -32 -53.5 -65
t-57.5 -73z" />
    <glyph glyph-name="Lcaron" unicode="&#x13d;" horiz-adv-x="560" 
d="M321 45q56 0 88 12t51.5 40t35.5 74q15 -4 25 -9.5t19 -14.5q-11 -34 -18.5 -74t-12.5 -75q-19 1 -50.5 1t-69 0.5t-74.5 0.5h-64.5t-74 -0.5t-69.5 -1t-51 -1.5q0 14 1 24.5t4 18.5q27 2 42 10t21.5 28.5t6.5 59.5v411q0 34 -6 52t-21 26t-42 9q-3 8 -4 19.5t-1 23.5
q20 -1 42.5 -1.5t43.5 -1t35 -0.5q22 0 42 0.5t39.5 1t39.5 1.5q0 -13 -1 -24t-4 -19q-26 -1 -41.5 -9t-21.5 -27t-6 -54v-408q0 -37 7 -57t26.5 -28t56.5 -8h6zM490 715q17 -7 25.5 -25t8.5 -47q0 -55 -19 -96t-55 -82q-10 0 -22 3.5t-18 9.5q26 35 32.5 53.5t6.5 43.5
q0 21 -11.5 34t-35.5 16q0 10 2 28.5t6 31.5q23 5 43.5 12.5t36.5 17.5z" />
    <glyph glyph-name="uni013B" unicode="&#x13b;" horiz-adv-x="560" 
d="M321 45q56 0 88 12t51.5 40t35.5 74q15 -4 25 -9.5t19 -14.5q-11 -34 -18.5 -74t-12.5 -75q-19 1 -50.5 1t-69 0.5t-74.5 0.5h-64.5t-74 -0.5t-69.5 -1t-51 -1.5q0 14 1 24.5t4 18.5q27 2 42 10t21.5 28.5t6.5 59.5v411q0 34 -6 52t-21 26t-42 9q-3 8 -4 19.5t-1 23.5
q20 -1 42.5 -1.5t43.5 -1t35 -0.5q22 0 42 0.5t39.5 1t39.5 1.5q0 -13 -1 -24t-4 -19q-26 -1 -41.5 -9t-21.5 -27t-6 -54v-408q0 -37 7 -57t26.5 -28t56.5 -8h6zM315 -43q17 -7 25.5 -24.5t8.5 -42.5q0 -52 -32.5 -95t-74.5 -75q-20 4 -28 21q25 25 37.5 48.5t12.5 41.5
q0 32 -37 36q-1 8 1.5 28t6.5 32q23 5 43.5 12.5t36.5 17.5z" />
    <glyph glyph-name="Ldot" unicode="&#x13f;" horiz-adv-x="560" 
d="M321 45q56 0 88 12t51.5 40t35.5 74q15 -4 25 -9.5t19 -14.5q-11 -34 -18.5 -74t-12.5 -75q-19 1 -50.5 1t-69 0.5t-74.5 0.5h-64.5t-74 -0.5t-69.5 -1t-51 -1.5q0 14 1 24.5t4 18.5q27 2 42 10t21.5 28.5t6.5 59.5v411q0 34 -6 52t-21 26t-42 9q-3 8 -4 19.5t-1 23.5
q20 -1 42.5 -1.5t43.5 -1t35 -0.5q22 0 42 0.5t39.5 1t39.5 1.5q0 -13 -1 -24t-4 -19q-26 -1 -41.5 -9t-21.5 -27t-6 -54v-408q0 -37 7 -57t26.5 -28t56.5 -8h6zM457 302q-27 0 -42 15t-15 38t17 40t44 17q26 0 40.5 -17.5t14.5 -34.5q0 -30 -18 -44t-41 -14z" />
    <glyph glyph-name="uni1E36" unicode="&#x1e36;" horiz-adv-x="560" 
d="M321 45q56 0 88 12t51.5 40t35.5 74q15 -4 25 -9.5t19 -14.5q-11 -34 -18.5 -74t-12.5 -75q-19 1 -50.5 1t-69 0.5t-74.5 0.5h-64.5t-74 -0.5t-69.5 -1t-51 -1.5q0 14 1 24.5t4 18.5q27 2 42 10t21.5 28.5t6.5 59.5v411q0 34 -6 52t-21 26t-42 9q-3 8 -4 19.5t-1 23.5
q20 -1 42.5 -1.5t43.5 -1t35 -0.5q22 0 42 0.5t39.5 1t39.5 1.5q0 -13 -1 -24t-4 -19q-26 -1 -41.5 -9t-21.5 -27t-6 -54v-408q0 -37 7 -57t26.5 -28t56.5 -8h6zM289 -210q-25 0 -42 17t-17 41q0 27 18 44t41 17q27 0 43.5 -17t16.5 -44q0 -23 -17.5 -40.5t-42.5 -17.5z" />
    <glyph glyph-name="uni01C8" unicode="&#x1c8;" horiz-adv-x="843" 
d="M321 45q56 0 88 12t51.5 40t35.5 74q15 -4 25 -9.5t19 -14.5q-11 -34 -18.5 -74t-12.5 -75q-19 1 -50.5 1t-69 0.5t-74.5 0.5h-64.5t-74 -0.5t-69.5 -1t-51 -1.5q0 14 1 24.5t4 18.5q27 2 42 10t21.5 28.5t6.5 59.5v411q0 34 -6 52t-21 26t-42 9q-3 8 -4 19.5t-1 23.5
q20 -1 42.5 -1.5t43.5 -1t35 -0.5q22 0 42 0.5t39.5 1t39.5 1.5q0 -13 -1 -24t-4 -19q-26 -1 -41.5 -9t-21.5 -27t-6 -54v-408q0 -37 7 -57t26.5 -28t56.5 -8h6zM595 -249q-7 4 -13.5 11t-8.5 17q39 44 60 79.5t29.5 73.5t8.5 87v306q0 24 -4.5 39.5t-20.5 23.5t-50 8
q0 11 2 20t7 17q15 0 42.5 5t53.5 13t38 16q9 -3 15.5 -12t6.5 -28v-394q0 -54 -14.5 -98.5t-38.5 -79.5t-53.5 -61t-59.5 -43zM708 580q-25 0 -42 17t-17 41q0 27 18 44t41 17q27 0 43.5 -17t16.5 -44q0 -23 -17.5 -40.5t-42.5 -17.5z" />
    <glyph glyph-name="uni1E3A" unicode="&#x1e3a;" horiz-adv-x="560" 
d="M321 45q56 0 88 12t51.5 40t35.5 74q15 -4 25 -9.5t19 -14.5q-11 -34 -18.5 -74t-12.5 -75q-19 1 -50.5 1t-69 0.5t-74.5 0.5h-64.5t-74 -0.5t-69.5 -1t-51 -1.5q0 14 1 24.5t4 18.5q27 2 42 10t21.5 28.5t6.5 59.5v411q0 34 -6 52t-21 26t-42 9q-3 8 -4 19.5t-1 23.5
q20 -1 42.5 -1.5t43.5 -1t35 -0.5q22 0 42 0.5t39.5 1t39.5 1.5q0 -13 -1 -24t-4 -19q-26 -1 -41.5 -9t-21.5 -27t-6 -54v-408q0 -37 7 -57t26.5 -28t56.5 -8h6zM108 -165q0 6 2.5 21.5t6.5 24.5h355q0 -10 -2 -21t-7 -22h-68t-126.5 -0.5t-160.5 -2.5z" />
    <glyph glyph-name="Lslash" unicode="&#x141;" horiz-adv-x="560" 
d="M321 45q56 0 88 12t51.5 40t35.5 74q15 -4 25 -9.5t19 -14.5q-11 -34 -18.5 -74t-12.5 -75q-19 1 -50.5 1t-69 0.5t-74.5 0.5h-64.5t-74 -0.5t-69.5 -1t-51 -1.5q0 14 1 24.5t4 18.5q27 2 42 10t21.5 28.5t6.5 59.5v411q0 34 -6 52t-21 26t-42 9q-3 8 -4 19.5t-1 23.5
q20 -1 42.5 -1.5t43.5 -1t35 -0.5q22 0 42 0.5t39.5 1t39.5 1.5q0 -13 -1 -24t-4 -19q-26 -1 -41.5 -9t-21.5 -27t-6 -54v-408q0 -37 7 -57t26.5 -28t56.5 -8h6zM178 287l6 64l126 89q8 -8 14 -22t7 -24zM50 212q-10 13 -15.5 26t-5.5 21l140 98l3 -59z" />
    <glyph glyph-name="M" unicode="M" horiz-adv-x="931" 
d="M437 -9l-241 524h10l-34 -339q-5 -53 -1 -81.5t20.5 -40t45.5 -14.5q3 -10 4 -23t1 -20q-24 2 -54.5 2.5t-52.5 0.5q-14 0 -32.5 -0.5t-36 -1t-31.5 -1.5q0 7 1 20t4 23q27 3 42.5 13.5t24.5 40.5t14 91l32 356q3 36 -2.5 56.5t-21 29.5t-43.5 9q-3 10 -4 22t-1 21
q10 -1 23 -1.5t27 -1t26 -0.5q13 0 25.5 0.5l25 1t25.5 1.5l262 -579h-22l228 579q12 -1 25 -1.5t26.5 -1t26.5 -0.5t25.5 0.5l25 1t25.5 1.5q0 -10 -1 -21t-4 -22q-35 0 -54.5 -20.5t-13.5 -80.5l36 -367q5 -49 13 -76t22.5 -38t37.5 -13q3 -10 4 -22t1 -22q-12 1 -27 1.5
t-31.5 1t-32 0.5h-29.5q-18 0 -40 -0.5t-43.5 -1t-38.5 -1.5q0 9 1.5 21t4.5 22q32 3 46.5 13t17 34t-2.5 68l-38 364h11l-216 -521q-9 -4 -19 -5.5t-22 -1.5z" />
    <glyph glyph-name="uni1E42" unicode="&#x1e42;" horiz-adv-x="931" 
d="M437 -9l-241 524h10l-34 -339q-5 -53 -1 -81.5t20.5 -40t45.5 -14.5q3 -10 4 -23t1 -20q-24 2 -54.5 2.5t-52.5 0.5q-14 0 -32.5 -0.5t-36 -1t-31.5 -1.5q0 7 1 20t4 23q27 3 42.5 13.5t24.5 40.5t14 91l32 356q3 36 -2.5 56.5t-21 29.5t-43.5 9q-3 10 -4 22t-1 21
q10 -1 23 -1.5t27 -1t26 -0.5q13 0 25.5 0.5l25 1t25.5 1.5l262 -579h-22l228 579q12 -1 25 -1.5t26.5 -1t26.5 -0.5t25.5 0.5l25 1t25.5 1.5q0 -10 -1 -21t-4 -22q-35 0 -54.5 -20.5t-13.5 -80.5l36 -367q5 -49 13 -76t22.5 -38t37.5 -13q3 -10 4 -22t1 -22q-12 1 -27 1.5
t-31.5 1t-32 0.5h-29.5q-18 0 -40 -0.5t-43.5 -1t-38.5 -1.5q0 9 1.5 21t4.5 22q32 3 46.5 13t17 34t-2.5 68l-38 364h11l-216 -521q-9 -4 -19 -5.5t-22 -1.5zM455 -210q-25 0 -42 17t-17 41q0 27 18 44t41 17q27 0 43.5 -17t16.5 -44q0 -23 -17.5 -40.5t-42.5 -17.5z" />
    <glyph glyph-name="N" unicode="N" horiz-adv-x="742" 
d="M594 -6l-468 611q-14 18 -27 23.5t-38 7.5q-3 11 -4 23t-1 20q10 -1 22.5 -1.5t26 -1t25.5 -0.5q19 0 36.5 1t30.5 2l399 -529zM56 -3q0 13 1 23.5t4 19.5q27 0 42 13t21 45.5t6 88.5v423h51v-423q0 -56 6 -88.5t21 -45.5t42 -13q3 -9 4 -19t1 -24q-15 1 -32.5 1.5
t-34.5 1t-32 0.5q-14 0 -33 -0.5t-36.5 -1t-30.5 -1.5zM594 -6l-8 100v400q0 55 -6 85.5t-21 43.5t-42 13q-3 17 -4 25.5t-1 17.5q15 -1 31 -1.5t32.5 -1t30.5 -0.5q21 0 48 1t47 2q0 -10 -1 -21t-4 -22q-22 0 -35 -13t-18.5 -43.5t-5.5 -85.5v-494q-8 -3 -20 -4.5t-23 -1.5
z" />
    <glyph glyph-name="uni01CA" unicode="&#x1ca;" horiz-adv-x="1071" 
d="M594 -6l-468 611q-14 18 -27 23.5t-38 7.5q-3 11 -4 23t-1 20q10 -1 22.5 -1.5t26 -1t25.5 -0.5q19 0 36.5 1t30.5 2l399 -529zM56 -3q0 13 1 23.5t4 19.5q27 0 42 13t21 45.5t6 88.5v423h51v-423q0 -56 6 -88.5t21 -45.5t42 -13q3 -9 4 -19t1 -24q-15 1 -32.5 1.5
t-34.5 1t-32 0.5q-14 0 -33 -0.5t-36.5 -1t-30.5 -1.5zM594 -6l-8 100v400q0 55 -6 85.5t-21 43.5t-42 13q-3 17 -4 25.5t-1 17.5q15 -1 31 -1.5t32.5 -1t30.5 -0.5q21 0 48 1t47 2q0 -10 -1 -21t-4 -22q-22 0 -35 -13t-18.5 -43.5t-5.5 -85.5v-494q-8 -3 -20 -4.5t-23 -1.5
zM956 125q0 -70 -6.5 -124t-26.5 -97.5t-58.5 -80.5t-102.5 -72q-7 4 -11 11t-6 15q38 32 64 67t39.5 81t13.5 109v515q0 34 -6 52t-21 26t-42 9q-3 8 -4 19t-1 24q15 -1 34.5 -1.5t42 -1t44.5 -0.5q33 0 68 1t53 2q0 -13 -1 -24t-4 -19q-25 -1 -40.5 -9t-22 -26t-6.5 -52
v-424z" />
    <glyph glyph-name="Nacute" unicode="&#x143;" horiz-adv-x="742" 
d="M594 -6l-468 611q-14 18 -27 23.5t-38 7.5q-3 11 -4 23t-1 20q10 -1 22.5 -1.5t26 -1t25.5 -0.5q19 0 36.5 1t30.5 2l399 -529zM56 -3q0 13 1 23.5t4 19.5q27 0 42 13t21 45.5t6 88.5v423h51v-423q0 -56 6 -88.5t21 -45.5t42 -13q3 -9 4 -19t1 -24q-15 1 -32.5 1.5
t-34.5 1t-32 0.5q-14 0 -33 -0.5t-36.5 -1t-30.5 -1.5zM594 -6l-8 100v400q0 55 -6 85.5t-21 43.5t-42 13q-3 17 -4 25.5t-1 17.5q15 -1 31 -1.5t32.5 -1t30.5 -0.5q21 0 48 1t47 2q0 -10 -1 -21t-4 -22q-22 0 -35 -13t-18.5 -43.5t-5.5 -85.5v-494q-8 -3 -20 -4.5t-23 -1.5
zM383 732q-13 0 -22 0.5t-18 4.5q17 35 31.5 69t24.5 65q12 3 24 5t24 2q26 0 47 -8q-27 -32 -53.5 -65t-57.5 -73z" />
    <glyph glyph-name="Ncaron" unicode="&#x147;" horiz-adv-x="742" 
d="M594 -6l-468 611q-14 18 -27 23.5t-38 7.5q-3 11 -4 23t-1 20q10 -1 22.5 -1.5t26 -1t25.5 -0.5q19 0 36.5 1t30.5 2l399 -529zM56 -3q0 13 1 23.5t4 19.5q27 0 42 13t21 45.5t6 88.5v423h51v-423q0 -56 6 -88.5t21 -45.5t42 -13q3 -9 4 -19t1 -24q-15 1 -32.5 1.5
t-34.5 1t-32 0.5q-14 0 -33 -0.5t-36.5 -1t-30.5 -1.5zM594 -6l-8 100v400q0 55 -6 85.5t-21 43.5t-42 13q-3 17 -4 25.5t-1 17.5q15 -1 31 -1.5t32.5 -1t30.5 -0.5q21 0 48 1t47 2q0 -10 -1 -21t-4 -22q-22 0 -35 -13t-18.5 -43.5t-5.5 -85.5v-494q-8 -3 -20 -4.5t-23 -1.5
zM353 731q-24 28 -57 60t-73 64q5 8 14 14t20 9q28 -16 61 -36t61 -33q14 7 40 20.5t52 28t41 23.5q8 -4 11.5 -15t4.5 -19q-34 -22 -72 -52t-68 -60q-8 -2 -17.5 -3t-17.5 -1z" />
    <glyph glyph-name="uni0145" unicode="&#x145;" horiz-adv-x="742" 
d="M594 -6l-468 611q-14 18 -27 23.5t-38 7.5q-3 11 -4 23t-1 20q10 -1 22.5 -1.5t26 -1t25.5 -0.5q19 0 36.5 1t30.5 2l399 -529zM56 -3q0 13 1 23.5t4 19.5q27 0 42 13t21 45.5t6 88.5v423h51v-423q0 -56 6 -88.5t21 -45.5t42 -13q3 -9 4 -19t1 -24q-15 1 -32.5 1.5
t-34.5 1t-32 0.5q-14 0 -33 -0.5t-36.5 -1t-30.5 -1.5zM594 -6l-8 100v400q0 55 -6 85.5t-21 43.5t-42 13q-3 17 -4 25.5t-1 17.5q15 -1 31 -1.5t32.5 -1t30.5 -0.5q21 0 48 1t47 2q0 -10 -1 -21t-4 -22q-22 0 -35 -13t-18.5 -43.5t-5.5 -85.5v-494q-8 -3 -20 -4.5t-23 -1.5
zM423 -43q17 -7 25.5 -24.5t8.5 -42.5q0 -52 -32.5 -95t-74.5 -75q-20 4 -28 21q25 25 37.5 48.5t12.5 41.5q0 32 -37 36q-1 8 1.5 28t6.5 32q23 5 43.5 12.5t36.5 17.5z" />
    <glyph glyph-name="uni1E44" unicode="&#x1e44;" horiz-adv-x="742" 
d="M594 -6l-468 611q-14 18 -27 23.5t-38 7.5q-3 11 -4 23t-1 20q10 -1 22.5 -1.5t26 -1t25.5 -0.5q19 0 36.5 1t30.5 2l399 -529zM56 -3q0 13 1 23.5t4 19.5q27 0 42 13t21 45.5t6 88.5v423h51v-423q0 -56 6 -88.5t21 -45.5t42 -13q3 -9 4 -19t1 -24q-15 1 -32.5 1.5
t-34.5 1t-32 0.5q-14 0 -33 -0.5t-36.5 -1t-30.5 -1.5zM594 -6l-8 100v400q0 55 -6 85.5t-21 43.5t-42 13q-3 17 -4 25.5t-1 17.5q15 -1 31 -1.5t32.5 -1t30.5 -0.5q21 0 48 1t47 2q0 -10 -1 -21t-4 -22q-22 0 -35 -13t-18.5 -43.5t-5.5 -85.5v-494q-8 -3 -20 -4.5t-23 -1.5
zM375 720q-25 0 -42 17t-17 41q0 27 18 44t41 17q27 0 43.5 -17t16.5 -44q0 -23 -17.5 -40.5t-42.5 -17.5z" />
    <glyph glyph-name="uni1E46" unicode="&#x1e46;" horiz-adv-x="742" 
d="M594 -6l-468 611q-14 18 -27 23.5t-38 7.5q-3 11 -4 23t-1 20q10 -1 22.5 -1.5t26 -1t25.5 -0.5q19 0 36.5 1t30.5 2l399 -529zM56 -3q0 13 1 23.5t4 19.5q27 0 42 13t21 45.5t6 88.5v423h51v-423q0 -56 6 -88.5t21 -45.5t42 -13q3 -9 4 -19t1 -24q-15 1 -32.5 1.5
t-34.5 1t-32 0.5q-14 0 -33 -0.5t-36.5 -1t-30.5 -1.5zM594 -6l-8 100v400q0 55 -6 85.5t-21 43.5t-42 13q-3 17 -4 25.5t-1 17.5q15 -1 31 -1.5t32.5 -1t30.5 -0.5q21 0 48 1t47 2q0 -10 -1 -21t-4 -22q-22 0 -35 -13t-18.5 -43.5t-5.5 -85.5v-494q-8 -3 -20 -4.5t-23 -1.5
zM397 -210q-25 0 -42 17t-17 41q0 27 18 44t41 17q27 0 43.5 -17t16.5 -44q0 -23 -17.5 -40.5t-42.5 -17.5z" />
    <glyph glyph-name="Eng" unicode="&#x14a;" horiz-adv-x="663" 
d="M417 -249q-26 0 -44 8t-28 15q-4 15 -3 37.5t4 35.5q17 -3 33.5 -4.5t29.5 -1.5q47 0 69 20t28.5 61t6.5 104v430q0 86 -32 124t-90 38q-44 0 -82 -22t-61 -68t-23 -117v-284q0 -33 6 -51.5t21.5 -26t41.5 -9.5q3 -8 4 -18.5t1 -24.5q-30 2 -61 2.5t-60 0.5t-62 -0.5
t-59 -2.5q0 14 1 24.5t4 18.5q27 2 42 9.5t21 26t6 51.5v415q0 24 -5 39t-21 23t-49 9q0 11 2 20t7 17q31 2 71.5 12t66.5 22q11 -4 16.5 -14t5.5 -34q0 -8 -1 -26.5t-6 -58.5h1q14 41 46 69.5t74 43.5t85 15q50 0 91.5 -21t66.5 -66t25 -116v-396q0 -60 -12 -118.5
t-36.5 -106t-59.5 -76t-82 -28.5z" />
    <glyph glyph-name="uni019D" unicode="&#x19d;" horiz-adv-x="742" 
d="M596 -9l-470 614q-14 18 -27 23.5t-38 7.5q-3 11 -4 23t-1 20q10 -1 22.5 -1.5t26 -1t25.5 -0.5q19 0 36.5 1t30.5 2l399 -529v-159zM3 -249q-28 0 -45.5 8t-27.5 15q-4 15 -3 37.5t4 35.5q17 -3 33 -4.5t28 -1.5q67 0 102.5 46.5t35.5 148.5v574h51v-570
q0 -76 -19.5 -142t-59 -106.5t-99.5 -40.5zM596 -9l-10 103v400q0 55 -6 85.5t-21 43.5t-42 13q-3 17 -4 25.5t-1 17.5q15 -1 31 -1.5t32.5 -1t30.5 -0.5q21 0 48 1t47 2q0 -10 -1 -21t-4 -22q-22 0 -35 -13t-18.5 -43.5t-5.5 -85.5v-498q-8 -3 -19 -4t-22 -1z" />
    <glyph glyph-name="uni01CB" unicode="&#x1cb;" horiz-adv-x="1025" 
d="M594 -6l-468 611q-14 18 -27 23.5t-38 7.5q-3 11 -4 23t-1 20q10 -1 22.5 -1.5t26 -1t25.5 -0.5q19 0 36.5 1t30.5 2l399 -529zM56 -3q0 13 1 23.5t4 19.5q27 0 42 13t21 45.5t6 88.5v423h51v-423q0 -56 6 -88.5t21 -45.5t42 -13q3 -9 4 -19t1 -24q-15 1 -32.5 1.5
t-34.5 1t-32 0.5q-14 0 -33 -0.5t-36.5 -1t-30.5 -1.5zM594 -6l-8 100v400q0 55 -6 85.5t-21 43.5t-42 13q-3 17 -4 25.5t-1 17.5q15 -1 31 -1.5t32.5 -1t30.5 -0.5q21 0 48 1t47 2q0 -10 -1 -21t-4 -22q-22 0 -35 -13t-18.5 -43.5t-5.5 -85.5v-494q-8 -3 -20 -4.5t-23 -1.5
zM777 -249q-7 4 -13.5 11t-8.5 17q39 44 60 79.5t29.5 73.5t8.5 87v306q0 24 -4.5 39.5t-20.5 23.5t-50 8q0 11 2 20t7 17q15 0 42.5 5t53.5 13t38 16q9 -3 15.5 -12t6.5 -28v-394q0 -54 -14.5 -98.5t-38.5 -79.5t-53.5 -61t-59.5 -43zM890 580q-25 0 -42 17t-17 41
q0 27 18 44t41 17q27 0 43.5 -17t16.5 -44q0 -23 -17.5 -40.5t-42.5 -17.5z" />
    <glyph glyph-name="uni1E48" unicode="&#x1e48;" horiz-adv-x="742" 
d="M594 -6l-468 611q-14 18 -27 23.5t-38 7.5q-3 11 -4 23t-1 20q10 -1 22.5 -1.5t26 -1t25.5 -0.5q19 0 36.5 1t30.5 2l399 -529zM56 -3q0 13 1 23.5t4 19.5q27 0 42 13t21 45.5t6 88.5v423h51v-423q0 -56 6 -88.5t21 -45.5t42 -13q3 -9 4 -19t1 -24q-15 1 -32.5 1.5
t-34.5 1t-32 0.5q-14 0 -33 -0.5t-36.5 -1t-30.5 -1.5zM594 -6l-8 100v400q0 55 -6 85.5t-21 43.5t-42 13q-3 17 -4 25.5t-1 17.5q15 -1 31 -1.5t32.5 -1t30.5 -0.5q21 0 48 1t47 2q0 -10 -1 -21t-4 -22q-22 0 -35 -13t-18.5 -43.5t-5.5 -85.5v-494q-8 -3 -20 -4.5t-23 -1.5
zM216 -165q0 6 2.5 21.5t6.5 24.5h355q0 -10 -2 -21t-7 -22h-68t-126.5 -0.5t-160.5 -2.5z" />
    <glyph glyph-name="Ntilde" unicode="&#xd1;" horiz-adv-x="742" 
d="M594 -6l-468 611q-14 18 -27 23.5t-38 7.5q-3 11 -4 23t-1 20q10 -1 22.5 -1.5t26 -1t25.5 -0.5q19 0 36.5 1t30.5 2l399 -529zM56 -3q0 13 1 23.5t4 19.5q27 0 42 13t21 45.5t6 88.5v423h51v-423q0 -56 6 -88.5t21 -45.5t42 -13q3 -9 4 -19t1 -24q-15 1 -32.5 1.5
t-34.5 1t-32 0.5q-14 0 -33 -0.5t-36.5 -1t-30.5 -1.5zM594 -6l-8 100v400q0 55 -6 85.5t-21 43.5t-42 13q-3 17 -4 25.5t-1 17.5q15 -1 31 -1.5t32.5 -1t30.5 -0.5q21 0 48 1t47 2q0 -10 -1 -21t-4 -22q-22 0 -35 -13t-18.5 -43.5t-5.5 -85.5v-494q-8 -3 -20 -4.5t-23 -1.5
zM433 748q-18 0 -35 5.5t-33 12t-32.5 12t-34.5 5.5q-19 0 -36.5 -8t-34.5 -24q-7 5 -10 13t-3 18q29 38 57 51.5t54 13.5t48 -8.5t42 -17t41 -8.5q15 0 29 6.5t27 19.5q5 -1 13.5 -4t12.5 -10q-22 -41 -49 -59t-56 -18z" />
    <glyph glyph-name="O" unicode="O" horiz-adv-x="731" 
d="M365 -9q-99 0 -173 46t-115.5 125t-41.5 178q0 77 25.5 140t70.5 109t105 71t129 25q96 0 170.5 -43.5t117.5 -121t43 -180.5q0 -74 -24 -137.5t-68.5 -111t-105 -74t-133.5 -26.5zM385 40q65 0 111.5 36.5t71.5 99t25 138.5q0 90 -32.5 163.5t-88.5 116.5t-128 43
q-59 0 -105.5 -33.5t-73.5 -94.5t-27 -142q0 -63 16 -122t47.5 -105t77.5 -73t106 -27z" />
    <glyph glyph-name="Oacute" unicode="&#xd3;" horiz-adv-x="731" 
d="M365 -9q-99 0 -173 46t-115.5 125t-41.5 178q0 77 25.5 140t70.5 109t105 71t129 25q96 0 170.5 -43.5t117.5 -121t43 -180.5q0 -74 -24 -137.5t-68.5 -111t-105 -74t-133.5 -26.5zM385 40q65 0 111.5 36.5t71.5 99t25 138.5q0 90 -32.5 163.5t-88.5 116.5t-128 43
q-59 0 -105.5 -33.5t-73.5 -94.5t-27 -142q0 -63 16 -122t47.5 -105t77.5 -73t106 -27zM373 732q-13 0 -22 0.5t-18 4.5q17 35 31.5 69t24.5 65q12 3 24 5t24 2q26 0 47 -8q-27 -32 -53.5 -65t-57.5 -73z" />
    <glyph glyph-name="Obreve" unicode="&#x14e;" horiz-adv-x="731" 
d="M365 -9q-99 0 -173 46t-115.5 125t-41.5 178q0 77 25.5 140t70.5 109t105 71t129 25q96 0 170.5 -43.5t117.5 -121t43 -180.5q0 -74 -24 -137.5t-68.5 -111t-105 -74t-133.5 -26.5zM385 40q65 0 111.5 36.5t71.5 99t25 138.5q0 90 -32.5 163.5t-88.5 116.5t-128 43
q-59 0 -105.5 -33.5t-73.5 -94.5t-27 -142q0 -63 16 -122t47.5 -105t77.5 -73t106 -27zM514 865q0 -66 -39 -101.5t-111 -35.5q-70 0 -108.5 34.5t-38.5 98.5q10 5 22 7.5t23 1.5q6 -36 36 -57t75 -21t73 21t30 57q11 1 21 -0.5t17 -4.5z" />
    <glyph glyph-name="uni01D1" unicode="&#x1d1;" horiz-adv-x="731" 
d="M365 -9q-99 0 -173 46t-115.5 125t-41.5 178q0 77 25.5 140t70.5 109t105 71t129 25q96 0 170.5 -43.5t117.5 -121t43 -180.5q0 -74 -24 -137.5t-68.5 -111t-105 -74t-133.5 -26.5zM385 40q65 0 111.5 36.5t71.5 99t25 138.5q0 90 -32.5 163.5t-88.5 116.5t-128 43
q-59 0 -105.5 -33.5t-73.5 -94.5t-27 -142q0 -63 16 -122t47.5 -105t77.5 -73t106 -27zM343 731q-24 28 -57 60t-73 64q5 8 14 14t20 9q28 -16 61 -36t61 -33q14 7 40 20.5t52 28t41 23.5q8 -4 11.5 -15t4.5 -19q-34 -22 -72 -52t-68 -60q-8 -2 -17.5 -3t-17.5 -1z" />
    <glyph glyph-name="Ocircumflex" unicode="&#xd4;" horiz-adv-x="731" 
d="M365 -9q-99 0 -173 46t-115.5 125t-41.5 178q0 77 25.5 140t70.5 109t105 71t129 25q96 0 170.5 -43.5t117.5 -121t43 -180.5q0 -74 -24 -137.5t-68.5 -111t-105 -74t-133.5 -26.5zM385 40q65 0 111.5 36.5t71.5 99t25 138.5q0 90 -32.5 163.5t-88.5 116.5t-128 43
q-59 0 -105.5 -33.5t-73.5 -94.5t-27 -142q0 -63 16 -122t47.5 -105t77.5 -73t106 -27zM229 728q-8 5 -11.5 16t-4.5 18q34 22 72 52t68 60q8 2 18 3t17 1q24 -28 57 -60t73 -64q-5 -8 -14 -14t-20 -9q-28 17 -60.5 36.5t-61.5 32.5q-14 -6 -40 -20l-52 -28t-41 -24z" />
    <glyph glyph-name="uni1ED0" unicode="&#x1ed0;" horiz-adv-x="731" 
d="M365 -9q-99 0 -173 46t-115.5 125t-41.5 178q0 77 25.5 140t70.5 109t105 71t129 25q96 0 170.5 -43.5t117.5 -121t43 -180.5q0 -74 -24 -137.5t-68.5 -111t-105 -74t-133.5 -26.5zM385 40q65 0 111.5 36.5t71.5 99t25 138.5q0 90 -32.5 163.5t-88.5 116.5t-128 43
q-59 0 -105.5 -33.5t-73.5 -94.5t-27 -142q0 -63 16 -122t47.5 -105t77.5 -73t106 -27zM229 728q-8 5 -11.5 16t-4.5 18q34 22 72 52t68 60q8 2 18 3t17 1q24 -28 57 -60t73 -64q-5 -8 -14 -14t-20 -9q-28 17 -60.5 36.5t-61.5 32.5q-14 -6 -40 -20l-52 -28t-41 -24z
M507.601 850.082q-12.2207 0 -20.6807 0.469727t-16.9199 4.23047q15.9805 32.8994 29.6104 64.8594t23.0303 61.1006q11.2793 2.82031 22.5596 4.7002t22.5605 1.87988q24.4395 0 44.1797 -7.52051q-25.3799 -30.0801 -50.29 -61.0996q-24.9102 -31.0205 -54.0498 -68.6201
z" />
    <glyph glyph-name="uni1ED8" unicode="&#x1ed8;" horiz-adv-x="731" 
d="M365 -9q-99 0 -173 46t-115.5 125t-41.5 178q0 77 25.5 140t70.5 109t105 71t129 25q96 0 170.5 -43.5t117.5 -121t43 -180.5q0 -74 -24 -137.5t-68.5 -111t-105 -74t-133.5 -26.5zM385 40q65 0 111.5 36.5t71.5 99t25 138.5q0 90 -32.5 163.5t-88.5 116.5t-128 43
q-59 0 -105.5 -33.5t-73.5 -94.5t-27 -142q0 -63 16 -122t47.5 -105t77.5 -73t106 -27zM365 -210q-25 0 -42 17t-17 41q0 27 18 44t41 17q27 0 43.5 -17t16.5 -44q0 -23 -17.5 -40.5t-42.5 -17.5zM229 728q-8 5 -11.5 16t-4.5 18q34 22 72 52t68 60q8 2 18 3t17 1
q24 -28 57 -60t73 -64q-5 -8 -14 -14t-20 -9q-28 17 -60.5 36.5t-61.5 32.5q-14 -6 -40 -20l-52 -28t-41 -24z" />
    <glyph glyph-name="uni1ED2" unicode="&#x1ed2;" horiz-adv-x="731" 
d="M365 -9q-99 0 -173 46t-115.5 125t-41.5 178q0 77 25.5 140t70.5 109t105 71t129 25q96 0 170.5 -43.5t117.5 -121t43 -180.5q0 -74 -24 -137.5t-68.5 -111t-105 -74t-133.5 -26.5zM385 40q65 0 111.5 36.5t71.5 99t25 138.5q0 90 -32.5 163.5t-88.5 116.5t-128 43
q-59 0 -105.5 -33.5t-73.5 -94.5t-27 -142q0 -63 16 -122t47.5 -105t77.5 -73t106 -27zM229 728q-8 5 -11.5 16t-4.5 18q34 22 72 52t68 60q8 2 18 3t17 1q24 -28 57 -60t73 -64q-5 -8 -14 -14t-20 -9q-28 17 -60.5 36.5t-61.5 32.5q-14 -6 -40 -20l-52 -28t-41 -24z
M482 844q-31 40 -57.5 70.5t-53.5 57.5q17 9 41.5 11.5t48.5 0.5q13 -31 27.5 -65.5t33.5 -69.5q-9 -4 -18 -4.5t-22 -0.5z" />
    <glyph glyph-name="uni1ED4" unicode="&#x1ed4;" horiz-adv-x="731" 
d="M365 -9q-99 0 -173 46t-115.5 125t-41.5 178q0 77 25.5 140t70.5 109t105 71t129 25q96 0 170.5 -43.5t117.5 -121t43 -180.5q0 -74 -24 -137.5t-68.5 -111t-105 -74t-133.5 -26.5zM385 40q65 0 111.5 36.5t71.5 99t25 138.5q0 90 -32.5 163.5t-88.5 116.5t-128 43
q-59 0 -105.5 -33.5t-73.5 -94.5t-27 -142q0 -63 16 -122t47.5 -105t77.5 -73t106 -27zM229 728q-8 5 -11.5 16t-4.5 18q34 22 72 52t68 60q8 2 18 3t17 1q24 -28 57 -60t73 -64q-5 -8 -14 -14t-20 -9q-28 17 -60.5 36.5t-61.5 32.5q-14 -6 -40 -20l-52 -28t-41 -24z
M476 864q-13 16 -13 31q0 16 9.5 25.5t22 17t22 15t9.5 19.5q0 10 -8 15t-22 5q-22 0 -33.5 -13t-15.5 -45q-12 0 -25.5 2.5t-21.5 6.5q2 17 2.5 28.5t-2.5 26.5q16 12 39 22t61 10q40 0 66 -14t26 -42q0 -19 -12 -32t-27 -22t-27 -17.5t-12 -20.5q0 -5 2 -13
q-10 -3 -19.5 -4t-20.5 -1z" />
    <glyph glyph-name="uni1ED6" unicode="&#x1ed6;" horiz-adv-x="731" 
d="M365 -9q-99 0 -173 46t-115.5 125t-41.5 178q0 77 25.5 140t70.5 109t105 71t129 25q96 0 170.5 -43.5t117.5 -121t43 -180.5q0 -74 -24 -137.5t-68.5 -111t-105 -74t-133.5 -26.5zM385 40q65 0 111.5 36.5t71.5 99t25 138.5q0 90 -32.5 163.5t-88.5 116.5t-128 43
q-59 0 -105.5 -33.5t-73.5 -94.5t-27 -142q0 -63 16 -122t47.5 -105t77.5 -73t106 -27zM229 728q-8 5 -11.5 16t-4.5 18q34 22 72 52t68 60q8 2 18 3t17 1q24 -28 57 -60t73 -64q-5 -8 -14 -14t-20 -9q-28 17 -60.5 36.5t-61.5 32.5q-14 -6 -40 -20l-52 -28t-41 -24z
M423 930q-18 0 -35 5.5t-33 12t-32.5 12t-34.5 5.5q-19 0 -36.5 -8t-34.5 -24q-7 5 -10 13t-3 18q29 38 57 51.5t54 13.5t48 -8.5t42 -17t41 -8.5q15 0 29 6.5t27 19.5q5 -1 13.5 -4t12.5 -10q-22 -41 -49 -59t-56 -18z" />
    <glyph glyph-name="uni020C" unicode="&#x20c;" horiz-adv-x="731" 
d="M365 -9q-99 0 -173 46t-115.5 125t-41.5 178q0 77 25.5 140t70.5 109t105 71t129 25q96 0 170.5 -43.5t117.5 -121t43 -180.5q0 -74 -24 -137.5t-68.5 -111t-105 -74t-133.5 -26.5zM385 40q65 0 111.5 36.5t71.5 99t25 138.5q0 90 -32.5 163.5t-88.5 116.5t-128 43
q-59 0 -105.5 -33.5t-73.5 -94.5t-27 -142q0 -63 16 -122t47.5 -105t77.5 -73t106 -27zM281 722q-31 40 -57.5 70.5t-53.5 57.5q17 9 41.5 11.5t48.5 0.5q13 -31 27.5 -65.5t33.5 -69.5q-9 -4 -18 -4.5t-22 -0.5zM431 722q-31 40 -57.5 70.5t-53.5 57.5q17 9 41.5 11.5
t48.5 0.5q13 -31 27.5 -65.5t33.5 -69.5q-9 -4 -18 -4.5t-22 -0.5z" />
    <glyph glyph-name="Odieresis" unicode="&#xd6;" horiz-adv-x="731" 
d="M365 -9q-99 0 -173 46t-115.5 125t-41.5 178q0 77 25.5 140t70.5 109t105 71t129 25q96 0 170.5 -43.5t117.5 -121t43 -180.5q0 -74 -24 -137.5t-68.5 -111t-105 -74t-133.5 -26.5zM385 40q65 0 111.5 36.5t71.5 99t25 138.5q0 90 -32.5 163.5t-88.5 116.5t-128 43
q-59 0 -105.5 -33.5t-73.5 -94.5t-27 -142q0 -63 16 -122t47.5 -105t77.5 -73t106 -27zM465 732q-29 0 -44 16t-15 41q0 24 15.5 37.5t40.5 13.5t41 -14t16 -37q0 -21 -12 -39t-42 -18zM269 732q-25 0 -41 14.5t-16 36.5t13 39.5t42 17.5q30 0 43.5 -16t13.5 -39t-16 -38
t-39 -15z" />
    <glyph glyph-name="uni022A" unicode="&#x22a;" horiz-adv-x="731" 
d="M365 -9q-99 0 -173 46t-115.5 125t-41.5 178q0 77 25.5 140t70.5 109t105 71t129 25q96 0 170.5 -43.5t117.5 -121t43 -180.5q0 -74 -24 -137.5t-68.5 -111t-105 -74t-133.5 -26.5zM385 40q65 0 111.5 36.5t71.5 99t25 138.5q0 90 -32.5 163.5t-88.5 116.5t-128 43
q-59 0 -105.5 -33.5t-73.5 -94.5t-27 -142q0 -63 16 -122t47.5 -105t77.5 -73t106 -27zM465 732q-29 0 -44 16t-15 41q0 24 15.5 37.5t40.5 13.5t41 -14t16 -37q0 -21 -12 -39t-42 -18zM269 732q-25 0 -41 14.5t-16 36.5t13 39.5t42 17.5q30 0 43.5 -16t13.5 -39t-16 -38
t-39 -15zM548 959q0 -10 -2 -21t-7 -22h-68t-126.5 -0.5t-160.5 -2.5q0 6 2.5 21.5t6.5 24.5h355z" />
    <glyph glyph-name="uni0230" unicode="&#x230;" horiz-adv-x="731" 
d="M365 -9q-99 0 -173 46t-115.5 125t-41.5 178q0 77 25.5 140t70.5 109t105 71t129 25q96 0 170.5 -43.5t117.5 -121t43 -180.5q0 -74 -24 -137.5t-68.5 -111t-105 -74t-133.5 -26.5zM385 40q65 0 111.5 36.5t71.5 99t25 138.5q0 90 -32.5 163.5t-88.5 116.5t-128 43
q-59 0 -105.5 -33.5t-73.5 -94.5t-27 -142q0 -63 16 -122t47.5 -105t77.5 -73t106 -27zM365 720q-25 0 -42 17t-17 41q0 27 18 44t41 17q27 0 43.5 -17t16.5 -44q0 -23 -17.5 -40.5t-42.5 -17.5zM548 928q0 -10 -2 -21t-7 -22h-68t-126.5 -0.5t-160.5 -2.5q0 6 2.5 21.5
t6.5 24.5h355z" />
    <glyph glyph-name="uni1ECC" unicode="&#x1ecc;" horiz-adv-x="731" 
d="M365 -9q-99 0 -173 46t-115.5 125t-41.5 178q0 77 25.5 140t70.5 109t105 71t129 25q96 0 170.5 -43.5t117.5 -121t43 -180.5q0 -74 -24 -137.5t-68.5 -111t-105 -74t-133.5 -26.5zM385 40q65 0 111.5 36.5t71.5 99t25 138.5q0 90 -32.5 163.5t-88.5 116.5t-128 43
q-59 0 -105.5 -33.5t-73.5 -94.5t-27 -142q0 -63 16 -122t47.5 -105t77.5 -73t106 -27zM365 -210q-25 0 -42 17t-17 41q0 27 18 44t41 17q27 0 43.5 -17t16.5 -44q0 -23 -17.5 -40.5t-42.5 -17.5z" />
    <glyph glyph-name="Ograve" unicode="&#xd2;" horiz-adv-x="731" 
d="M365 -9q-99 0 -173 46t-115.5 125t-41.5 178q0 77 25.5 140t70.5 109t105 71t129 25q96 0 170.5 -43.5t117.5 -121t43 -180.5q0 -74 -24 -137.5t-68.5 -111t-105 -74t-133.5 -26.5zM385 40q65 0 111.5 36.5t71.5 99t25 138.5q0 90 -32.5 163.5t-88.5 116.5t-128 43
q-59 0 -105.5 -33.5t-73.5 -94.5t-27 -142q0 -63 16 -122t47.5 -105t77.5 -73t106 -27zM359 732q-31 40 -57.5 70.5t-53.5 57.5q17 9 41.5 11.5t48.5 0.5q13 -31 27.5 -65.5t33.5 -69.5q-9 -4 -18 -4.5t-22 -0.5z" />
    <glyph glyph-name="uni1ECE" unicode="&#x1ece;" horiz-adv-x="731" 
d="M365 -9q-99 0 -173 46t-115.5 125t-41.5 178q0 77 25.5 140t70.5 109t105 71t129 25q96 0 170.5 -43.5t117.5 -121t43 -180.5q0 -74 -24 -137.5t-68.5 -111t-105 -74t-133.5 -26.5zM385 40q65 0 111.5 36.5t71.5 99t25 138.5q0 90 -32.5 163.5t-88.5 116.5t-128 43
q-59 0 -105.5 -33.5t-73.5 -94.5t-27 -142q0 -63 16 -122t47.5 -105t77.5 -73t106 -27zM346 726q-13 16 -13 31q0 16 9.5 25.5t22 17t22 15t9.5 19.5q0 10 -8 15t-22 5q-22 0 -33.5 -13t-15.5 -45q-12 0 -25.5 2.5t-21.5 6.5q2 17 2.5 28.5t-2.5 26.5q16 12 39 22t61 10
q40 0 66 -14t26 -42q0 -19 -12 -32t-27 -22t-27 -17.5t-12 -20.5q0 -5 2 -13q-10 -3 -19.5 -4t-20.5 -1z" />
    <glyph glyph-name="Ohorn" unicode="&#x1a0;" horiz-adv-x="731" 
d="M365 -9q-99 0 -173 46t-115.5 125t-41.5 178q0 77 25.5 140t70.5 109t105 71t129 25q96 0 170.5 -43.5t117.5 -121t43 -180.5q0 -74 -24 -137.5t-68.5 -111t-105 -74t-133.5 -26.5zM385 40q65 0 111.5 36.5t71.5 99t25 138.5q0 90 -32.5 163.5t-88.5 116.5t-128 43
q-59 0 -105.5 -33.5t-73.5 -94.5t-27 -142q0 -63 16 -122t47.5 -105t77.5 -73t106 -27zM547 630l-182 55q48 0 82 -6t74 -6q43 0 68.5 13.5t25.5 59.5q0 22 -6 47q13 6 28 8.5t31 0.5q21 -28 21 -61t-19.5 -58t-51.5 -39t-71 -14z" />
    <glyph glyph-name="uni1EDA" unicode="&#x1eda;" horiz-adv-x="731" 
d="M365 -9q-99 0 -173 46t-115.5 125t-41.5 178q0 77 25.5 140t70.5 109t105 71t129 25q96 0 170.5 -43.5t117.5 -121t43 -180.5q0 -74 -24 -137.5t-68.5 -111t-105 -74t-133.5 -26.5zM385 40q65 0 111.5 36.5t71.5 99t25 138.5q0 90 -32.5 163.5t-88.5 116.5t-128 43
q-59 0 -105.5 -33.5t-73.5 -94.5t-27 -142q0 -63 16 -122t47.5 -105t77.5 -73t106 -27zM547 630l-182 55q48 0 82 -6t74 -6q43 0 68.5 13.5t25.5 59.5q0 22 -6 47q13 6 28 8.5t31 0.5q21 -28 21 -61t-19.5 -58t-51.5 -39t-71 -14zM373 732q-13 0 -22 0.5t-18 4.5
q17 35 31.5 69t24.5 65q12 3 24 5t24 2q26 0 47 -8q-27 -32 -53.5 -65t-57.5 -73z" />
    <glyph glyph-name="uni1EE2" unicode="&#x1ee2;" horiz-adv-x="731" 
d="M365 -9q-99 0 -173 46t-115.5 125t-41.5 178q0 77 25.5 140t70.5 109t105 71t129 25q96 0 170.5 -43.5t117.5 -121t43 -180.5q0 -74 -24 -137.5t-68.5 -111t-105 -74t-133.5 -26.5zM385 40q65 0 111.5 36.5t71.5 99t25 138.5q0 90 -32.5 163.5t-88.5 116.5t-128 43
q-59 0 -105.5 -33.5t-73.5 -94.5t-27 -142q0 -63 16 -122t47.5 -105t77.5 -73t106 -27zM547 630l-182 55q48 0 82 -6t74 -6q43 0 68.5 13.5t25.5 59.5q0 22 -6 47q13 6 28 8.5t31 0.5q21 -28 21 -61t-19.5 -58t-51.5 -39t-71 -14zM365 -210q-25 0 -42 17t-17 41q0 27 18 44
t41 17q27 0 43.5 -17t16.5 -44q0 -23 -17.5 -40.5t-42.5 -17.5z" />
    <glyph glyph-name="uni1EDC" unicode="&#x1edc;" horiz-adv-x="731" 
d="M365 -9q-99 0 -173 46t-115.5 125t-41.5 178q0 77 25.5 140t70.5 109t105 71t129 25q96 0 170.5 -43.5t117.5 -121t43 -180.5q0 -74 -24 -137.5t-68.5 -111t-105 -74t-133.5 -26.5zM385 40q65 0 111.5 36.5t71.5 99t25 138.5q0 90 -32.5 163.5t-88.5 116.5t-128 43
q-59 0 -105.5 -33.5t-73.5 -94.5t-27 -142q0 -63 16 -122t47.5 -105t77.5 -73t106 -27zM547 630l-182 55q48 0 82 -6t74 -6q43 0 68.5 13.5t25.5 59.5q0 22 -6 47q13 6 28 8.5t31 0.5q21 -28 21 -61t-19.5 -58t-51.5 -39t-71 -14zM359 732q-31 40 -57.5 70.5t-53.5 57.5
q17 9 41.5 11.5t48.5 0.5q13 -31 27.5 -65.5t33.5 -69.5q-9 -4 -18 -4.5t-22 -0.5z" />
    <glyph glyph-name="uni1EDE" unicode="&#x1ede;" horiz-adv-x="731" 
d="M365 -9q-99 0 -173 46t-115.5 125t-41.5 178q0 77 25.5 140t70.5 109t105 71t129 25q96 0 170.5 -43.5t117.5 -121t43 -180.5q0 -74 -24 -137.5t-68.5 -111t-105 -74t-133.5 -26.5zM385 40q65 0 111.5 36.5t71.5 99t25 138.5q0 90 -32.5 163.5t-88.5 116.5t-128 43
q-59 0 -105.5 -33.5t-73.5 -94.5t-27 -142q0 -63 16 -122t47.5 -105t77.5 -73t106 -27zM547 630l-182 55q48 0 82 -6t74 -6q43 0 68.5 13.5t25.5 59.5q0 22 -6 47q13 6 28 8.5t31 0.5q21 -28 21 -61t-19.5 -58t-51.5 -39t-71 -14zM346 726q-13 16 -13 31q0 16 9.5 25.5
t22 17t22 15t9.5 19.5q0 10 -8 15t-22 5q-22 0 -33.5 -13t-15.5 -45q-12 0 -25.5 2.5t-21.5 6.5q2 17 2.5 28.5t-2.5 26.5q16 12 39 22t61 10q40 0 66 -14t26 -42q0 -19 -12 -32t-27 -22t-27 -17.5t-12 -20.5q0 -5 2 -13q-10 -3 -19.5 -4t-20.5 -1z" />
    <glyph glyph-name="uni1EE0" unicode="&#x1ee0;" horiz-adv-x="731" 
d="M365 -9q-99 0 -173 46t-115.5 125t-41.5 178q0 77 25.5 140t70.5 109t105 71t129 25q96 0 170.5 -43.5t117.5 -121t43 -180.5q0 -74 -24 -137.5t-68.5 -111t-105 -74t-133.5 -26.5zM385 40q65 0 111.5 36.5t71.5 99t25 138.5q0 90 -32.5 163.5t-88.5 116.5t-128 43
q-59 0 -105.5 -33.5t-73.5 -94.5t-27 -142q0 -63 16 -122t47.5 -105t77.5 -73t106 -27zM547 630l-182 55q48 0 82 -6t74 -6q43 0 68.5 13.5t25.5 59.5q0 22 -6 47q13 6 28 8.5t31 0.5q21 -28 21 -61t-19.5 -58t-51.5 -39t-71 -14zM423 748q-18 0 -35 5.5t-33 12t-32.5 12
t-34.5 5.5q-19 0 -36.5 -8t-34.5 -24q-7 5 -10 13t-3 18q29 38 57 51.5t54 13.5t48 -8.5t42 -17t41 -8.5q15 0 29 6.5t27 19.5q5 -1 13.5 -4t12.5 -10q-22 -41 -49 -59t-56 -18z" />
    <glyph glyph-name="Ohungarumlaut" unicode="&#x150;" horiz-adv-x="731" 
d="M365 -9q-99 0 -173 46t-115.5 125t-41.5 178q0 77 25.5 140t70.5 109t105 71t129 25q96 0 170.5 -43.5t117.5 -121t43 -180.5q0 -74 -24 -137.5t-68.5 -111t-105 -74t-133.5 -26.5zM385 40q65 0 111.5 36.5t71.5 99t25 138.5q0 90 -32.5 163.5t-88.5 116.5t-128 43
q-59 0 -105.5 -33.5t-73.5 -94.5t-27 -142q0 -63 16 -122t47.5 -105t77.5 -73t106 -27zM448 732q-9 0 -18.5 3.5t-17.5 10.5q17 35 29 64.5t22 57.5q20 8 37.5 10t31.5 2q11 0 19.5 -2t14.5 -5q-29 -31 -60.5 -68.5t-57.5 -72.5zM288 732q-9 0 -18.5 3.5t-17.5 10.5
q17 35 29 64.5t22 57.5q20 8 37.5 10t31.5 2q11 0 19.5 -2t14.5 -5q-30 -31 -61 -68.5t-57 -72.5z" />
    <glyph glyph-name="uni020E" unicode="&#x20e;" horiz-adv-x="731" 
d="M365 -9q-99 0 -173 46t-115.5 125t-41.5 178q0 77 25.5 140t70.5 109t105 71t129 25q96 0 170.5 -43.5t117.5 -121t43 -180.5q0 -74 -24 -137.5t-68.5 -111t-105 -74t-133.5 -26.5zM385 40q65 0 111.5 36.5t71.5 99t25 138.5q0 90 -32.5 163.5t-88.5 116.5t-128 43
q-59 0 -105.5 -33.5t-73.5 -94.5t-27 -142q0 -63 16 -122t47.5 -105t77.5 -73t106 -27zM217 733q0 66 39 101.5t111 35.5q70 0 108.5 -34.5t38.5 -98.5q-10 -5 -22 -7.5t-23 -1.5q-6 36 -36 57t-75 21t-73 -21t-30 -57q-11 -1 -21 0.5t-17 4.5z" />
    <glyph glyph-name="Omacron" unicode="&#x14c;" horiz-adv-x="731" 
d="M365 -9q-99 0 -173 46t-115.5 125t-41.5 178q0 77 25.5 140t70.5 109t105 71t129 25q96 0 170.5 -43.5t117.5 -121t43 -180.5q0 -74 -24 -137.5t-68.5 -111t-105 -74t-133.5 -26.5zM385 40q65 0 111.5 36.5t71.5 99t25 138.5q0 90 -32.5 163.5t-88.5 116.5t-128 43
q-59 0 -105.5 -33.5t-73.5 -94.5t-27 -142q0 -63 16 -122t47.5 -105t77.5 -73t106 -27zM548 805q0 -10 -2 -21t-7 -22h-68t-126.5 -0.5t-160.5 -2.5q0 6 2.5 21.5t6.5 24.5h355z" />
    <glyph glyph-name="uni1E52" unicode="&#x1e52;" horiz-adv-x="731" 
d="M365 -9q-99 0 -173 46t-115.5 125t-41.5 178q0 77 25.5 140t70.5 109t105 71t129 25q96 0 170.5 -43.5t117.5 -121t43 -180.5q0 -74 -24 -137.5t-68.5 -111t-105 -74t-133.5 -26.5zM385 40q65 0 111.5 36.5t71.5 99t25 138.5q0 90 -32.5 163.5t-88.5 116.5t-128 43
q-59 0 -105.5 -33.5t-73.5 -94.5t-27 -142q0 -63 16 -122t47.5 -105t77.5 -73t106 -27zM548 805q0 -10 -2 -21t-7 -22h-68t-126.5 -0.5t-160.5 -2.5q0 6 2.5 21.5t6.5 24.5h355zM373 861q-13 0 -22 0.5t-18 4.5q17 35 31.5 69t24.5 65q12 3 24 5t24 2q26 0 47 -8
q-27 -32 -53.5 -65t-57.5 -73z" />
    <glyph glyph-name="uni1E50" unicode="&#x1e50;" horiz-adv-x="731" 
d="M365 -9q-99 0 -173 46t-115.5 125t-41.5 178q0 77 25.5 140t70.5 109t105 71t129 25q96 0 170.5 -43.5t117.5 -121t43 -180.5q0 -74 -24 -137.5t-68.5 -111t-105 -74t-133.5 -26.5zM385 40q65 0 111.5 36.5t71.5 99t25 138.5q0 90 -32.5 163.5t-88.5 116.5t-128 43
q-59 0 -105.5 -33.5t-73.5 -94.5t-27 -142q0 -63 16 -122t47.5 -105t77.5 -73t106 -27zM548 805q0 -10 -2 -21t-7 -22h-68t-126.5 -0.5t-160.5 -2.5q0 6 2.5 21.5t6.5 24.5h355zM359 861q-31 40 -57.5 70.5t-53.5 57.5q17 9 41.5 11.5t48.5 0.5q13 -31 27.5 -65.5
t33.5 -69.5q-9 -4 -18 -4.5t-22 -0.5z" />
    <glyph glyph-name="uni01EA" unicode="&#x1ea;" horiz-adv-x="731" 
d="M435 -252q-22 0 -44.5 11.5t-37.5 34.5t-15 57q0 36 12.5 68t46 61t94.5 54l21 -10q-53 -25 -74.5 -57t-21.5 -66q0 -39 19 -53t38 -14q28 0 48 8q3 -5 4.5 -11t2.5 -13t0 -15q-19 -10 -37.5 -23t-36.5 -30q-4 -1 -9 -1.5t-10 -0.5zM365 -9q-99 0 -173 46t-115.5 125
t-41.5 178q0 77 25.5 140t70.5 109t105 71t129 25q96 0 170.5 -43.5t117.5 -121t43 -180.5q0 -74 -24 -137.5t-68.5 -111t-105 -74t-133.5 -26.5zM385 40q65 0 111.5 36.5t71.5 99t25 138.5q0 90 -32.5 163.5t-88.5 116.5t-128 43q-59 0 -105.5 -33.5t-73.5 -94.5t-27 -142
q0 -63 16 -122t47.5 -105t77.5 -73t106 -27z" />
    <glyph glyph-name="Oslash" unicode="&#xd8;" horiz-adv-x="731" 
d="M365 -9q-99 0 -173 46t-115.5 125t-41.5 178q0 77 25.5 140t70.5 109t105 71t129 25q96 0 170.5 -43.5t117.5 -121t43 -180.5q0 -74 -24 -137.5t-68.5 -111t-105 -74t-133.5 -26.5zM385 40q65 0 111.5 36.5t71.5 99t25 138.5q0 90 -32.5 163.5t-88.5 116.5t-128 43
q-59 0 -105.5 -33.5t-73.5 -94.5t-27 -142q0 -63 16 -122t47.5 -105t77.5 -73t106 -27zM538 612l66 89q15 0 28 -3t23 -13l-80 -106zM170 63l-72 -92q-14 0 -26.5 6.5t-17.5 15.5l79 99zM171 135l349 458l28 -43l-349 -456z" />
    <glyph glyph-name="Oslashacute" unicode="&#x1fe;" horiz-adv-x="731" 
d="M365 -9q-99 0 -173 46t-115.5 125t-41.5 178q0 77 25.5 140t70.5 109t105 71t129 25q96 0 170.5 -43.5t117.5 -121t43 -180.5q0 -74 -24 -137.5t-68.5 -111t-105 -74t-133.5 -26.5zM385 40q65 0 111.5 36.5t71.5 99t25 138.5q0 90 -32.5 163.5t-88.5 116.5t-128 43
q-59 0 -105.5 -33.5t-73.5 -94.5t-27 -142q0 -63 16 -122t47.5 -105t77.5 -73t106 -27zM538 612l66 89q15 0 28 -3t23 -13l-80 -106zM170 63l-72 -92q-14 0 -26.5 6.5t-17.5 15.5l79 99zM171 135l349 458l28 -43l-349 -456zM373 732q-13 0 -22 0.5t-18 4.5q17 35 31.5 69
t24.5 65q12 3 24 5t24 2q26 0 47 -8q-27 -32 -53.5 -65t-57.5 -73z" />
    <glyph glyph-name="Otilde" unicode="&#xd5;" horiz-adv-x="731" 
d="M365 -9q-99 0 -173 46t-115.5 125t-41.5 178q0 77 25.5 140t70.5 109t105 71t129 25q96 0 170.5 -43.5t117.5 -121t43 -180.5q0 -74 -24 -137.5t-68.5 -111t-105 -74t-133.5 -26.5zM385 40q65 0 111.5 36.5t71.5 99t25 138.5q0 90 -32.5 163.5t-88.5 116.5t-128 43
q-59 0 -105.5 -33.5t-73.5 -94.5t-27 -142q0 -63 16 -122t47.5 -105t77.5 -73t106 -27zM423 748q-18 0 -35 5.5t-33 12t-32.5 12t-34.5 5.5q-19 0 -36.5 -8t-34.5 -24q-7 5 -10 13t-3 18q29 38 57 51.5t54 13.5t48 -8.5t42 -17t41 -8.5q15 0 29 6.5t27 19.5q5 -1 13.5 -4
t12.5 -10q-22 -41 -49 -59t-56 -18z" />
    <glyph glyph-name="uni1E4C" unicode="&#x1e4c;" horiz-adv-x="731" 
d="M365 -9q-99 0 -173 46t-115.5 125t-41.5 178q0 77 25.5 140t70.5 109t105 71t129 25q96 0 170.5 -43.5t117.5 -121t43 -180.5q0 -74 -24 -137.5t-68.5 -111t-105 -74t-133.5 -26.5zM385 40q65 0 111.5 36.5t71.5 99t25 138.5q0 90 -32.5 163.5t-88.5 116.5t-128 43
q-59 0 -105.5 -33.5t-73.5 -94.5t-27 -142q0 -63 16 -122t47.5 -105t77.5 -73t106 -27zM423 748q-18 0 -35 5.5t-33 12t-32.5 12t-34.5 5.5q-19 0 -36.5 -8t-34.5 -24q-7 5 -10 13t-3 18q29 38 57 51.5t54 13.5t48 -8.5t42 -17t41 -8.5q15 0 29 6.5t27 19.5q5 -1 13.5 -4
t12.5 -10q-22 -41 -49 -59t-56 -18zM373 893q-13 0 -22 0.5t-18 4.5q17 35 31.5 69t24.5 65q12 3 24 5t24 2q26 0 47 -8q-27 -32 -53.5 -65t-57.5 -73z" />
    <glyph glyph-name="uni1E4E" unicode="&#x1e4e;" horiz-adv-x="731" 
d="M365 -9q-99 0 -173 46t-115.5 125t-41.5 178q0 77 25.5 140t70.5 109t105 71t129 25q96 0 170.5 -43.5t117.5 -121t43 -180.5q0 -74 -24 -137.5t-68.5 -111t-105 -74t-133.5 -26.5zM385 40q65 0 111.5 36.5t71.5 99t25 138.5q0 90 -32.5 163.5t-88.5 116.5t-128 43
q-59 0 -105.5 -33.5t-73.5 -94.5t-27 -142q0 -63 16 -122t47.5 -105t77.5 -73t106 -27zM423 748q-18 0 -35 5.5t-33 12t-32.5 12t-34.5 5.5q-19 0 -36.5 -8t-34.5 -24q-7 5 -10 13t-3 18q29 38 57 51.5t54 13.5t48 -8.5t42 -17t41 -8.5q15 0 29 6.5t27 19.5q5 -1 13.5 -4
t12.5 -10q-22 -41 -49 -59t-56 -18zM465 893q-29 0 -44 16t-15 41q0 24 15.5 37.5t40.5 13.5t41 -14t16 -37q0 -21 -12 -39t-42 -18zM269 893q-25 0 -41 14.5t-16 36.5t13 39.5t42 17.5q30 0 43.5 -16t13.5 -39t-16 -38t-39 -15z" />
    <glyph glyph-name="uni022C" unicode="&#x22c;" horiz-adv-x="731" 
d="M365 -9q-99 0 -173 46t-115.5 125t-41.5 178q0 77 25.5 140t70.5 109t105 71t129 25q96 0 170.5 -43.5t117.5 -121t43 -180.5q0 -74 -24 -137.5t-68.5 -111t-105 -74t-133.5 -26.5zM385 40q65 0 111.5 36.5t71.5 99t25 138.5q0 90 -32.5 163.5t-88.5 116.5t-128 43
q-59 0 -105.5 -33.5t-73.5 -94.5t-27 -142q0 -63 16 -122t47.5 -105t77.5 -73t106 -27zM423 748q-18 0 -35 5.5t-33 12t-32.5 12t-34.5 5.5q-19 0 -36.5 -8t-34.5 -24q-7 5 -10 13t-3 18q29 38 57 51.5t54 13.5t48 -8.5t42 -17t41 -8.5q15 0 29 6.5t27 19.5q5 -1 13.5 -4
t12.5 -10q-22 -41 -49 -59t-56 -18zM548 966q0 -10 -2 -21t-7 -22h-68t-126.5 -0.5t-160.5 -2.5q0 6 2.5 21.5t6.5 24.5h355z" />
    <glyph glyph-name="OE" unicode="&#x152;" horiz-adv-x="961" 
d="M358 682q22 0 65.5 -1.5t95 -3t96.5 -1.5q46 0 92 0.5t87 1t71 0.5q2 -20 5 -48t7 -56t9 -50q-8 -7 -19.5 -9.5t-25.5 -2.5q-2 31 -16.5 60t-49.5 47.5t-101 18.5h-162q71 -41 103 -114t35 -162h14q59 0 79.5 21.5t20.5 58.5q14 4 25 5.5t24 1.5q0 -10 -0.5 -29.5
t-1 -41.5t-0.5 -40t0.5 -40.5t1 -42.5t0.5 -31q-13 0 -24 1t-22 4q-2 27 -10 47t-31 31.5t-70 11.5h-7q-4 -85 -35.5 -157.5t-98.5 -116.5h186q62 0 94.5 14.5t49.5 42.5t31 69q15 -4 25 -9.5t19 -14.5q-11 -34 -18.5 -74t-12.5 -75q-19 1 -51.5 1t-75 0.5t-91.5 0.5
q-69 0 -124.5 -2t-102.5 -4.5t-92 -2.5q-97 0 -168.5 42t-110 118.5t-38.5 181.5q0 107 39.5 185t112 121t171.5 43zM344 634q-64 0 -111.5 -35t-73 -98t-25.5 -149q0 -96 28 -166t80 -108t123 -38q52 0 93 31t65.5 94t24.5 159q0 106 -30 174.5t-76.5 102t-97.5 33.5z" />
    <glyph glyph-name="P" unicode="P" horiz-adv-x="581" 
d="M56 -3q0 14 1 24.5t4 18.5q27 2 42 9.5t21 26t6 51.5v422q0 34 -6 52t-21 26t-42 9q-3 8 -4 19t-1 24q39 -2 75.5 -2.5t60.5 -0.5q14 0 39.5 0.5t50.5 1t37 0.5q83 0 133 -27t72 -71t22 -96q0 -57 -25.5 -110t-75.5 -87t-126 -34q-42 0 -70 11q-2 11 -2 21t3 20
q13 -3 26 -4.5t27 -1.5q37 0 69 13t52 46.5t20 96.5q0 80 -39.5 129.5t-129.5 49.5q-11 0 -25.5 -1.5t-40.5 -7.5l15 15v-493q0 -43 9 -65.5t29 -31t51 -10.5q3 -8 4 -18.5t1 -24.5q-15 1 -35.5 1.5t-43.5 1t-47 0.5q-23 0 -50 -0.5t-50 -1t-36 -1.5z" />
    <glyph glyph-name="Thorn" unicode="&#xde;" horiz-adv-x="587" 
d="M56 -3q0 14 1 24.5t4 18.5q27 2 42 9.5t21 26t6 51.5v422q0 34 -6 52t-21 26t-42 9q-3 8 -4 19t-1 24q19 -1 38.5 -1.5t40.5 -1t42 -0.5q22 0 42 0.5t39.5 1t39.5 1.5q0 -13 -1 -24t-4 -19q-26 -1 -41.5 -9t-21.5 -26t-6 -52v-402q0 -43 9 -65.5t29 -31t51 -10.5
q3 -8 4 -18.5t1 -24.5q-16 1 -37 1.5t-45 1t-49 0.5q-31 0 -67 -0.5t-64 -2.5zM325 151q-21 0 -38.5 3t-31.5 7q-2 8 -1.5 17t2.5 16q13 -3 26 -4t29 -1q37 0 70.5 12t54.5 43t21 89q0 74 -41 121.5t-130 47.5q-16 0 -30.5 -1.5t-40.5 -7.5l-42 45q18 0 46 0.5t60.5 1
t60.5 0.5q74 0 120.5 -25t69 -67.5t22.5 -93.5q0 -47 -25.5 -94t-75.5 -78t-126 -31z" />
    <glyph glyph-name="Q" unicode="Q" horiz-adv-x="731" 
d="M365 -9q-99 0 -173 46t-115.5 125t-41.5 178q0 77 25.5 140t70.5 109t105 71t129 25q96 0 170.5 -43.5t117.5 -121t43 -180.5q0 -74 -24 -137.5t-68.5 -111t-105 -74t-133.5 -26.5zM385 40q65 0 111.5 36.5t71.5 99t25 138.5q0 90 -32.5 163.5t-88.5 116.5t-128 43
q-59 0 -105.5 -33.5t-73.5 -94.5t-27 -142q0 -63 16 -122t47.5 -105t77.5 -73t106 -27zM636 -184q-39 10 -64 29t-44.5 42t-39.5 45t-49 38t-74 21l94 27q40 -8 70 -23.5t56 -33t52 -32.5t57 -23t72 -4q0 -9 -1.5 -19.5t-4.5 -20.5q-29 -9 -57.5 -19t-66.5 -27z" />
    <glyph glyph-name="R" unicode="R" horiz-adv-x="684" 
d="M497 -9q-20 33 -33 55.5t-23 42t-23 42.5q-19 36 -37 65t-41.5 59t-58.5 66l26 -13q-26 -1 -48 -1t-42 1v47q14 -2 26 -3t25 -1q55 0 99 15.5t70 48.5t26 85q0 59 -37.5 96.5t-127.5 37.5q-23 0 -41 -2t-38 -7l5 11v-509q0 -33 6 -51.5t20.5 -26t39.5 -9.5q3 -9 4 -20.5
t1 -22.5q-21 2 -44 2.5t-42.5 0.5h-32.5q-26 0 -61.5 -0.5t-58.5 -2.5q0 11 1 22t4 21q27 2 42 9.5t21 26t6 51.5v422q0 34 -6 52.5t-21 26.5t-42 8q-3 10 -4 20t-1 22q15 -1 50 -1.5t70 -0.5q41 0 83 1t84 1q76 0 124 -22t71 -60t23 -86q0 -46 -22 -83.5t-62.5 -63
t-96.5 -38.5l5 12q28 -29 47.5 -55t40.5 -59t50 -83q21 -35 37.5 -55.5t38.5 -30t59 -11.5q0 -12 -0.5 -22t-3.5 -21q-37 0 -78.5 -1.5t-78.5 -7.5z" />
    <glyph glyph-name="Racute" unicode="&#x154;" horiz-adv-x="684" 
d="M497 -9q-20 33 -33 55.5t-23 42t-23 42.5q-19 36 -37 65t-41.5 59t-58.5 66l26 -13q-26 -1 -48 -1t-42 1v47q14 -2 26 -3t25 -1q55 0 99 15.5t70 48.5t26 85q0 59 -37.5 96.5t-127.5 37.5q-23 0 -41 -2t-38 -7l5 11v-509q0 -33 6 -51.5t20.5 -26t39.5 -9.5q3 -9 4 -20.5
t1 -22.5q-21 2 -44 2.5t-42.5 0.5h-32.5q-26 0 -61.5 -0.5t-58.5 -2.5q0 11 1 22t4 21q27 2 42 9.5t21 26t6 51.5v422q0 34 -6 52.5t-21 26.5t-42 8q-3 10 -4 20t-1 22q15 -1 50 -1.5t70 -0.5q41 0 83 1t84 1q76 0 124 -22t71 -60t23 -86q0 -46 -22 -83.5t-62.5 -63
t-96.5 -38.5l5 12q28 -29 47.5 -55t40.5 -59t50 -83q21 -35 37.5 -55.5t38.5 -30t59 -11.5q0 -12 -0.5 -22t-3.5 -21q-37 0 -78.5 -1.5t-78.5 -7.5zM314 732q-13 0 -22 0.5t-18 4.5q17 35 31.5 69t24.5 65q12 3 24 5t24 2q26 0 47 -8q-27 -32 -53.5 -65t-57.5 -73z" />
    <glyph glyph-name="Rcaron" unicode="&#x158;" horiz-adv-x="684" 
d="M497 -9q-20 33 -33 55.5t-23 42t-23 42.5q-19 36 -37 65t-41.5 59t-58.5 66l26 -13q-26 -1 -48 -1t-42 1v47q14 -2 26 -3t25 -1q55 0 99 15.5t70 48.5t26 85q0 59 -37.5 96.5t-127.5 37.5q-23 0 -41 -2t-38 -7l5 11v-509q0 -33 6 -51.5t20.5 -26t39.5 -9.5q3 -9 4 -20.5
t1 -22.5q-21 2 -44 2.5t-42.5 0.5h-32.5q-26 0 -61.5 -0.5t-58.5 -2.5q0 11 1 22t4 21q27 2 42 9.5t21 26t6 51.5v422q0 34 -6 52.5t-21 26.5t-42 8q-3 10 -4 20t-1 22q15 -1 50 -1.5t70 -0.5q41 0 83 1t84 1q76 0 124 -22t71 -60t23 -86q0 -46 -22 -83.5t-62.5 -63
t-96.5 -38.5l5 12q28 -29 47.5 -55t40.5 -59t50 -83q21 -35 37.5 -55.5t38.5 -30t59 -11.5q0 -12 -0.5 -22t-3.5 -21q-37 0 -78.5 -1.5t-78.5 -7.5zM284 731q-24 28 -57 60t-73 64q5 8 14 14t20 9q28 -16 61 -36t61 -33q14 7 40 20.5t52 28t41 23.5q8 -4 11.5 -15t4.5 -19
q-34 -22 -72 -52t-68 -60q-8 -2 -17.5 -3t-17.5 -1z" />
    <glyph glyph-name="uni0156" unicode="&#x156;" horiz-adv-x="684" 
d="M497 -9q-20 33 -33 55.5t-23 42t-23 42.5q-19 36 -37 65t-41.5 59t-58.5 66l26 -13q-26 -1 -48 -1t-42 1v47q14 -2 26 -3t25 -1q55 0 99 15.5t70 48.5t26 85q0 59 -37.5 96.5t-127.5 37.5q-23 0 -41 -2t-38 -7l5 11v-509q0 -33 6 -51.5t20.5 -26t39.5 -9.5q3 -9 4 -20.5
t1 -22.5q-21 2 -44 2.5t-42.5 0.5h-32.5q-26 0 -61.5 -0.5t-58.5 -2.5q0 11 1 22t4 21q27 2 42 9.5t21 26t6 51.5v422q0 34 -6 52.5t-21 26.5t-42 8q-3 10 -4 20t-1 22q15 -1 50 -1.5t70 -0.5q41 0 83 1t84 1q76 0 124 -22t71 -60t23 -86q0 -46 -22 -83.5t-62.5 -63
t-96.5 -38.5l5 12q28 -29 47.5 -55t40.5 -59t50 -83q21 -35 37.5 -55.5t38.5 -30t59 -11.5q0 -12 -0.5 -22t-3.5 -21q-37 0 -78.5 -1.5t-78.5 -7.5zM371 -43q17 -7 25.5 -24.5t8.5 -42.5q0 -52 -32.5 -95t-74.5 -75q-20 4 -28 21q25 25 37.5 48.5t12.5 41.5q0 32 -37 36
q-1 8 1.5 28t6.5 32q23 5 43.5 12.5t36.5 17.5z" />
    <glyph glyph-name="uni0210" unicode="&#x210;" horiz-adv-x="684" 
d="M497 -9q-20 33 -33 55.5t-23 42t-23 42.5q-19 36 -37 65t-41.5 59t-58.5 66l26 -13q-26 -1 -48 -1t-42 1v47q14 -2 26 -3t25 -1q55 0 99 15.5t70 48.5t26 85q0 59 -37.5 96.5t-127.5 37.5q-23 0 -41 -2t-38 -7l5 11v-509q0 -33 6 -51.5t20.5 -26t39.5 -9.5q3 -9 4 -20.5
t1 -22.5q-21 2 -44 2.5t-42.5 0.5h-32.5q-26 0 -61.5 -0.5t-58.5 -2.5q0 11 1 22t4 21q27 2 42 9.5t21 26t6 51.5v422q0 34 -6 52.5t-21 26.5t-42 8q-3 10 -4 20t-1 22q15 -1 50 -1.5t70 -0.5q41 0 83 1t84 1q76 0 124 -22t71 -60t23 -86q0 -46 -22 -83.5t-62.5 -63
t-96.5 -38.5l5 12q28 -29 47.5 -55t40.5 -59t50 -83q21 -35 37.5 -55.5t38.5 -30t59 -11.5q0 -12 -0.5 -22t-3.5 -21q-37 0 -78.5 -1.5t-78.5 -7.5zM222 722q-31 40 -57.5 70.5t-53.5 57.5q17 9 41.5 11.5t48.5 0.5q13 -31 27.5 -65.5t33.5 -69.5q-9 -4 -18 -4.5t-22 -0.5z
M372 722q-31 40 -57.5 70.5t-53.5 57.5q17 9 41.5 11.5t48.5 0.5q13 -31 27.5 -65.5t33.5 -69.5q-9 -4 -18 -4.5t-22 -0.5z" />
    <glyph glyph-name="uni1E5A" unicode="&#x1e5a;" horiz-adv-x="684" 
d="M497 -9q-20 33 -33 55.5t-23 42t-23 42.5q-19 36 -37 65t-41.5 59t-58.5 66l26 -13q-26 -1 -48 -1t-42 1v47q14 -2 26 -3t25 -1q55 0 99 15.5t70 48.5t26 85q0 59 -37.5 96.5t-127.5 37.5q-23 0 -41 -2t-38 -7l5 11v-509q0 -33 6 -51.5t20.5 -26t39.5 -9.5q3 -9 4 -20.5
t1 -22.5q-21 2 -44 2.5t-42.5 0.5h-32.5q-26 0 -61.5 -0.5t-58.5 -2.5q0 11 1 22t4 21q27 2 42 9.5t21 26t6 51.5v422q0 34 -6 52.5t-21 26.5t-42 8q-3 10 -4 20t-1 22q15 -1 50 -1.5t70 -0.5q41 0 83 1t84 1q76 0 124 -22t71 -60t23 -86q0 -46 -22 -83.5t-62.5 -63
t-96.5 -38.5l5 12q28 -29 47.5 -55t40.5 -59t50 -83q21 -35 37.5 -55.5t38.5 -30t59 -11.5q0 -12 -0.5 -22t-3.5 -21q-37 0 -78.5 -1.5t-78.5 -7.5zM345 -210q-25 0 -42 17t-17 41q0 27 18 44t41 17q27 0 43.5 -17t16.5 -44q0 -23 -17.5 -40.5t-42.5 -17.5z" />
    <glyph glyph-name="uni0212" unicode="&#x212;" horiz-adv-x="684" 
d="M497 -9q-20 33 -33 55.5t-23 42t-23 42.5q-19 36 -37 65t-41.5 59t-58.5 66l26 -13q-26 -1 -48 -1t-42 1v47q14 -2 26 -3t25 -1q55 0 99 15.5t70 48.5t26 85q0 59 -37.5 96.5t-127.5 37.5q-23 0 -41 -2t-38 -7l5 11v-509q0 -33 6 -51.5t20.5 -26t39.5 -9.5q3 -9 4 -20.5
t1 -22.5q-21 2 -44 2.5t-42.5 0.5h-32.5q-26 0 -61.5 -0.5t-58.5 -2.5q0 11 1 22t4 21q27 2 42 9.5t21 26t6 51.5v422q0 34 -6 52.5t-21 26.5t-42 8q-3 10 -4 20t-1 22q15 -1 50 -1.5t70 -0.5q41 0 83 1t84 1q76 0 124 -22t71 -60t23 -86q0 -46 -22 -83.5t-62.5 -63
t-96.5 -38.5l5 12q28 -29 47.5 -55t40.5 -59t50 -83q21 -35 37.5 -55.5t38.5 -30t59 -11.5q0 -12 -0.5 -22t-3.5 -21q-37 0 -78.5 -1.5t-78.5 -7.5zM158 733q0 66 39 101.5t111 35.5q70 0 108.5 -34.5t38.5 -98.5q-10 -5 -22 -7.5t-23 -1.5q-6 36 -36 57t-75 21t-73 -21
t-30 -57q-11 -1 -21 0.5t-17 4.5z" />
    <glyph glyph-name="uni1E5E" unicode="&#x1e5e;" horiz-adv-x="684" 
d="M497 -9q-20 33 -33 55.5t-23 42t-23 42.5q-19 36 -37 65t-41.5 59t-58.5 66l26 -13q-26 -1 -48 -1t-42 1v47q14 -2 26 -3t25 -1q55 0 99 15.5t70 48.5t26 85q0 59 -37.5 96.5t-127.5 37.5q-23 0 -41 -2t-38 -7l5 11v-509q0 -33 6 -51.5t20.5 -26t39.5 -9.5q3 -9 4 -20.5
t1 -22.5q-21 2 -44 2.5t-42.5 0.5h-32.5q-26 0 -61.5 -0.5t-58.5 -2.5q0 11 1 22t4 21q27 2 42 9.5t21 26t6 51.5v422q0 34 -6 52.5t-21 26.5t-42 8q-3 10 -4 20t-1 22q15 -1 50 -1.5t70 -0.5q41 0 83 1t84 1q76 0 124 -22t71 -60t23 -86q0 -46 -22 -83.5t-62.5 -63
t-96.5 -38.5l5 12q28 -29 47.5 -55t40.5 -59t50 -83q21 -35 37.5 -55.5t38.5 -30t59 -11.5q0 -12 -0.5 -22t-3.5 -21q-37 0 -78.5 -1.5t-78.5 -7.5zM164 -165q0 6 2.5 21.5t6.5 24.5h355q0 -10 -2 -21t-7 -22h-68t-126.5 -0.5t-160.5 -2.5z" />
    <glyph glyph-name="S" unicode="S" horiz-adv-x="552" 
d="M271 -9q-62 0 -108.5 17.5t-94.5 46.5q6 38 7.5 76t1.5 66q11 3 26 4.5t28 1.5q3 -51 18.5 -87.5t49 -56.5t86.5 -20q69 0 98.5 30.5t29.5 73.5q0 44 -24 72.5t-62 48.5t-80.5 39t-80.5 44t-62 62.5t-24 95.5q0 56 24.5 96.5t69.5 62t107 21.5q35 0 66.5 -6t57.5 -16
t43 -22q0 -29 1 -67t5 -65q-11 -4 -26.5 -6.5t-29.5 -2.5q-10 58 -26 88t-39 41.5t-53 11.5q-53 0 -83 -26t-30 -73q0 -44 24 -73t62 -50t80 -40.5t80 -44t62 -60.5t24 -91q0 -50 -24 -94t-74 -71t-130 -27z" />
    <glyph glyph-name="Sacute" unicode="&#x15a;" horiz-adv-x="552" 
d="M271 -9q-62 0 -108.5 17.5t-94.5 46.5q6 38 7.5 76t1.5 66q11 3 26 4.5t28 1.5q3 -51 18.5 -87.5t49 -56.5t86.5 -20q69 0 98.5 30.5t29.5 73.5q0 44 -24 72.5t-62 48.5t-80.5 39t-80.5 44t-62 62.5t-24 95.5q0 56 24.5 96.5t69.5 62t107 21.5q35 0 66.5 -6t57.5 -16
t43 -22q0 -29 1 -67t5 -65q-11 -4 -26.5 -6.5t-29.5 -2.5q-10 58 -26 88t-39 41.5t-53 11.5q-53 0 -83 -26t-30 -73q0 -44 24 -73t62 -50t80 -40.5t80 -44t62 -60.5t24 -91q0 -50 -24 -94t-74 -71t-130 -27zM285 732q-13 0 -22 0.5t-18 4.5q17 35 31.5 69t24.5 65q12 3 24 5
t24 2q26 0 47 -8q-27 -32 -53.5 -65t-57.5 -73z" />
    <glyph glyph-name="uni1E64" unicode="&#x1e64;" horiz-adv-x="552" 
d="M271 -9q-62 0 -108.5 17.5t-94.5 46.5q6 38 7.5 76t1.5 66q11 3 26 4.5t28 1.5q3 -51 18.5 -87.5t49 -56.5t86.5 -20q69 0 98.5 30.5t29.5 73.5q0 44 -24 72.5t-62 48.5t-80.5 39t-80.5 44t-62 62.5t-24 95.5q0 56 24.5 96.5t69.5 62t107 21.5q35 0 66.5 -6t57.5 -16
t43 -22q0 -29 1 -67t5 -65q-11 -4 -26.5 -6.5t-29.5 -2.5q-10 58 -26 88t-39 41.5t-53 11.5q-53 0 -83 -26t-30 -73q0 -44 24 -73t62 -50t80 -40.5t80 -44t62 -60.5t24 -91q0 -50 -24 -94t-74 -71t-130 -27zM285 732q-13 0 -22 0.5t-18 4.5q17 35 31.5 69t24.5 65q12 3 24 5
t24 2q26 0 47 -8q-27 -32 -53.5 -65t-57.5 -73zM297 922q-25 0 -42 17t-17 41q0 27 18 44t41 17q27 0 43.5 -17t16.5 -44q0 -23 -17.5 -40.5t-42.5 -17.5z" />
    <glyph glyph-name="Scaron" unicode="&#x160;" horiz-adv-x="552" 
d="M271 -9q-62 0 -108.5 17.5t-94.5 46.5q6 38 7.5 76t1.5 66q11 3 26 4.5t28 1.5q3 -51 18.5 -87.5t49 -56.5t86.5 -20q69 0 98.5 30.5t29.5 73.5q0 44 -24 72.5t-62 48.5t-80.5 39t-80.5 44t-62 62.5t-24 95.5q0 56 24.5 96.5t69.5 62t107 21.5q35 0 66.5 -6t57.5 -16
t43 -22q0 -29 1 -67t5 -65q-11 -4 -26.5 -6.5t-29.5 -2.5q-10 58 -26 88t-39 41.5t-53 11.5q-53 0 -83 -26t-30 -73q0 -44 24 -73t62 -50t80 -40.5t80 -44t62 -60.5t24 -91q0 -50 -24 -94t-74 -71t-130 -27zM255 731q-24 28 -57 60t-73 64q5 8 14 14t20 9q28 -16 61 -36
t61 -33q14 7 40 20.5t52 28t41 23.5q8 -4 11.5 -15t4.5 -19q-34 -22 -72 -52t-68 -60q-8 -2 -17.5 -3t-17.5 -1z" />
    <glyph glyph-name="uni1E66" unicode="&#x1e66;" horiz-adv-x="552" 
d="M271 -9q-62 0 -108.5 17.5t-94.5 46.5q6 38 7.5 76t1.5 66q11 3 26 4.5t28 1.5q3 -51 18.5 -87.5t49 -56.5t86.5 -20q69 0 98.5 30.5t29.5 73.5q0 44 -24 72.5t-62 48.5t-80.5 39t-80.5 44t-62 62.5t-24 95.5q0 56 24.5 96.5t69.5 62t107 21.5q35 0 66.5 -6t57.5 -16
t43 -22q0 -29 1 -67t5 -65q-11 -4 -26.5 -6.5t-29.5 -2.5q-10 58 -26 88t-39 41.5t-53 11.5q-53 0 -83 -26t-30 -73q0 -44 24 -73t62 -50t80 -40.5t80 -44t62 -60.5t24 -91q0 -50 -24 -94t-74 -71t-130 -27zM255 731q-24 28 -57 60t-73 64q5 8 14 14t20 9q28 -16 61 -36
t61 -33q14 7 40 20.5t52 28t41 23.5q8 -4 11.5 -15t4.5 -19q-34 -22 -72 -52t-68 -60q-8 -2 -17.5 -3t-17.5 -1zM277 925q-25 0 -42 17t-17 41q0 27 18 44t41 17q27 0 43.5 -17t16.5 -44q0 -23 -17.5 -40.5t-42.5 -17.5z" />
    <glyph glyph-name="Scedilla" unicode="&#x15e;" horiz-adv-x="552" 
d="M271 -9q-62 0 -108.5 17.5t-94.5 46.5q6 38 7.5 76t1.5 66q11 3 26 4.5t28 1.5q3 -51 18.5 -87.5t49 -56.5t86.5 -20q69 0 98.5 30.5t29.5 73.5q0 44 -24 72.5t-62 48.5t-80.5 39t-80.5 44t-62 62.5t-24 95.5q0 56 24.5 96.5t69.5 62t107 21.5q35 0 66.5 -6t57.5 -16
t43 -22q0 -29 1 -67t5 -65q-11 -4 -26.5 -6.5t-29.5 -2.5q-10 58 -26 88t-39 41.5t-53 11.5q-53 0 -83 -26t-30 -73q0 -44 24 -73t62 -50t80 -40.5t80 -44t62 -60.5t24 -91q0 -50 -24 -94t-74 -71t-130 -27zM230 -242q-4 7 -5.5 16t-1.5 16q30 0 54.5 14.5t24.5 40.5
q0 25 -18.5 39.5t-46.5 14.5q-7 6 -12.5 15.5t-5.5 22.5l50 79h50l-48 -66q40 -7 63.5 -31t23.5 -60q0 -33 -21 -55.5t-51 -34t-56 -11.5z" />
    <glyph glyph-name="Scircumflex" unicode="&#x15c;" horiz-adv-x="552" 
d="M271 -9q-62 0 -108.5 17.5t-94.5 46.5q6 38 7.5 76t1.5 66q11 3 26 4.5t28 1.5q3 -51 18.5 -87.5t49 -56.5t86.5 -20q69 0 98.5 30.5t29.5 73.5q0 44 -24 72.5t-62 48.5t-80.5 39t-80.5 44t-62 62.5t-24 95.5q0 56 24.5 96.5t69.5 62t107 21.5q35 0 66.5 -6t57.5 -16
t43 -22q0 -29 1 -67t5 -65q-11 -4 -26.5 -6.5t-29.5 -2.5q-10 58 -26 88t-39 41.5t-53 11.5q-53 0 -83 -26t-30 -73q0 -44 24 -73t62 -50t80 -40.5t80 -44t62 -60.5t24 -91q0 -50 -24 -94t-74 -71t-130 -27zM141 728q-8 5 -11.5 16t-4.5 18q34 22 72 52t68 60q8 2 18 3t17 1
q24 -28 57 -60t73 -64q-5 -8 -14 -14t-20 -9q-28 17 -60.5 36.5t-61.5 32.5q-14 -6 -40 -20l-52 -28t-41 -24z" />
    <glyph glyph-name="uni0218" unicode="&#x218;" horiz-adv-x="552" 
d="M271 -9q-62 0 -108.5 17.5t-94.5 46.5q6 38 7.5 76t1.5 66q11 3 26 4.5t28 1.5q3 -51 18.5 -87.5t49 -56.5t86.5 -20q69 0 98.5 30.5t29.5 73.5q0 44 -24 72.5t-62 48.5t-80.5 39t-80.5 44t-62 62.5t-24 95.5q0 56 24.5 96.5t69.5 62t107 21.5q35 0 66.5 -6t57.5 -16
t43 -22q0 -29 1 -67t5 -65q-11 -4 -26.5 -6.5t-29.5 -2.5q-10 58 -26 88t-39 41.5t-53 11.5q-53 0 -83 -26t-30 -73q0 -44 24 -73t62 -50t80 -40.5t80 -44t62 -60.5t24 -91q0 -50 -24 -94t-74 -71t-130 -27zM314 -43q17 -7 25.5 -24.5t8.5 -42.5q0 -52 -32.5 -95t-74.5 -75
q-20 4 -28 21q25 25 37.5 48.5t12.5 41.5q0 32 -37 36q-1 8 1.5 28t6.5 32q23 5 43.5 12.5t36.5 17.5z" />
    <glyph glyph-name="uni1E60" unicode="&#x1e60;" horiz-adv-x="552" 
d="M271 -9q-62 0 -108.5 17.5t-94.5 46.5q6 38 7.5 76t1.5 66q11 3 26 4.5t28 1.5q3 -51 18.5 -87.5t49 -56.5t86.5 -20q69 0 98.5 30.5t29.5 73.5q0 44 -24 72.5t-62 48.5t-80.5 39t-80.5 44t-62 62.5t-24 95.5q0 56 24.5 96.5t69.5 62t107 21.5q35 0 66.5 -6t57.5 -16
t43 -22q0 -29 1 -67t5 -65q-11 -4 -26.5 -6.5t-29.5 -2.5q-10 58 -26 88t-39 41.5t-53 11.5q-53 0 -83 -26t-30 -73q0 -44 24 -73t62 -50t80 -40.5t80 -44t62 -60.5t24 -91q0 -50 -24 -94t-74 -71t-130 -27zM277 720q-25 0 -42 17t-17 41q0 27 18 44t41 17q27 0 43.5 -17
t16.5 -44q0 -23 -17.5 -40.5t-42.5 -17.5z" />
    <glyph glyph-name="uni1E62" unicode="&#x1e62;" horiz-adv-x="552" 
d="M271 -9q-62 0 -108.5 17.5t-94.5 46.5q6 38 7.5 76t1.5 66q11 3 26 4.5t28 1.5q3 -51 18.5 -87.5t49 -56.5t86.5 -20q69 0 98.5 30.5t29.5 73.5q0 44 -24 72.5t-62 48.5t-80.5 39t-80.5 44t-62 62.5t-24 95.5q0 56 24.5 96.5t69.5 62t107 21.5q35 0 66.5 -6t57.5 -16
t43 -22q0 -29 1 -67t5 -65q-11 -4 -26.5 -6.5t-29.5 -2.5q-10 58 -26 88t-39 41.5t-53 11.5q-53 0 -83 -26t-30 -73q0 -44 24 -73t62 -50t80 -40.5t80 -44t62 -60.5t24 -91q0 -50 -24 -94t-74 -71t-130 -27zM288 -210q-25 0 -42 17t-17 41q0 27 18 44t41 17q27 0 43.5 -17
t16.5 -44q0 -23 -17.5 -40.5t-42.5 -17.5z" />
    <glyph glyph-name="uni1E68" unicode="&#x1e68;" horiz-adv-x="552" 
d="M271 -9q-62 0 -108.5 17.5t-94.5 46.5q6 38 7.5 76t1.5 66q11 3 26 4.5t28 1.5q3 -51 18.5 -87.5t49 -56.5t86.5 -20q69 0 98.5 30.5t29.5 73.5q0 44 -24 72.5t-62 48.5t-80.5 39t-80.5 44t-62 62.5t-24 95.5q0 56 24.5 96.5t69.5 62t107 21.5q35 0 66.5 -6t57.5 -16
t43 -22q0 -29 1 -67t5 -65q-11 -4 -26.5 -6.5t-29.5 -2.5q-10 58 -26 88t-39 41.5t-53 11.5q-53 0 -83 -26t-30 -73q0 -44 24 -73t62 -50t80 -40.5t80 -44t62 -60.5t24 -91q0 -50 -24 -94t-74 -71t-130 -27zM288 -210q-25 0 -42 17t-17 41q0 27 18 44t41 17q27 0 43.5 -17
t16.5 -44q0 -23 -17.5 -40.5t-42.5 -17.5zM277 720q-25 0 -42 17t-17 41q0 27 18 44t41 17q27 0 43.5 -17t16.5 -44q0 -23 -17.5 -40.5t-42.5 -17.5z" />
    <glyph glyph-name="uni1E9E" unicode="&#x1e9e;" horiz-adv-x="722" 
d="M516 664l99 -32q-27 -49 -67.5 -116.5t-87.5 -133.5l-3 8q64 -6 111.5 -33.5t74 -70.5t26.5 -98q0 -54 -25 -99t-71.5 -71.5t-112.5 -26.5q-57 0 -96.5 14.5t-77.5 39.5q7 35 9 72t2 62q12 3 29 4.5t29 1.5q4 -47 12 -79.5t29.5 -49.5t63.5 -17q34 0 56.5 18.5t33.5 50
t11 68.5q0 65 -47.5 115t-152.5 61q-4 8 -7.5 18.5t-3.5 21.5q44 59 88 133t78 139zM210 -1q-13 1 -28 1h-36t-52.5 -0.5t-51.5 -2.5q0 12 1 23t4 20q27 3 42 12t21 34t6 75v259q0 75 19.5 125t55 79t83.5 41.5t105 12.5q21 0 35.5 -0.5t30 -1t38.5 -0.5q29 0 57 0.5t62 2.5
q5 -10 9 -21.5t4 -25.5q-62 -1 -104 0.5t-76.5 3.5t-76.5 2q-45 0 -78.5 -17.5t-51.5 -64.5t-18 -136v-421z" />
    <glyph glyph-name="uni018F" unicode="&#x18f;" horiz-adv-x="631" 
d="M293 -7q-68 0 -115 24.5t-76.5 67.5t-45.5 100t-21 121q5 20 16 33h455v-49q-61 2 -122 3t-120 1.5t-116 0.5q0 -115 40.5 -184.5t124.5 -69.5q48 0 89 27t66 90t25 170q0 59 -10 114t-35 99t-69.5 70t-112.5 26q-48 0 -76 -14.5t-42.5 -44.5t-22.5 -76q-14 -1 -27.5 0.5
t-26.5 5.5q2 31 2.5 63.5t-3.5 66.5q40 24 98.5 35.5t111.5 11.5q84 0 143.5 -26t98 -71.5t56.5 -105t18 -127.5q0 -71 -19 -136t-57 -116t-95 -80.5t-132 -29.5z" />
    <glyph glyph-name="T" unicode="T" horiz-adv-x="585" 
d="M198 632q-48 0 -72.5 -15.5t-35 -42.5t-17.5 -64q-11 0 -25 2t-23 7q8 42 12 84t4 76q28 -1 68.5 -2t88 -1h98.5h99.5t89.5 1t68 2q-1 -36 0.5 -74t5.5 -86q-10 -5 -22.5 -7.5t-27.5 -1.5q-1 59 -27.5 90.5t-85.5 31.5h-198zM249 649h94v-522q0 -33 6 -51.5t23 -26
t49 -9.5q3 -8 4 -18.5t1 -24.5q-32 2 -65.5 2.5t-65.5 0.5q-21 0 -44.5 -0.5t-45.5 -1t-41 -1.5q0 14 1 24.5t4 18.5q32 2 49.5 9.5t24 26t6.5 51.5v522z" />
    <glyph glyph-name="Tbar" unicode="&#x166;" horiz-adv-x="585" 
d="M198 632q-48 0 -72.5 -15.5t-35 -42.5t-17.5 -64q-11 0 -25 2t-23 7q8 42 12 84t4 76q28 -1 68.5 -2t88 -1h98.5h99.5t89.5 1t68 2q-1 -36 0.5 -74t5.5 -86q-10 -5 -22.5 -7.5t-27.5 -1.5q-1 59 -27.5 90.5t-85.5 31.5h-198zM249 649h94v-522q0 -33 6 -51.5t23 -26
t49 -9.5q3 -8 4 -18.5t1 -24.5q-32 2 -65.5 2.5t-65.5 0.5q-21 0 -44.5 -0.5t-45.5 -1t-41 -1.5q0 14 1 24.5t4 18.5q32 2 49.5 9.5t24 26t6.5 51.5v522zM114 324q0 11 3.5 27.5t7.5 23.5h152h42h161q0 -15 -2 -27t-9 -23q-28 1 -51.5 1h-47h-53.5h-41h-50t-49 -0.5
t-63 -1.5z" />
    <glyph glyph-name="Tcaron" unicode="&#x164;" horiz-adv-x="585" 
d="M198 632q-48 0 -72.5 -15.5t-35 -42.5t-17.5 -64q-11 0 -25 2t-23 7q8 42 12 84t4 76q28 -1 68.5 -2t88 -1h98.5h99.5t89.5 1t68 2q-1 -36 0.5 -74t5.5 -86q-10 -5 -22.5 -7.5t-27.5 -1.5q-1 59 -27.5 90.5t-85.5 31.5h-198zM249 649h94v-522q0 -33 6 -51.5t23 -26
t49 -9.5q3 -8 4 -18.5t1 -24.5q-32 2 -65.5 2.5t-65.5 0.5q-21 0 -44.5 -0.5t-45.5 -1t-41 -1.5q0 14 1 24.5t4 18.5q32 2 49.5 9.5t24 26t6.5 51.5v522zM274 731q-24 28 -57 60t-73 64q5 8 14 14t20 9q28 -16 61 -36t61 -33q14 7 40 20.5t52 28t41 23.5q8 -4 11.5 -15
t4.5 -19q-34 -22 -72 -52t-68 -60q-8 -2 -17.5 -3t-17.5 -1z" />
    <glyph glyph-name="uni0162" unicode="&#x162;" horiz-adv-x="585" 
d="M198 632q-48 0 -72.5 -15.5t-35 -42.5t-17.5 -64q-11 0 -25 2t-23 7q8 42 12 84t4 76q28 -1 68.5 -2t88 -1h98.5h99.5t89.5 1t68 2q-1 -36 0.5 -74t5.5 -86q-10 -5 -22.5 -7.5t-27.5 -1.5q-1 59 -27.5 90.5t-85.5 31.5h-198zM249 649h94v-522q0 -33 6 -51.5t23 -26
t49 -9.5q3 -8 4 -18.5t1 -24.5q-32 2 -65.5 2.5t-65.5 0.5q-21 0 -44.5 -0.5t-45.5 -1t-41 -1.5q0 14 1 24.5t4 18.5q32 2 49.5 9.5t24 26t6.5 51.5v522zM236 -242q-4 7 -5.5 16t-1.5 16q30 0 54.5 14.5t24.5 40.5q0 25 -18.5 39.5t-46.5 14.5q-7 6 -12.5 15.5t-5.5 22.5
l50 79h50l-48 -66q40 -7 63.5 -31t23.5 -60q0 -33 -21 -55.5t-51 -34t-56 -11.5z" />
    <glyph glyph-name="uni021A" unicode="&#x21a;" horiz-adv-x="585" 
d="M198 632q-48 0 -72.5 -15.5t-35 -42.5t-17.5 -64q-11 0 -25 2t-23 7q8 42 12 84t4 76q28 -1 68.5 -2t88 -1h98.5h99.5t89.5 1t68 2q-1 -36 0.5 -74t5.5 -86q-10 -5 -22.5 -7.5t-27.5 -1.5q-1 59 -27.5 90.5t-85.5 31.5h-198zM249 649h94v-522q0 -33 6 -51.5t23 -26
t49 -9.5q3 -8 4 -18.5t1 -24.5q-32 2 -65.5 2.5t-65.5 0.5q-21 0 -44.5 -0.5t-45.5 -1t-41 -1.5q0 14 1 24.5t4 18.5q32 2 49.5 9.5t24 26t6.5 51.5v522zM320 -43q17 -7 25.5 -24.5t8.5 -42.5q0 -52 -32.5 -95t-74.5 -75q-20 4 -28 21q25 25 37.5 48.5t12.5 41.5
q0 32 -37 36q-1 8 1.5 28t6.5 32q23 5 43.5 12.5t36.5 17.5z" />
    <glyph glyph-name="uni1E6C" unicode="&#x1e6c;" horiz-adv-x="585" 
d="M198 632q-48 0 -72.5 -15.5t-35 -42.5t-17.5 -64q-11 0 -25 2t-23 7q8 42 12 84t4 76q28 -1 68.5 -2t88 -1h98.5h99.5t89.5 1t68 2q-1 -36 0.5 -74t5.5 -86q-10 -5 -22.5 -7.5t-27.5 -1.5q-1 59 -27.5 90.5t-85.5 31.5h-198zM249 649h94v-522q0 -33 6 -51.5t23 -26
t49 -9.5q3 -8 4 -18.5t1 -24.5q-32 2 -65.5 2.5t-65.5 0.5q-21 0 -44.5 -0.5t-45.5 -1t-41 -1.5q0 14 1 24.5t4 18.5q32 2 49.5 9.5t24 26t6.5 51.5v522zM294 -210q-25 0 -42 17t-17 41q0 27 18 44t41 17q27 0 43.5 -17t16.5 -44q0 -23 -17.5 -40.5t-42.5 -17.5z" />
    <glyph glyph-name="uni1E6E" unicode="&#x1e6e;" horiz-adv-x="585" 
d="M198 632q-48 0 -72.5 -15.5t-35 -42.5t-17.5 -64q-11 0 -25 2t-23 7q8 42 12 84t4 76q28 -1 68.5 -2t88 -1h98.5h99.5t89.5 1t68 2q-1 -36 0.5 -74t5.5 -86q-10 -5 -22.5 -7.5t-27.5 -1.5q-1 59 -27.5 90.5t-85.5 31.5h-198zM249 649h94v-522q0 -33 6 -51.5t23 -26
t49 -9.5q3 -8 4 -18.5t1 -24.5q-32 2 -65.5 2.5t-65.5 0.5q-21 0 -44.5 -0.5t-45.5 -1t-41 -1.5q0 14 1 24.5t4 18.5q32 2 49.5 9.5t24 26t6.5 51.5v522zM113 -165q0 6 2.5 21.5t6.5 24.5h355q0 -10 -2 -21t-7 -22h-68t-126.5 -0.5t-160.5 -2.5z" />
    <glyph glyph-name="U" unicode="U" horiz-adv-x="675" 
d="M570 269q0 -86 -11 -136t-46 -85q-28 -28 -69.5 -42.5t-92.5 -14.5q-93 0 -146.5 27.5t-76 81.5t-22.5 131v318q0 36 -4.5 53.5t-17 24t-37.5 9.5q-3 11 -4 22t-1 21q20 -1 52.5 -2t63.5 -1h31t31 0.5t29 1t25 1.5q0 -10 -1 -21t-4 -22q-29 -2 -44 -8.5t-20 -24t-5 -54.5
v-304q0 -56 15 -102t52 -72.5t103 -26.5q25 0 55 8.5t51 29.5q16 16 25 37t13.5 55t4.5 87v248q0 48 -5 74.5t-19.5 38.5t-44.5 14q-3 15 -4 24t-1 19q12 -1 28 -1.5t33.5 -1t32.5 -0.5q23 0 49.5 1t45.5 2q0 -7 -1 -16.5t-4 -26.5q-23 -2 -36 -13.5t-18 -38t-5 -75.5v-240z
" />
    <glyph glyph-name="Uacute" unicode="&#xda;" horiz-adv-x="675" 
d="M570 269q0 -86 -11 -136t-46 -85q-28 -28 -69.5 -42.5t-92.5 -14.5q-93 0 -146.5 27.5t-76 81.5t-22.5 131v318q0 36 -4.5 53.5t-17 24t-37.5 9.5q-3 11 -4 22t-1 21q20 -1 52.5 -2t63.5 -1h31t31 0.5t29 1t25 1.5q0 -10 -1 -21t-4 -22q-29 -2 -44 -8.5t-20 -24t-5 -54.5
v-304q0 -56 15 -102t52 -72.5t103 -26.5q25 0 55 8.5t51 29.5q16 16 25 37t13.5 55t4.5 87v248q0 48 -5 74.5t-19.5 38.5t-44.5 14q-3 15 -4 24t-1 19q12 -1 28 -1.5t33.5 -1t32.5 -0.5q23 0 49.5 1t45.5 2q0 -7 -1 -16.5t-4 -26.5q-23 -2 -36 -13.5t-18 -38t-5 -75.5v-240z
M367 732q-13 0 -22 0.5t-18 4.5q17 35 31.5 69t24.5 65q12 3 24 5t24 2q26 0 47 -8q-27 -32 -53.5 -65t-57.5 -73z" />
    <glyph glyph-name="Ubreve" unicode="&#x16c;" horiz-adv-x="675" 
d="M570 269q0 -86 -11 -136t-46 -85q-28 -28 -69.5 -42.5t-92.5 -14.5q-93 0 -146.5 27.5t-76 81.5t-22.5 131v318q0 36 -4.5 53.5t-17 24t-37.5 9.5q-3 11 -4 22t-1 21q20 -1 52.5 -2t63.5 -1h31t31 0.5t29 1t25 1.5q0 -10 -1 -21t-4 -22q-29 -2 -44 -8.5t-20 -24t-5 -54.5
v-304q0 -56 15 -102t52 -72.5t103 -26.5q25 0 55 8.5t51 29.5q16 16 25 37t13.5 55t4.5 87v248q0 48 -5 74.5t-19.5 38.5t-44.5 14q-3 15 -4 24t-1 19q12 -1 28 -1.5t33.5 -1t32.5 -0.5q23 0 49.5 1t45.5 2q0 -7 -1 -16.5t-4 -26.5q-23 -2 -36 -13.5t-18 -38t-5 -75.5v-240z
M508 865q0 -66 -39 -101.5t-111 -35.5q-70 0 -108.5 34.5t-38.5 98.5q10 5 22 7.5t23 1.5q6 -36 36 -57t75 -21t73 21t30 57q11 1 21 -0.5t17 -4.5z" />
    <glyph glyph-name="uni01D3" unicode="&#x1d3;" horiz-adv-x="675" 
d="M570 269q0 -86 -11 -136t-46 -85q-28 -28 -69.5 -42.5t-92.5 -14.5q-93 0 -146.5 27.5t-76 81.5t-22.5 131v318q0 36 -4.5 53.5t-17 24t-37.5 9.5q-3 11 -4 22t-1 21q20 -1 52.5 -2t63.5 -1h31t31 0.5t29 1t25 1.5q0 -10 -1 -21t-4 -22q-29 -2 -44 -8.5t-20 -24t-5 -54.5
v-304q0 -56 15 -102t52 -72.5t103 -26.5q25 0 55 8.5t51 29.5q16 16 25 37t13.5 55t4.5 87v248q0 48 -5 74.5t-19.5 38.5t-44.5 14q-3 15 -4 24t-1 19q12 -1 28 -1.5t33.5 -1t32.5 -0.5q23 0 49.5 1t45.5 2q0 -7 -1 -16.5t-4 -26.5q-23 -2 -36 -13.5t-18 -38t-5 -75.5v-240z
M337 731q-24 28 -57 60t-73 64q5 8 14 14t20 9q28 -16 61 -36t61 -33q14 7 40 20.5t52 28t41 23.5q8 -4 11.5 -15t4.5 -19q-34 -22 -72 -52t-68 -60q-8 -2 -17.5 -3t-17.5 -1z" />
    <glyph glyph-name="Ucircumflex" unicode="&#xdb;" horiz-adv-x="675" 
d="M570 269q0 -86 -11 -136t-46 -85q-28 -28 -69.5 -42.5t-92.5 -14.5q-93 0 -146.5 27.5t-76 81.5t-22.5 131v318q0 36 -4.5 53.5t-17 24t-37.5 9.5q-3 11 -4 22t-1 21q20 -1 52.5 -2t63.5 -1h31t31 0.5t29 1t25 1.5q0 -10 -1 -21t-4 -22q-29 -2 -44 -8.5t-20 -24t-5 -54.5
v-304q0 -56 15 -102t52 -72.5t103 -26.5q25 0 55 8.5t51 29.5q16 16 25 37t13.5 55t4.5 87v248q0 48 -5 74.5t-19.5 38.5t-44.5 14q-3 15 -4 24t-1 19q12 -1 28 -1.5t33.5 -1t32.5 -0.5q23 0 49.5 1t45.5 2q0 -7 -1 -16.5t-4 -26.5q-23 -2 -36 -13.5t-18 -38t-5 -75.5v-240z
M223 728q-8 5 -11.5 16t-4.5 18q34 22 72 52t68 60q8 2 18 3t17 1q24 -28 57 -60t73 -64q-5 -8 -14 -14t-20 -9q-28 17 -60.5 36.5t-61.5 32.5q-14 -6 -40 -20l-52 -28t-41 -24z" />
    <glyph glyph-name="uni0214" unicode="&#x214;" horiz-adv-x="675" 
d="M570 269q0 -86 -11 -136t-46 -85q-28 -28 -69.5 -42.5t-92.5 -14.5q-93 0 -146.5 27.5t-76 81.5t-22.5 131v318q0 36 -4.5 53.5t-17 24t-37.5 9.5q-3 11 -4 22t-1 21q20 -1 52.5 -2t63.5 -1h31t31 0.5t29 1t25 1.5q0 -10 -1 -21t-4 -22q-29 -2 -44 -8.5t-20 -24t-5 -54.5
v-304q0 -56 15 -102t52 -72.5t103 -26.5q25 0 55 8.5t51 29.5q16 16 25 37t13.5 55t4.5 87v248q0 48 -5 74.5t-19.5 38.5t-44.5 14q-3 15 -4 24t-1 19q12 -1 28 -1.5t33.5 -1t32.5 -0.5q23 0 49.5 1t45.5 2q0 -7 -1 -16.5t-4 -26.5q-23 -2 -36 -13.5t-18 -38t-5 -75.5v-240z
M275 722q-31 40 -57.5 70.5t-53.5 57.5q17 9 41.5 11.5t48.5 0.5q13 -31 27.5 -65.5t33.5 -69.5q-9 -4 -18 -4.5t-22 -0.5zM425 722q-31 40 -57.5 70.5t-53.5 57.5q17 9 41.5 11.5t48.5 0.5q13 -31 27.5 -65.5t33.5 -69.5q-9 -4 -18 -4.5t-22 -0.5z" />
    <glyph glyph-name="Udieresis" unicode="&#xdc;" horiz-adv-x="675" 
d="M570 269q0 -86 -11 -136t-46 -85q-28 -28 -69.5 -42.5t-92.5 -14.5q-93 0 -146.5 27.5t-76 81.5t-22.5 131v318q0 36 -4.5 53.5t-17 24t-37.5 9.5q-3 11 -4 22t-1 21q20 -1 52.5 -2t63.5 -1h31t31 0.5t29 1t25 1.5q0 -10 -1 -21t-4 -22q-29 -2 -44 -8.5t-20 -24t-5 -54.5
v-304q0 -56 15 -102t52 -72.5t103 -26.5q25 0 55 8.5t51 29.5q16 16 25 37t13.5 55t4.5 87v248q0 48 -5 74.5t-19.5 38.5t-44.5 14q-3 15 -4 24t-1 19q12 -1 28 -1.5t33.5 -1t32.5 -0.5q23 0 49.5 1t45.5 2q0 -7 -1 -16.5t-4 -26.5q-23 -2 -36 -13.5t-18 -38t-5 -75.5v-240z
M459 732q-29 0 -44 16t-15 41q0 24 15.5 37.5t40.5 13.5t41 -14t16 -37q0 -21 -12 -39t-42 -18zM263 732q-25 0 -41 14.5t-16 36.5t13 39.5t42 17.5q30 0 43.5 -16t13.5 -39t-16 -38t-39 -15z" />
    <glyph glyph-name="uni01D7" unicode="&#x1d7;" horiz-adv-x="675" 
d="M570 269q0 -86 -11 -136t-46 -85q-28 -28 -69.5 -42.5t-92.5 -14.5q-93 0 -146.5 27.5t-76 81.5t-22.5 131v318q0 36 -4.5 53.5t-17 24t-37.5 9.5q-3 11 -4 22t-1 21q20 -1 52.5 -2t63.5 -1h31t31 0.5t29 1t25 1.5q0 -10 -1 -21t-4 -22q-29 -2 -44 -8.5t-20 -24t-5 -54.5
v-304q0 -56 15 -102t52 -72.5t103 -26.5q25 0 55 8.5t51 29.5q16 16 25 37t13.5 55t4.5 87v248q0 48 -5 74.5t-19.5 38.5t-44.5 14q-3 15 -4 24t-1 19q12 -1 28 -1.5t33.5 -1t32.5 -0.5q23 0 49.5 1t45.5 2q0 -7 -1 -16.5t-4 -26.5q-23 -2 -36 -13.5t-18 -38t-5 -75.5v-240z
M459 732q-29 0 -44 16t-15 41q0 24 15.5 37.5t40.5 13.5t41 -14t16 -37q0 -21 -12 -39t-42 -18zM263 732q-25 0 -41 14.5t-16 36.5t13 39.5t42 17.5q30 0 43.5 -16t13.5 -39t-16 -38t-39 -15zM367 886q-13 0 -22 0.5t-18 4.5q17 35 31.5 69t24.5 65q12 3 24 5t24 2
q26 0 47 -8q-27 -32 -53.5 -65t-57.5 -73z" />
    <glyph glyph-name="uni01D9" unicode="&#x1d9;" horiz-adv-x="675" 
d="M570 269q0 -86 -11 -136t-46 -85q-28 -28 -69.5 -42.5t-92.5 -14.5q-93 0 -146.5 27.5t-76 81.5t-22.5 131v318q0 36 -4.5 53.5t-17 24t-37.5 9.5q-3 11 -4 22t-1 21q20 -1 52.5 -2t63.5 -1h31t31 0.5t29 1t25 1.5q0 -10 -1 -21t-4 -22q-29 -2 -44 -8.5t-20 -24t-5 -54.5
v-304q0 -56 15 -102t52 -72.5t103 -26.5q25 0 55 8.5t51 29.5q16 16 25 37t13.5 55t4.5 87v248q0 48 -5 74.5t-19.5 38.5t-44.5 14q-3 15 -4 24t-1 19q12 -1 28 -1.5t33.5 -1t32.5 -0.5q23 0 49.5 1t45.5 2q0 -7 -1 -16.5t-4 -26.5q-23 -2 -36 -13.5t-18 -38t-5 -75.5v-240z
M459 732q-29 0 -44 16t-15 41q0 24 15.5 37.5t40.5 13.5t41 -14t16 -37q0 -21 -12 -39t-42 -18zM263 732q-25 0 -41 14.5t-16 36.5t13 39.5t42 17.5q30 0 43.5 -16t13.5 -39t-16 -38t-39 -15zM337 885q-24 28 -57 60t-73 64q5 8 14 14t20 9q28 -16 61 -36t61 -33
q14 7 40 20.5t52 28t41 23.5q8 -4 11.5 -15t4.5 -19q-34 -22 -72 -52t-68 -60q-8 -2 -17.5 -3t-17.5 -1z" />
    <glyph glyph-name="uni01DB" unicode="&#x1db;" horiz-adv-x="675" 
d="M570 269q0 -86 -11 -136t-46 -85q-28 -28 -69.5 -42.5t-92.5 -14.5q-93 0 -146.5 27.5t-76 81.5t-22.5 131v318q0 36 -4.5 53.5t-17 24t-37.5 9.5q-3 11 -4 22t-1 21q20 -1 52.5 -2t63.5 -1h31t31 0.5t29 1t25 1.5q0 -10 -1 -21t-4 -22q-29 -2 -44 -8.5t-20 -24t-5 -54.5
v-304q0 -56 15 -102t52 -72.5t103 -26.5q25 0 55 8.5t51 29.5q16 16 25 37t13.5 55t4.5 87v248q0 48 -5 74.5t-19.5 38.5t-44.5 14q-3 15 -4 24t-1 19q12 -1 28 -1.5t33.5 -1t32.5 -0.5q23 0 49.5 1t45.5 2q0 -7 -1 -16.5t-4 -26.5q-23 -2 -36 -13.5t-18 -38t-5 -75.5v-240z
M459 732q-29 0 -44 16t-15 41q0 24 15.5 37.5t40.5 13.5t41 -14t16 -37q0 -21 -12 -39t-42 -18zM263 732q-25 0 -41 14.5t-16 36.5t13 39.5t42 17.5q30 0 43.5 -16t13.5 -39t-16 -38t-39 -15zM353 886q-31 40 -57.5 70.5t-53.5 57.5q17 9 41.5 11.5t48.5 0.5
q13 -31 27.5 -65.5t33.5 -69.5q-9 -4 -18 -4.5t-22 -0.5z" />
    <glyph glyph-name="uni01D5" unicode="&#x1d5;" horiz-adv-x="675" 
d="M570 269q0 -86 -11 -136t-46 -85q-28 -28 -69.5 -42.5t-92.5 -14.5q-93 0 -146.5 27.5t-76 81.5t-22.5 131v318q0 36 -4.5 53.5t-17 24t-37.5 9.5q-3 11 -4 22t-1 21q20 -1 52.5 -2t63.5 -1h31t31 0.5t29 1t25 1.5q0 -10 -1 -21t-4 -22q-29 -2 -44 -8.5t-20 -24t-5 -54.5
v-304q0 -56 15 -102t52 -72.5t103 -26.5q25 0 55 8.5t51 29.5q16 16 25 37t13.5 55t4.5 87v248q0 48 -5 74.5t-19.5 38.5t-44.5 14q-3 15 -4 24t-1 19q12 -1 28 -1.5t33.5 -1t32.5 -0.5q23 0 49.5 1t45.5 2q0 -7 -1 -16.5t-4 -26.5q-23 -2 -36 -13.5t-18 -38t-5 -75.5v-240z
M459 732q-29 0 -44 16t-15 41q0 24 15.5 37.5t40.5 13.5t41 -14t16 -37q0 -21 -12 -39t-42 -18zM263 732q-25 0 -41 14.5t-16 36.5t13 39.5t42 17.5q30 0 43.5 -16t13.5 -39t-16 -38t-39 -15zM542 959q0 -10 -2 -21t-7 -22h-68t-126.5 -0.5t-160.5 -2.5q0 6 2.5 21.5
t6.5 24.5h355z" />
    <glyph glyph-name="uni1EE4" unicode="&#x1ee4;" horiz-adv-x="675" 
d="M570 269q0 -86 -11 -136t-46 -85q-28 -28 -69.5 -42.5t-92.5 -14.5q-93 0 -146.5 27.5t-76 81.5t-22.5 131v318q0 36 -4.5 53.5t-17 24t-37.5 9.5q-3 11 -4 22t-1 21q20 -1 52.5 -2t63.5 -1h31t31 0.5t29 1t25 1.5q0 -10 -1 -21t-4 -22q-29 -2 -44 -8.5t-20 -24t-5 -54.5
v-304q0 -56 15 -102t52 -72.5t103 -26.5q25 0 55 8.5t51 29.5q16 16 25 37t13.5 55t4.5 87v248q0 48 -5 74.5t-19.5 38.5t-44.5 14q-3 15 -4 24t-1 19q12 -1 28 -1.5t33.5 -1t32.5 -0.5q23 0 49.5 1t45.5 2q0 -7 -1 -16.5t-4 -26.5q-23 -2 -36 -13.5t-18 -38t-5 -75.5v-240z
M341 -210q-25 0 -42 17t-17 41q0 27 18 44t41 17q27 0 43.5 -17t16.5 -44q0 -23 -17.5 -40.5t-42.5 -17.5z" />
    <glyph glyph-name="Ugrave" unicode="&#xd9;" horiz-adv-x="675" 
d="M570 269q0 -86 -11 -136t-46 -85q-28 -28 -69.5 -42.5t-92.5 -14.5q-93 0 -146.5 27.5t-76 81.5t-22.5 131v318q0 36 -4.5 53.5t-17 24t-37.5 9.5q-3 11 -4 22t-1 21q20 -1 52.5 -2t63.5 -1h31t31 0.5t29 1t25 1.5q0 -10 -1 -21t-4 -22q-29 -2 -44 -8.5t-20 -24t-5 -54.5
v-304q0 -56 15 -102t52 -72.5t103 -26.5q25 0 55 8.5t51 29.5q16 16 25 37t13.5 55t4.5 87v248q0 48 -5 74.5t-19.5 38.5t-44.5 14q-3 15 -4 24t-1 19q12 -1 28 -1.5t33.5 -1t32.5 -0.5q23 0 49.5 1t45.5 2q0 -7 -1 -16.5t-4 -26.5q-23 -2 -36 -13.5t-18 -38t-5 -75.5v-240z
M353 732q-31 40 -57.5 70.5t-53.5 57.5q17 9 41.5 11.5t48.5 0.5q13 -31 27.5 -65.5t33.5 -69.5q-9 -4 -18 -4.5t-22 -0.5z" />
    <glyph glyph-name="uni1EE6" unicode="&#x1ee6;" horiz-adv-x="675" 
d="M570 269q0 -86 -11 -136t-46 -85q-28 -28 -69.5 -42.5t-92.5 -14.5q-93 0 -146.5 27.5t-76 81.5t-22.5 131v318q0 36 -4.5 53.5t-17 24t-37.5 9.5q-3 11 -4 22t-1 21q20 -1 52.5 -2t63.5 -1h31t31 0.5t29 1t25 1.5q0 -10 -1 -21t-4 -22q-29 -2 -44 -8.5t-20 -24t-5 -54.5
v-304q0 -56 15 -102t52 -72.5t103 -26.5q25 0 55 8.5t51 29.5q16 16 25 37t13.5 55t4.5 87v248q0 48 -5 74.5t-19.5 38.5t-44.5 14q-3 15 -4 24t-1 19q12 -1 28 -1.5t33.5 -1t32.5 -0.5q23 0 49.5 1t45.5 2q0 -7 -1 -16.5t-4 -26.5q-23 -2 -36 -13.5t-18 -38t-5 -75.5v-240z
M340 726q-13 16 -13 31q0 16 9.5 25.5t22 17t22 15t9.5 19.5q0 10 -8 15t-22 5q-22 0 -33.5 -13t-15.5 -45q-12 0 -25.5 2.5t-21.5 6.5q2 17 2.5 28.5t-2.5 26.5q16 12 39 22t61 10q40 0 66 -14t26 -42q0 -19 -12 -32t-27 -22t-27 -17.5t-12 -20.5q0 -5 2 -13
q-10 -3 -19.5 -4t-20.5 -1z" />
    <glyph glyph-name="Uhorn" unicode="&#x1af;" horiz-adv-x="735" 
d="M570 269q0 -86 -11 -136t-46 -85q-28 -28 -69.5 -42.5t-92.5 -14.5q-93 0 -146.5 27.5t-76 81.5t-22.5 131v318q0 36 -4.5 53.5t-17 24t-37.5 9.5q-3 11 -4 22t-1 21q20 -1 52.5 -2t63.5 -1h31t31 0.5t29 1t25 1.5q0 -10 -1 -21t-4 -22q-29 -2 -44 -8.5t-20 -24t-5 -54.5
v-304q0 -56 15 -102t52 -72.5t103 -26.5q25 0 55 8.5t51 29.5q16 16 25 37t13.5 55t4.5 87v248q0 48 -5 74.5t-19.5 38.5t-44.5 14q-3 15 -4 24t-1 19q12 -1 28 -1.5t33.5 -1t32.5 -0.5q23 0 49.5 1t45.5 2q0 -7 -1 -16.5t-4 -26.5q-23 -2 -36 -13.5t-18 -38t-5 -75.5v-240z
M629 636l-83 40q46 0 76.5 13.5t30.5 58.5q0 20 -6 45q13 6 28 8.5t31 0.5q21 -29 21 -61q0 -29 -13 -50.5t-35.5 -35t-49.5 -19.5z" />
    <glyph glyph-name="uni1EE8" unicode="&#x1ee8;" horiz-adv-x="735" 
d="M570 269q0 -86 -11 -136t-46 -85q-28 -28 -69.5 -42.5t-92.5 -14.5q-93 0 -146.5 27.5t-76 81.5t-22.5 131v318q0 36 -4.5 53.5t-17 24t-37.5 9.5q-3 11 -4 22t-1 21q20 -1 52.5 -2t63.5 -1h31t31 0.5t29 1t25 1.5q0 -10 -1 -21t-4 -22q-29 -2 -44 -8.5t-20 -24t-5 -54.5
v-304q0 -56 15 -102t52 -72.5t103 -26.5q25 0 55 8.5t51 29.5q16 16 25 37t13.5 55t4.5 87v248q0 48 -5 74.5t-19.5 38.5t-44.5 14q-3 15 -4 24t-1 19q12 -1 28 -1.5t33.5 -1t32.5 -0.5q23 0 49.5 1t45.5 2q0 -7 -1 -16.5t-4 -26.5q-23 -2 -36 -13.5t-18 -38t-5 -75.5v-240z
M629 636l-83 40q46 0 76.5 13.5t30.5 58.5q0 20 -6 45q13 6 28 8.5t31 0.5q21 -29 21 -61q0 -29 -13 -50.5t-35.5 -35t-49.5 -19.5zM367 732q-13 0 -22 0.5t-18 4.5q17 35 31.5 69t24.5 65q12 3 24 5t24 2q26 0 47 -8q-27 -32 -53.5 -65t-57.5 -73z" />
    <glyph glyph-name="uni1EF0" unicode="&#x1ef0;" horiz-adv-x="735" 
d="M570 269q0 -86 -11 -136t-46 -85q-28 -28 -69.5 -42.5t-92.5 -14.5q-93 0 -146.5 27.5t-76 81.5t-22.5 131v318q0 36 -4.5 53.5t-17 24t-37.5 9.5q-3 11 -4 22t-1 21q20 -1 52.5 -2t63.5 -1h31t31 0.5t29 1t25 1.5q0 -10 -1 -21t-4 -22q-29 -2 -44 -8.5t-20 -24t-5 -54.5
v-304q0 -56 15 -102t52 -72.5t103 -26.5q25 0 55 8.5t51 29.5q16 16 25 37t13.5 55t4.5 87v248q0 48 -5 74.5t-19.5 38.5t-44.5 14q-3 15 -4 24t-1 19q12 -1 28 -1.5t33.5 -1t32.5 -0.5q23 0 49.5 1t45.5 2q0 -7 -1 -16.5t-4 -26.5q-23 -2 -36 -13.5t-18 -38t-5 -75.5v-240z
M629 636l-83 40q46 0 76.5 13.5t30.5 58.5q0 20 -6 45q13 6 28 8.5t31 0.5q21 -29 21 -61q0 -29 -13 -50.5t-35.5 -35t-49.5 -19.5zM341 -210q-25 0 -42 17t-17 41q0 27 18 44t41 17q27 0 43.5 -17t16.5 -44q0 -23 -17.5 -40.5t-42.5 -17.5z" />
    <glyph glyph-name="uni1EEA" unicode="&#x1eea;" horiz-adv-x="735" 
d="M570 269q0 -86 -11 -136t-46 -85q-28 -28 -69.5 -42.5t-92.5 -14.5q-93 0 -146.5 27.5t-76 81.5t-22.5 131v318q0 36 -4.5 53.5t-17 24t-37.5 9.5q-3 11 -4 22t-1 21q20 -1 52.5 -2t63.5 -1h31t31 0.5t29 1t25 1.5q0 -10 -1 -21t-4 -22q-29 -2 -44 -8.5t-20 -24t-5 -54.5
v-304q0 -56 15 -102t52 -72.5t103 -26.5q25 0 55 8.5t51 29.5q16 16 25 37t13.5 55t4.5 87v248q0 48 -5 74.5t-19.5 38.5t-44.5 14q-3 15 -4 24t-1 19q12 -1 28 -1.5t33.5 -1t32.5 -0.5q23 0 49.5 1t45.5 2q0 -7 -1 -16.5t-4 -26.5q-23 -2 -36 -13.5t-18 -38t-5 -75.5v-240z
M629 636l-83 40q46 0 76.5 13.5t30.5 58.5q0 20 -6 45q13 6 28 8.5t31 0.5q21 -29 21 -61q0 -29 -13 -50.5t-35.5 -35t-49.5 -19.5zM353 732q-31 40 -57.5 70.5t-53.5 57.5q17 9 41.5 11.5t48.5 0.5q13 -31 27.5 -65.5t33.5 -69.5q-9 -4 -18 -4.5t-22 -0.5z" />
    <glyph glyph-name="uni1EEC" unicode="&#x1eec;" horiz-adv-x="735" 
d="M570 269q0 -86 -11 -136t-46 -85q-28 -28 -69.5 -42.5t-92.5 -14.5q-93 0 -146.5 27.5t-76 81.5t-22.5 131v318q0 36 -4.5 53.5t-17 24t-37.5 9.5q-3 11 -4 22t-1 21q20 -1 52.5 -2t63.5 -1h31t31 0.5t29 1t25 1.5q0 -10 -1 -21t-4 -22q-29 -2 -44 -8.5t-20 -24t-5 -54.5
v-304q0 -56 15 -102t52 -72.5t103 -26.5q25 0 55 8.5t51 29.5q16 16 25 37t13.5 55t4.5 87v248q0 48 -5 74.5t-19.5 38.5t-44.5 14q-3 15 -4 24t-1 19q12 -1 28 -1.5t33.5 -1t32.5 -0.5q23 0 49.5 1t45.5 2q0 -7 -1 -16.5t-4 -26.5q-23 -2 -36 -13.5t-18 -38t-5 -75.5v-240z
M629 636l-83 40q46 0 76.5 13.5t30.5 58.5q0 20 -6 45q13 6 28 8.5t31 0.5q21 -29 21 -61q0 -29 -13 -50.5t-35.5 -35t-49.5 -19.5zM340 726q-13 16 -13 31q0 16 9.5 25.5t22 17t22 15t9.5 19.5q0 10 -8 15t-22 5q-22 0 -33.5 -13t-15.5 -45q-12 0 -25.5 2.5t-21.5 6.5
q2 17 2.5 28.5t-2.5 26.5q16 12 39 22t61 10q40 0 66 -14t26 -42q0 -19 -12 -32t-27 -22t-27 -17.5t-12 -20.5q0 -5 2 -13q-10 -3 -19.5 -4t-20.5 -1z" />
    <glyph glyph-name="uni1EEE" unicode="&#x1eee;" horiz-adv-x="735" 
d="M570 269q0 -86 -11 -136t-46 -85q-28 -28 -69.5 -42.5t-92.5 -14.5q-93 0 -146.5 27.5t-76 81.5t-22.5 131v318q0 36 -4.5 53.5t-17 24t-37.5 9.5q-3 11 -4 22t-1 21q20 -1 52.5 -2t63.5 -1h31t31 0.5t29 1t25 1.5q0 -10 -1 -21t-4 -22q-29 -2 -44 -8.5t-20 -24t-5 -54.5
v-304q0 -56 15 -102t52 -72.5t103 -26.5q25 0 55 8.5t51 29.5q16 16 25 37t13.5 55t4.5 87v248q0 48 -5 74.5t-19.5 38.5t-44.5 14q-3 15 -4 24t-1 19q12 -1 28 -1.5t33.5 -1t32.5 -0.5q23 0 49.5 1t45.5 2q0 -7 -1 -16.5t-4 -26.5q-23 -2 -36 -13.5t-18 -38t-5 -75.5v-240z
M629 636l-83 40q46 0 76.5 13.5t30.5 58.5q0 20 -6 45q13 6 28 8.5t31 0.5q21 -29 21 -61q0 -29 -13 -50.5t-35.5 -35t-49.5 -19.5zM417 748q-18 0 -35 5.5t-33 12t-32.5 12t-34.5 5.5q-19 0 -36.5 -8t-34.5 -24q-7 5 -10 13t-3 18q29 38 57 51.5t54 13.5t48 -8.5t42 -17
t41 -8.5q15 0 29 6.5t27 19.5q5 -1 13.5 -4t12.5 -10q-22 -41 -49 -59t-56 -18z" />
    <glyph glyph-name="Uhungarumlaut" unicode="&#x170;" horiz-adv-x="675" 
d="M570 269q0 -86 -11 -136t-46 -85q-28 -28 -69.5 -42.5t-92.5 -14.5q-93 0 -146.5 27.5t-76 81.5t-22.5 131v318q0 36 -4.5 53.5t-17 24t-37.5 9.5q-3 11 -4 22t-1 21q20 -1 52.5 -2t63.5 -1h31t31 0.5t29 1t25 1.5q0 -10 -1 -21t-4 -22q-29 -2 -44 -8.5t-20 -24t-5 -54.5
v-304q0 -56 15 -102t52 -72.5t103 -26.5q25 0 55 8.5t51 29.5q16 16 25 37t13.5 55t4.5 87v248q0 48 -5 74.5t-19.5 38.5t-44.5 14q-3 15 -4 24t-1 19q12 -1 28 -1.5t33.5 -1t32.5 -0.5q23 0 49.5 1t45.5 2q0 -7 -1 -16.5t-4 -26.5q-23 -2 -36 -13.5t-18 -38t-5 -75.5v-240z
M442 732q-9 0 -18.5 3.5t-17.5 10.5q17 35 29 64.5t22 57.5q20 8 37.5 10t31.5 2q11 0 19.5 -2t14.5 -5q-29 -31 -60.5 -68.5t-57.5 -72.5zM282 732q-9 0 -18.5 3.5t-17.5 10.5q17 35 29 64.5t22 57.5q20 8 37.5 10t31.5 2q11 0 19.5 -2t14.5 -5q-30 -31 -61 -68.5
t-57 -72.5z" />
    <glyph glyph-name="uni0216" unicode="&#x216;" horiz-adv-x="675" 
d="M570 269q0 -86 -11 -136t-46 -85q-28 -28 -69.5 -42.5t-92.5 -14.5q-93 0 -146.5 27.5t-76 81.5t-22.5 131v318q0 36 -4.5 53.5t-17 24t-37.5 9.5q-3 11 -4 22t-1 21q20 -1 52.5 -2t63.5 -1h31t31 0.5t29 1t25 1.5q0 -10 -1 -21t-4 -22q-29 -2 -44 -8.5t-20 -24t-5 -54.5
v-304q0 -56 15 -102t52 -72.5t103 -26.5q25 0 55 8.5t51 29.5q16 16 25 37t13.5 55t4.5 87v248q0 48 -5 74.5t-19.5 38.5t-44.5 14q-3 15 -4 24t-1 19q12 -1 28 -1.5t33.5 -1t32.5 -0.5q23 0 49.5 1t45.5 2q0 -7 -1 -16.5t-4 -26.5q-23 -2 -36 -13.5t-18 -38t-5 -75.5v-240z
M211 733q0 66 39 101.5t111 35.5q70 0 108.5 -34.5t38.5 -98.5q-10 -5 -22 -7.5t-23 -1.5q-6 36 -36 57t-75 21t-73 -21t-30 -57q-11 -1 -21 0.5t-17 4.5z" />
    <glyph glyph-name="Umacron" unicode="&#x16a;" horiz-adv-x="675" 
d="M570 269q0 -86 -11 -136t-46 -85q-28 -28 -69.5 -42.5t-92.5 -14.5q-93 0 -146.5 27.5t-76 81.5t-22.5 131v318q0 36 -4.5 53.5t-17 24t-37.5 9.5q-3 11 -4 22t-1 21q20 -1 52.5 -2t63.5 -1h31t31 0.5t29 1t25 1.5q0 -10 -1 -21t-4 -22q-29 -2 -44 -8.5t-20 -24t-5 -54.5
v-304q0 -56 15 -102t52 -72.5t103 -26.5q25 0 55 8.5t51 29.5q16 16 25 37t13.5 55t4.5 87v248q0 48 -5 74.5t-19.5 38.5t-44.5 14q-3 15 -4 24t-1 19q12 -1 28 -1.5t33.5 -1t32.5 -0.5q23 0 49.5 1t45.5 2q0 -7 -1 -16.5t-4 -26.5q-23 -2 -36 -13.5t-18 -38t-5 -75.5v-240z
M542 805q0 -10 -2 -21t-7 -22h-68t-126.5 -0.5t-160.5 -2.5q0 6 2.5 21.5t6.5 24.5h355z" />
    <glyph glyph-name="uni1E7A" unicode="&#x1e7a;" horiz-adv-x="675" 
d="M570 269q0 -86 -11 -136t-46 -85q-28 -28 -69.5 -42.5t-92.5 -14.5q-93 0 -146.5 27.5t-76 81.5t-22.5 131v318q0 36 -4.5 53.5t-17 24t-37.5 9.5q-3 11 -4 22t-1 21q20 -1 52.5 -2t63.5 -1h31t31 0.5t29 1t25 1.5q0 -10 -1 -21t-4 -22q-29 -2 -44 -8.5t-20 -24t-5 -54.5
v-304q0 -56 15 -102t52 -72.5t103 -26.5q25 0 55 8.5t51 29.5q16 16 25 37t13.5 55t4.5 87v248q0 48 -5 74.5t-19.5 38.5t-44.5 14q-3 15 -4 24t-1 19q12 -1 28 -1.5t33.5 -1t32.5 -0.5q23 0 49.5 1t45.5 2q0 -7 -1 -16.5t-4 -26.5q-23 -2 -36 -13.5t-18 -38t-5 -75.5v-240z
M542 805q0 -10 -2 -21t-7 -22h-68t-126.5 -0.5t-160.5 -2.5q0 6 2.5 21.5t6.5 24.5h355zM459 861q-29 0 -44 16t-15 41q0 24 15.5 37.5t40.5 13.5t41 -14t16 -37q0 -21 -12 -39t-42 -18zM263 861q-25 0 -41 14.5t-16 36.5t13 39.5t42 17.5q30 0 43.5 -16t13.5 -39t-16 -38
t-39 -15z" />
    <glyph glyph-name="Uogonek" unicode="&#x172;" horiz-adv-x="675" 
d="M474 38l16 -9q-42 -31 -64 -61t-22 -67t19 -50.5t44 -13.5q9 0 20 2t22 6q3 -5 4.5 -11t2.5 -13t0 -15q-19 -10 -37.5 -23t-36.5 -30q-4 -1 -9 -1.5t-10 -0.5q-21 0 -43.5 10.5t-38 34.5t-15.5 64q0 24 7 46.5t24 44.5t45.5 43.5t71.5 43.5zM570 269q0 -86 -11 -136
t-46 -85q-28 -28 -69.5 -42.5t-92.5 -14.5q-93 0 -146.5 27.5t-76 81.5t-22.5 131v318q0 36 -4.5 53.5t-17 24t-37.5 9.5q-3 11 -4 22t-1 21q20 -1 52.5 -2t63.5 -1h31t31 0.5t29 1t25 1.5q0 -10 -1 -21t-4 -22q-29 -2 -44 -8.5t-20 -24t-5 -54.5v-304q0 -56 15 -102
t52 -72.5t103 -26.5q25 0 55 8.5t51 29.5q16 16 25 37t13.5 55t4.5 87v248q0 48 -5 74.5t-19.5 38.5t-44.5 14q-3 15 -4 24t-1 19q12 -1 28 -1.5t33.5 -1t32.5 -0.5q23 0 49.5 1t45.5 2q0 -7 -1 -16.5t-4 -26.5q-23 -2 -36 -13.5t-18 -38t-5 -75.5v-240z" />
    <glyph glyph-name="Uring" unicode="&#x16e;" horiz-adv-x="675" 
d="M570 269q0 -86 -11 -136t-46 -85q-28 -28 -69.5 -42.5t-92.5 -14.5q-93 0 -146.5 27.5t-76 81.5t-22.5 131v318q0 36 -4.5 53.5t-17 24t-37.5 9.5q-3 11 -4 22t-1 21q20 -1 52.5 -2t63.5 -1h31t31 0.5t29 1t25 1.5q0 -10 -1 -21t-4 -22q-29 -2 -44 -8.5t-20 -24t-5 -54.5
v-304q0 -56 15 -102t52 -72.5t103 -26.5q25 0 55 8.5t51 29.5q16 16 25 37t13.5 55t4.5 87v248q0 48 -5 74.5t-19.5 38.5t-44.5 14q-3 15 -4 24t-1 19q12 -1 28 -1.5t33.5 -1t32.5 -0.5q23 0 49.5 1t45.5 2q0 -7 -1 -16.5t-4 -26.5q-23 -2 -36 -13.5t-18 -38t-5 -75.5v-240z
M356 723q-36 0 -63.5 20t-27.5 54q0 35 28.5 57t69.5 22q35 0 63.5 -17.5t28.5 -55.5q0 -34 -28.5 -57t-70.5 -23zM365 754q15 0 27 11t12 30q0 17 -11.5 35t-36.5 18q-17 0 -28 -12.5t-11 -34.5q0 -20 12.5 -33.5t35.5 -13.5z" />
    <glyph glyph-name="Utilde" unicode="&#x168;" horiz-adv-x="675" 
d="M570 269q0 -86 -11 -136t-46 -85q-28 -28 -69.5 -42.5t-92.5 -14.5q-93 0 -146.5 27.5t-76 81.5t-22.5 131v318q0 36 -4.5 53.5t-17 24t-37.5 9.5q-3 11 -4 22t-1 21q20 -1 52.5 -2t63.5 -1h31t31 0.5t29 1t25 1.5q0 -10 -1 -21t-4 -22q-29 -2 -44 -8.5t-20 -24t-5 -54.5
v-304q0 -56 15 -102t52 -72.5t103 -26.5q25 0 55 8.5t51 29.5q16 16 25 37t13.5 55t4.5 87v248q0 48 -5 74.5t-19.5 38.5t-44.5 14q-3 15 -4 24t-1 19q12 -1 28 -1.5t33.5 -1t32.5 -0.5q23 0 49.5 1t45.5 2q0 -7 -1 -16.5t-4 -26.5q-23 -2 -36 -13.5t-18 -38t-5 -75.5v-240z
M417 748q-18 0 -35 5.5t-33 12t-32.5 12t-34.5 5.5q-19 0 -36.5 -8t-34.5 -24q-7 5 -10 13t-3 18q29 38 57 51.5t54 13.5t48 -8.5t42 -17t41 -8.5q15 0 29 6.5t27 19.5q5 -1 13.5 -4t12.5 -10q-22 -41 -49 -59t-56 -18z" />
    <glyph glyph-name="uni1E78" unicode="&#x1e78;" horiz-adv-x="675" 
d="M570 269q0 -86 -11 -136t-46 -85q-28 -28 -69.5 -42.5t-92.5 -14.5q-93 0 -146.5 27.5t-76 81.5t-22.5 131v318q0 36 -4.5 53.5t-17 24t-37.5 9.5q-3 11 -4 22t-1 21q20 -1 52.5 -2t63.5 -1h31t31 0.5t29 1t25 1.5q0 -10 -1 -21t-4 -22q-29 -2 -44 -8.5t-20 -24t-5 -54.5
v-304q0 -56 15 -102t52 -72.5t103 -26.5q25 0 55 8.5t51 29.5q16 16 25 37t13.5 55t4.5 87v248q0 48 -5 74.5t-19.5 38.5t-44.5 14q-3 15 -4 24t-1 19q12 -1 28 -1.5t33.5 -1t32.5 -0.5q23 0 49.5 1t45.5 2q0 -7 -1 -16.5t-4 -26.5q-23 -2 -36 -13.5t-18 -38t-5 -75.5v-240z
M417 748q-18 0 -35 5.5t-33 12t-32.5 12t-34.5 5.5q-19 0 -36.5 -8t-34.5 -24q-7 5 -10 13t-3 18q29 38 57 51.5t54 13.5t48 -8.5t42 -17t41 -8.5q15 0 29 6.5t27 19.5q5 -1 13.5 -4t12.5 -10q-22 -41 -49 -59t-56 -18zM367 893q-13 0 -22 0.5t-18 4.5q17 35 31.5 69
t24.5 65q12 3 24 5t24 2q26 0 47 -8q-27 -32 -53.5 -65t-57.5 -73z" />
    <glyph glyph-name="V" unicode="V" horiz-adv-x="686" 
d="M322 -6q-36 97 -72.5 191.5t-70.5 180.5t-64 155q-21 49 -33 73t-23 32t-29 10q-3 12 -4 23.5t-1 19.5q10 -1 24 -1.5t30.5 -1t33.5 -0.5h33q32 0 62.5 1t58.5 2q0 -9 -1.5 -20.5t-3.5 -22.5q-33 -2 -49 -10.5t-13.5 -31t22.5 -68.5q27 -64 53 -130t51.5 -133.5
t51.5 -139.5h-15q29 65 55.5 129t52 129.5t49.5 132.5q19 56 11.5 86.5t-52.5 35.5q-3 11 -4 23t-1 20q15 -1 28.5 -1.5t27.5 -1t29 -0.5q23 0 51.5 1t50.5 2q0 -11 -1 -21.5t-4 -21.5q-31 -7 -49 -37.5t-37 -80.5q-50 -129 -102.5 -259t-106.5 -261q-10 -2 -18.5 -3
t-20.5 -1z" />
    <glyph glyph-name="W" unicode="W" horiz-adv-x="1003" 
d="M25 679q12 -1 26.5 -1.5t30 -1t30 -0.5h26.5q16 0 37 0.5t43.5 1t40.5 1.5q0 -8 -1 -19.5t-4 -23.5q-35 -2 -50.5 -9t-13.5 -28t17 -66q20 -61 42.5 -132t44.5 -142.5t40 -133.5h-22l188 554q8 3 18 4t26 1q33 -86 68 -182t69.5 -191.5t64.5 -182.5h-20l115 366
q23 75 12 105.5t-60 36.5q-4 10 -5.5 22.5t-1.5 20.5q21 -1 45.5 -2t51.5 -1q23 0 49 1t46 2q0 -10 -1.5 -21t-5.5 -22q-17 -4 -29.5 -17t-24.5 -43t-30 -85l-156 -494q-8 -3 -18.5 -4.5t-21.5 -1.5q-30 86 -64 179t-68.5 186.5t-67.5 178.5h9l-180 -538q-5 -2 -12.5 -3.5
t-15 -2t-15.5 -0.5q-40 133 -82 266t-86 264q-18 54 -29 77t-21.5 29.5t-28.5 8.5q-3 10 -4 21.5t-1 21.5z" />
    <glyph glyph-name="Wacute" unicode="&#x1e82;" horiz-adv-x="1003" 
d="M25 679q12 -1 26.5 -1.5t30 -1t30 -0.5h26.5q16 0 37 0.5t43.5 1t40.5 1.5q0 -8 -1 -19.5t-4 -23.5q-35 -2 -50.5 -9t-13.5 -28t17 -66q20 -61 42.5 -132t44.5 -142.5t40 -133.5h-22l188 554q8 3 18 4t26 1q33 -86 68 -182t69.5 -191.5t64.5 -182.5h-20l115 366
q23 75 12 105.5t-60 36.5q-4 10 -5.5 22.5t-1.5 20.5q21 -1 45.5 -2t51.5 -1q23 0 49 1t46 2q0 -10 -1.5 -21t-5.5 -22q-17 -4 -29.5 -17t-24.5 -43t-30 -85l-156 -494q-8 -3 -18.5 -4.5t-21.5 -1.5q-30 86 -64 179t-68.5 186.5t-67.5 178.5h9l-180 -538q-5 -2 -12.5 -3.5
t-15 -2t-15.5 -0.5q-40 133 -82 266t-86 264q-18 54 -29 77t-21.5 29.5t-28.5 8.5q-3 10 -4 21.5t-1 21.5zM530 732q-13 0 -22 0.5t-18 4.5q17 35 31.5 69t24.5 65q12 3 24 5t24 2q26 0 47 -8q-27 -32 -53.5 -65t-57.5 -73z" />
    <glyph glyph-name="Wcircumflex" unicode="&#x174;" horiz-adv-x="1003" 
d="M25 679q12 -1 26.5 -1.5t30 -1t30 -0.5h26.5q16 0 37 0.5t43.5 1t40.5 1.5q0 -8 -1 -19.5t-4 -23.5q-35 -2 -50.5 -9t-13.5 -28t17 -66q20 -61 42.5 -132t44.5 -142.5t40 -133.5h-22l188 554q8 3 18 4t26 1q33 -86 68 -182t69.5 -191.5t64.5 -182.5h-20l115 366
q23 75 12 105.5t-60 36.5q-4 10 -5.5 22.5t-1.5 20.5q21 -1 45.5 -2t51.5 -1q23 0 49 1t46 2q0 -10 -1.5 -21t-5.5 -22q-17 -4 -29.5 -17t-24.5 -43t-30 -85l-156 -494q-8 -3 -18.5 -4.5t-21.5 -1.5q-30 86 -64 179t-68.5 186.5t-67.5 178.5h9l-180 -538q-5 -2 -12.5 -3.5
t-15 -2t-15.5 -0.5q-40 133 -82 266t-86 264q-18 54 -29 77t-21.5 29.5t-28.5 8.5q-3 10 -4 21.5t-1 21.5zM386 728q-8 5 -11.5 16t-4.5 18q34 22 72 52t68 60q8 2 18 3t17 1q24 -28 57 -60t73 -64q-5 -8 -14 -14t-20 -9q-28 17 -60.5 36.5t-61.5 32.5q-14 -6 -40 -20
l-52 -28t-41 -24z" />
    <glyph glyph-name="Wdieresis" unicode="&#x1e84;" horiz-adv-x="1003" 
d="M25 679q12 -1 26.5 -1.5t30 -1t30 -0.5h26.5q16 0 37 0.5t43.5 1t40.5 1.5q0 -8 -1 -19.5t-4 -23.5q-35 -2 -50.5 -9t-13.5 -28t17 -66q20 -61 42.5 -132t44.5 -142.5t40 -133.5h-22l188 554q8 3 18 4t26 1q33 -86 68 -182t69.5 -191.5t64.5 -182.5h-20l115 366
q23 75 12 105.5t-60 36.5q-4 10 -5.5 22.5t-1.5 20.5q21 -1 45.5 -2t51.5 -1q23 0 49 1t46 2q0 -10 -1.5 -21t-5.5 -22q-17 -4 -29.5 -17t-24.5 -43t-30 -85l-156 -494q-8 -3 -18.5 -4.5t-21.5 -1.5q-30 86 -64 179t-68.5 186.5t-67.5 178.5h9l-180 -538q-5 -2 -12.5 -3.5
t-15 -2t-15.5 -0.5q-40 133 -82 266t-86 264q-18 54 -29 77t-21.5 29.5t-28.5 8.5q-3 10 -4 21.5t-1 21.5zM622 732q-29 0 -44 16t-15 41q0 24 15.5 37.5t40.5 13.5t41 -14t16 -37q0 -21 -12 -39t-42 -18zM426 732q-25 0 -41 14.5t-16 36.5t13 39.5t42 17.5q30 0 43.5 -16
t13.5 -39t-16 -38t-39 -15z" />
    <glyph glyph-name="Wgrave" unicode="&#x1e80;" horiz-adv-x="1003" 
d="M25 679q12 -1 26.5 -1.5t30 -1t30 -0.5h26.5q16 0 37 0.5t43.5 1t40.5 1.5q0 -8 -1 -19.5t-4 -23.5q-35 -2 -50.5 -9t-13.5 -28t17 -66q20 -61 42.5 -132t44.5 -142.5t40 -133.5h-22l188 554q8 3 18 4t26 1q33 -86 68 -182t69.5 -191.5t64.5 -182.5h-20l115 366
q23 75 12 105.5t-60 36.5q-4 10 -5.5 22.5t-1.5 20.5q21 -1 45.5 -2t51.5 -1q23 0 49 1t46 2q0 -10 -1.5 -21t-5.5 -22q-17 -4 -29.5 -17t-24.5 -43t-30 -85l-156 -494q-8 -3 -18.5 -4.5t-21.5 -1.5q-30 86 -64 179t-68.5 186.5t-67.5 178.5h9l-180 -538q-5 -2 -12.5 -3.5
t-15 -2t-15.5 -0.5q-40 133 -82 266t-86 264q-18 54 -29 77t-21.5 29.5t-28.5 8.5q-3 10 -4 21.5t-1 21.5zM516 732q-31 40 -57.5 70.5t-53.5 57.5q17 9 41.5 11.5t48.5 0.5q13 -31 27.5 -65.5t33.5 -69.5q-9 -4 -18 -4.5t-22 -0.5z" />
    <glyph glyph-name="X" unicode="X" horiz-adv-x="667" 
d="M627 -3q-14 1 -35 1.5t-43.5 1t-43.5 0.5q-20 0 -42.5 -0.5t-43 -0.5t-35.5 -1q0 9 1 20.5t3 21.5q26 3 38.5 10.5t8 29t-30.5 64.5q-36 62 -74.5 124t-78 124t-80.5 124q-27 41 -43 64t-26 34t-19 15t-21 6q-4 12 -5 23t-1 21q18 -1 39 -1.5t42.5 -1t40.5 -0.5
q29 0 63.5 0.5t57.5 1.5q0 -9 -1 -20t-3 -22q-28 -5 -40 -15.5t-6 -32t30 -59.5q41 -62 80.5 -124t77.5 -124t75 -124q21 -35 36.5 -57t27 -34.5t22.5 -18t23 -7.5q3 -9 4.5 -20.5t1.5 -22.5zM40 -3q0 8 1 21.5t5 23.5q24 6 53 28.5t66 73.5l133 190l29 -39l-95 -140
q-25 -37 -32.5 -60.5t4.5 -36t45 -18.5q3 -10 4 -21.5t1 -21.5q-25 2 -53.5 2.5t-56.5 0.5q-19 0 -37.5 -0.5t-35.5 -1t-31 -1.5zM369 328l-30 41l95 149q41 65 36 88.5t-51 29.5q-3 11 -4 23t-1 20q17 -1 34.5 -1.5l35 -1t32.5 -0.5t33.5 0.5t36 1t29.5 1.5q0 -10 -0.5 -21
t-3.5 -22q-15 -4 -30 -13.5t-35 -32.5t-50 -69z" />
    <glyph glyph-name="Y" unicode="Y" horiz-adv-x="630" 
d="M365 264v-101q0 -53 5 -77.5t21.5 -32.5t50.5 -13q3 -9 4.5 -20t1.5 -23l-66 2t-61 1q-22 0 -48.5 -0.5t-50 -0.5t-37.5 -1q0 11 1.5 22t4.5 20q36 3 53 10.5t22 30t5 69.5v114h94zM357 244h-78l-174 334q-16 31 -31 44.5t-43 14.5q-4 11 -5 21t-1 20q14 0 31 -0.5
t35.5 -1t37.5 -0.5h44.5t50 0.5t39.5 1.5q0 -11 -1 -19.5t-4 -19.5q-39 -4 -44.5 -21.5t16.5 -60.5q27 -52 58.5 -117t62.5 -135h-8q32 71 60.5 131t51.5 106q27 53 20 71t-47 24q-3 11 -5 20.5t-2 20.5q18 -1 47 -1.5t51 -0.5q23 0 46 0.5t40 1.5q0 -10 -1 -19t-3 -20
q-27 -7 -51 -32t-50 -76z" />
    <glyph glyph-name="Yacute" unicode="&#xdd;" horiz-adv-x="630" 
d="M365 264v-101q0 -53 5 -77.5t21.5 -32.5t50.5 -13q3 -9 4.5 -20t1.5 -23l-66 2t-61 1q-22 0 -48.5 -0.5t-50 -0.5t-37.5 -1q0 11 1.5 22t4.5 20q36 3 53 10.5t22 30t5 69.5v114h94zM357 244h-78l-174 334q-16 31 -31 44.5t-43 14.5q-4 11 -5 21t-1 20q14 0 31 -0.5
t35.5 -1t37.5 -0.5h44.5t50 0.5t39.5 1.5q0 -11 -1 -19.5t-4 -19.5q-39 -4 -44.5 -21.5t16.5 -60.5q27 -52 58.5 -117t62.5 -135h-8q32 71 60.5 131t51.5 106q27 53 20 71t-47 24q-3 11 -5 20.5t-2 20.5q18 -1 47 -1.5t51 -0.5q23 0 46 0.5t40 1.5q0 -10 -1 -19t-3 -20
q-27 -7 -51 -32t-50 -76zM349 732q-13 0 -22 0.5t-18 4.5q17 35 31.5 69t24.5 65q12 3 24 5t24 2q26 0 47 -8q-27 -32 -53.5 -65t-57.5 -73z" />
    <glyph glyph-name="Ycircumflex" unicode="&#x176;" horiz-adv-x="630" 
d="M365 264v-101q0 -53 5 -77.5t21.5 -32.5t50.5 -13q3 -9 4.5 -20t1.5 -23l-66 2t-61 1q-22 0 -48.5 -0.5t-50 -0.5t-37.5 -1q0 11 1.5 22t4.5 20q36 3 53 10.5t22 30t5 69.5v114h94zM357 244h-78l-174 334q-16 31 -31 44.5t-43 14.5q-4 11 -5 21t-1 20q14 0 31 -0.5
t35.5 -1t37.5 -0.5h44.5t50 0.5t39.5 1.5q0 -11 -1 -19.5t-4 -19.5q-39 -4 -44.5 -21.5t16.5 -60.5q27 -52 58.5 -117t62.5 -135h-8q32 71 60.5 131t51.5 106q27 53 20 71t-47 24q-3 11 -5 20.5t-2 20.5q18 -1 47 -1.5t51 -0.5q23 0 46 0.5t40 1.5q0 -10 -1 -19t-3 -20
q-27 -7 -51 -32t-50 -76zM205 728q-8 5 -11.5 16t-4.5 18q34 22 72 52t68 60q8 2 18 3t17 1q24 -28 57 -60t73 -64q-5 -8 -14 -14t-20 -9q-28 17 -60.5 36.5t-61.5 32.5q-14 -6 -40 -20l-52 -28t-41 -24z" />
    <glyph glyph-name="Ydieresis" unicode="&#x178;" horiz-adv-x="630" 
d="M365 264v-101q0 -53 5 -77.5t21.5 -32.5t50.5 -13q3 -9 4.5 -20t1.5 -23l-66 2t-61 1q-22 0 -48.5 -0.5t-50 -0.5t-37.5 -1q0 11 1.5 22t4.5 20q36 3 53 10.5t22 30t5 69.5v114h94zM357 244h-78l-174 334q-16 31 -31 44.5t-43 14.5q-4 11 -5 21t-1 20q14 0 31 -0.5
t35.5 -1t37.5 -0.5h44.5t50 0.5t39.5 1.5q0 -11 -1 -19.5t-4 -19.5q-39 -4 -44.5 -21.5t16.5 -60.5q27 -52 58.5 -117t62.5 -135h-8q32 71 60.5 131t51.5 106q27 53 20 71t-47 24q-3 11 -5 20.5t-2 20.5q18 -1 47 -1.5t51 -0.5q23 0 46 0.5t40 1.5q0 -10 -1 -19t-3 -20
q-27 -7 -51 -32t-50 -76zM441 732q-29 0 -44 16t-15 41q0 24 15.5 37.5t40.5 13.5t41 -14t16 -37q0 -21 -12 -39t-42 -18zM245 732q-25 0 -41 14.5t-16 36.5t13 39.5t42 17.5q30 0 43.5 -16t13.5 -39t-16 -38t-39 -15z" />
    <glyph glyph-name="uni1E8E" unicode="&#x1e8e;" horiz-adv-x="630" 
d="M365 264v-101q0 -53 5 -77.5t21.5 -32.5t50.5 -13q3 -9 4.5 -20t1.5 -23l-66 2t-61 1q-22 0 -48.5 -0.5t-50 -0.5t-37.5 -1q0 11 1.5 22t4.5 20q36 3 53 10.5t22 30t5 69.5v114h94zM357 244h-78l-174 334q-16 31 -31 44.5t-43 14.5q-4 11 -5 21t-1 20q14 0 31 -0.5
t35.5 -1t37.5 -0.5h44.5t50 0.5t39.5 1.5q0 -11 -1 -19.5t-4 -19.5q-39 -4 -44.5 -21.5t16.5 -60.5q27 -52 58.5 -117t62.5 -135h-8q32 71 60.5 131t51.5 106q27 53 20 71t-47 24q-3 11 -5 20.5t-2 20.5q18 -1 47 -1.5t51 -0.5q23 0 46 0.5t40 1.5q0 -10 -1 -19t-3 -20
q-27 -7 -51 -32t-50 -76zM341 720q-25 0 -42 17t-17 41q0 27 18 44t41 17q27 0 43.5 -17t16.5 -44q0 -23 -17.5 -40.5t-42.5 -17.5z" />
    <glyph glyph-name="uni1EF4" unicode="&#x1ef4;" horiz-adv-x="630" 
d="M365 264v-101q0 -53 5 -77.5t21.5 -32.5t50.5 -13q3 -9 4.5 -20t1.5 -23l-66 2t-61 1q-22 0 -48.5 -0.5t-50 -0.5t-37.5 -1q0 11 1.5 22t4.5 20q36 3 53 10.5t22 30t5 69.5v114h94zM357 244h-78l-174 334q-16 31 -31 44.5t-43 14.5q-4 11 -5 21t-1 20q14 0 31 -0.5
t35.5 -1t37.5 -0.5h44.5t50 0.5t39.5 1.5q0 -11 -1 -19.5t-4 -19.5q-39 -4 -44.5 -21.5t16.5 -60.5q27 -52 58.5 -117t62.5 -135h-8q32 71 60.5 131t51.5 106q27 53 20 71t-47 24q-3 11 -5 20.5t-2 20.5q18 -1 47 -1.5t51 -0.5q23 0 46 0.5t40 1.5q0 -10 -1 -19t-3 -20
q-27 -7 -51 -32t-50 -76zM316 -210q-25 0 -42 17t-17 41q0 27 18 44t41 17q27 0 43.5 -17t16.5 -44q0 -23 -17.5 -40.5t-42.5 -17.5z" />
    <glyph glyph-name="Ygrave" unicode="&#x1ef2;" horiz-adv-x="630" 
d="M365 264v-101q0 -53 5 -77.5t21.5 -32.5t50.5 -13q3 -9 4.5 -20t1.5 -23l-66 2t-61 1q-22 0 -48.5 -0.5t-50 -0.5t-37.5 -1q0 11 1.5 22t4.5 20q36 3 53 10.5t22 30t5 69.5v114h94zM357 244h-78l-174 334q-16 31 -31 44.5t-43 14.5q-4 11 -5 21t-1 20q14 0 31 -0.5
t35.5 -1t37.5 -0.5h44.5t50 0.5t39.5 1.5q0 -11 -1 -19.5t-4 -19.5q-39 -4 -44.5 -21.5t16.5 -60.5q27 -52 58.5 -117t62.5 -135h-8q32 71 60.5 131t51.5 106q27 53 20 71t-47 24q-3 11 -5 20.5t-2 20.5q18 -1 47 -1.5t51 -0.5q23 0 46 0.5t40 1.5q0 -10 -1 -19t-3 -20
q-27 -7 -51 -32t-50 -76zM335 732q-31 40 -57.5 70.5t-53.5 57.5q17 9 41.5 11.5t48.5 0.5q13 -31 27.5 -65.5t33.5 -69.5q-9 -4 -18 -4.5t-22 -0.5z" />
    <glyph glyph-name="uni1EF6" unicode="&#x1ef6;" horiz-adv-x="630" 
d="M365 264v-101q0 -53 5 -77.5t21.5 -32.5t50.5 -13q3 -9 4.5 -20t1.5 -23l-66 2t-61 1q-22 0 -48.5 -0.5t-50 -0.5t-37.5 -1q0 11 1.5 22t4.5 20q36 3 53 10.5t22 30t5 69.5v114h94zM357 244h-78l-174 334q-16 31 -31 44.5t-43 14.5q-4 11 -5 21t-1 20q14 0 31 -0.5
t35.5 -1t37.5 -0.5h44.5t50 0.5t39.5 1.5q0 -11 -1 -19.5t-4 -19.5q-39 -4 -44.5 -21.5t16.5 -60.5q27 -52 58.5 -117t62.5 -135h-8q32 71 60.5 131t51.5 106q27 53 20 71t-47 24q-3 11 -5 20.5t-2 20.5q18 -1 47 -1.5t51 -0.5q23 0 46 0.5t40 1.5q0 -10 -1 -19t-3 -20
q-27 -7 -51 -32t-50 -76zM322 726q-13 16 -13 31q0 16 9.5 25.5t22 17t22 15t9.5 19.5q0 10 -8 15t-22 5q-22 0 -33.5 -13t-15.5 -45q-12 0 -25.5 2.5t-21.5 6.5q2 17 2.5 28.5t-2.5 26.5q16 12 39 22t61 10q40 0 66 -14t26 -42q0 -19 -12 -32t-27 -22t-27 -17.5t-12 -20.5
q0 -5 2 -13q-10 -3 -19.5 -4t-20.5 -1z" />
    <glyph glyph-name="uni0232" unicode="&#x232;" horiz-adv-x="630" 
d="M365 264v-101q0 -53 5 -77.5t21.5 -32.5t50.5 -13q3 -9 4.5 -20t1.5 -23l-66 2t-61 1q-22 0 -48.5 -0.5t-50 -0.5t-37.5 -1q0 11 1.5 22t4.5 20q36 3 53 10.5t22 30t5 69.5v114h94zM357 244h-78l-174 334q-16 31 -31 44.5t-43 14.5q-4 11 -5 21t-1 20q14 0 31 -0.5
t35.5 -1t37.5 -0.5h44.5t50 0.5t39.5 1.5q0 -11 -1 -19.5t-4 -19.5q-39 -4 -44.5 -21.5t16.5 -60.5q27 -52 58.5 -117t62.5 -135h-8q32 71 60.5 131t51.5 106q27 53 20 71t-47 24q-3 11 -5 20.5t-2 20.5q18 -1 47 -1.5t51 -0.5q23 0 46 0.5t40 1.5q0 -10 -1 -19t-3 -20
q-27 -7 -51 -32t-50 -76zM524 805q0 -10 -2 -21t-7 -22h-68t-126.5 -0.5t-160.5 -2.5q0 6 2.5 21.5t6.5 24.5h355z" />
    <glyph glyph-name="uni1EF8" unicode="&#x1ef8;" horiz-adv-x="630" 
d="M365 264v-101q0 -53 5 -77.5t21.5 -32.5t50.5 -13q3 -9 4.5 -20t1.5 -23l-66 2t-61 1q-22 0 -48.5 -0.5t-50 -0.5t-37.5 -1q0 11 1.5 22t4.5 20q36 3 53 10.5t22 30t5 69.5v114h94zM357 244h-78l-174 334q-16 31 -31 44.5t-43 14.5q-4 11 -5 21t-1 20q14 0 31 -0.5
t35.5 -1t37.5 -0.5h44.5t50 0.5t39.5 1.5q0 -11 -1 -19.5t-4 -19.5q-39 -4 -44.5 -21.5t16.5 -60.5q27 -52 58.5 -117t62.5 -135h-8q32 71 60.5 131t51.5 106q27 53 20 71t-47 24q-3 11 -5 20.5t-2 20.5q18 -1 47 -1.5t51 -0.5q23 0 46 0.5t40 1.5q0 -10 -1 -19t-3 -20
q-27 -7 -51 -32t-50 -76zM399 748q-18 0 -35 5.5t-33 12t-32.5 12t-34.5 5.5q-19 0 -36.5 -8t-34.5 -24q-7 5 -10 13t-3 18q29 38 57 51.5t54 13.5t48 -8.5t42 -17t41 -8.5q15 0 29 6.5t27 19.5q5 -1 13.5 -4t12.5 -10q-22 -41 -49 -59t-56 -18z" />
    </font>
</defs>
</svg>
