<svg xmlns="http://www.w3.org/2000/svg">
<defs>
<font id="Vollkorn-MediumItalic" horiz-adv-x="550" >
  <font-face 
    font-family="Vollkorn Medium"
    font-weight="500"
    font-style="italic"
    font-stretch="normal"
    units-per-em="1000"
    panose-1="0 0 0 0 0 0 0 0 0 0"
    ascent="800"
    descent="-200"
    x-height="462"
    cap-height="679"
    bbox="-220 -285 3053 1083"
    underline-thickness="40"
    underline-position="-360"
    slope="-11"
    unicode-range="U+000D-1D550"
  />
<missing-glyph horiz-adv-x="453" 
d="M6 0l132 677h352l-132 -677h-352zM145 329v70h70v-70h-70zM155 339h50v50h-50v-50zM165 349v30h30v-30h-30zM145 409v10h30v-10h-30zM145 429v10h10v10h10v-20h-20zM225 329v30h10v-20h10v20h10v10h10v-20h-10v-10h10v10h10v-20h-50zM225 379v10h10v-10h-10zM185 409v20
h20v-10h20v-10h-40zM225 399v10h10v-10h-10zM285 339v20h10v-20h-10zM175 459v10h10v-10h-10zM175 429v20h20v10h30v-20h-10v10h-10v-10h-20v-10h-10zM205 429v10h10v-10h-10zM305 329v20h10v-20h-10zM145 459v40h30v-10h20v10h20v-10h-10v-10h20v-10h-30v10h-40v-10h10v-10
h-20zM355 329v10h10v-10h-10zM135 319h270v270h-270v-270zM145 509v70h70v-70h-70zM155 519h50v50h-50v-50zM165 529v30h30v-30h-30zM315 379h30v30h-30v-30zM325 389v10h10v-10h-10zM385 329v10h10v-10h-10zM275 469v10h10v-10h-10zM375 379v10h10v-10h-10zM325 339v10h20
v10h-10v10h-10v-20h-10v10h-20v20h-10v10h-10v-20h-10v10h-10v-10h-20v10h10v10h-10v10h10v20h-20v20h10v30h10v-40h10v20h10v10h-10v20h-20v10h-10v50h20v20h-20v20h10v-10h10v10h30v-20h-10v10h-10v-20h10v-10h-10v-10h-20v-30h10v20h10v-30h10v50h10v20h10v-10h10v-10
h-10v-10h-10v-50h-10v-10h10v-30h-10v-20h10v-20h20v-10h10v10h-10v50h10v10h-20v10h10v20h10v-10h10v-50h-10v-10h30v20h-10v20h10v10h20v20h10v-10h10v-10h-10v-10h-20v-40h10v-20h10v-10h-10v-10h10v-10h20v-10h10v-10h-20v10h-20v-20h-30zM365 399v10h10v-10h-10z
M385 389v20h10v-20h-10zM375 409v10h10v-10h-10zM355 429v10h20v-10h-20zM285 509v10h10v-10h-10zM385 429v10h-10v10h10v10h10v-30h-10zM325 479v10h-20v40h10v-30h40v-10h-10v-10h-20zM295 549v10h10v-10h-10zM305 539v10h10v-10h-10zM385 469v10h-10v20h20v-30h-10z

<glyph glyph-name="f_f" unicode="ff" horiz-adv-x="622" 
d="M129 448q17 79 57 132t94 79t114 26q41 0 73 -11t55 -25q32 33 72 49t85 16q39 0 66.5 -7t41.5 -17q-7 -16 -12.5 -35.5t-9 -40t-4.5 -39.5q-6 -3 -14.5 -5t-18 -3t-18.5 -1q-1 33 -8 54.5t-19.5 32t-32.5 10.5q-23 0 -39.5 -17t-31.5 -63.5t-32 -134.5h98
q0 -12 -1.5 -24.5t-6.5 -21.5q-27 0 -53 -2.5t-47 -6.5q-12 -70 -21 -121.5t-17.5 -90.5t-17 -70.5t-18.5 -60.5q-23 -68 -65 -127t-97.5 -95.5t-118.5 -36.5q-36 0 -60.5 11.5t-44.5 27.5q-27 -37 -59.5 -57.5t-70.5 -20.5q-23 0 -47.5 10t-44.5 28q-1 17 1.5 35t7.5 32
q23 -8 51.5 -12.5t59.5 -4.5q18 0 31 6t23 26.5t19.5 64t20.5 118.5q10 71 23 154.5t29 186.5q-18 2 -37 4.5t-36 2.5q0 12 3 24.5t9 20.5h69zM434 454q6 37 16 67.5t22 56.5q-15 26 -38.5 41.5t-55.5 15.5q-33 0 -59.5 -21t-45 -62t-30.5 -104h190zM354 1q10 37 18 74.5
t16 82.5t17 103t20 135q-19 2 -40.5 4t-49.5 2q-29 0 -54.5 -2.5t-48.5 -6.5q-10 -59 -23 -128t-27 -146q-12 -67 -30 -127t-42 -106q18 -8 38.5 -11.5t45.5 -3.5q47 0 77.5 11t49.5 39.5t33 79.5z" />
    <glyph glyph-name="f_f_i" unicode="ffi" horiz-adv-x="865" 
d="M394 685q42 0 75.5 -11.5t56.5 -26.5q36 36 80 51.5t93 15.5q59 0 99.5 -9t70.5 -27q-9 -26 -14 -52t-7 -51q-10 -5 -27 -8t-35 -3.5t-32 1.5q-1 51 -19 76.5t-54 25.5q-35 0 -57.5 -18.5t-39.5 -65.5t-37 -135h55q59 0 93.5 2t55 6.5t33.5 10.5q30 -13 37 -42t-8 -88
l-53 -192q-13 -49 -10.5 -63t15.5 -14q10 0 22.5 6t26.5 20q8 -5 13.5 -15t6.5 -22q-29 -31 -60 -48.5t-61 -17.5q-37 0 -54.5 19t-18.5 52.5t10 78.5l38 135q14 51 15.5 78t-14 37.5t-53.5 10.5q-30 0 -53 -2.5t-46 -6.5q-12 -70 -21 -121.5t-17.5 -90.5t-17 -70.5
t-18.5 -60.5q-23 -68 -65 -127t-97.5 -95.5t-118.5 -36.5q-36 0 -60.5 11.5t-44.5 27.5q-27 -37 -59.5 -57.5t-70.5 -20.5q-23 0 -47.5 10t-44.5 28q-1 17 1.5 35t7.5 32q23 -8 51.5 -12.5t59.5 -4.5q18 0 31 6t23 26.5t19.5 64t20.5 118.5q10 71 23 154.5t29 186.5
q-18 2 -37 4.5t-36 2.5q0 12 3 24.5t9 20.5h69q17 79 57 132t94 79t114 26zM378 635q-33 0 -59.5 -21t-45 -62t-30.5 -104h190q15 75 41 126q-15 29 -39 45t-57 16zM335 402q-29 0 -54.5 -2.5t-48.5 -6.5q-10 -59 -23 -128t-27 -146q-12 -67 -30 -127t-42 -106
q18 -8 38.5 -11.5t45.5 -3.5q47 0 77.5 11t49.5 39.5t33 79.5q10 37 18 74.5t16 82.5t17 103t20 135q-19 2 -40.5 4t-49.5 2z" />
    <glyph glyph-name="f_f_l" unicode="ffl" horiz-adv-x="880" 
d="M129 448q17 79 57 132t94 79t114 26q44 0 77 -12t56 -27q34 35 77.5 51.5t91.5 16.5q34 0 59.5 -5.5t43.5 -14.5q24 6 39 16q17 -7 22 -23t0 -45q-20 -112 -40.5 -218t-40.5 -206q-13 -65 -15.5 -97.5t2.5 -42.5t14 -10q10 0 21.5 6t27.5 20q8 -7 13 -16.5t7 -18.5
q-26 -29 -58.5 -48.5t-62.5 -19.5q-40 0 -58 22t-17 62q0 15 2 32t6 46t13 77t24 122.5t37 184.5q12 59 1 94t-61 35q-29 0 -51.5 -18t-41 -64.5t-34.5 -135.5h98q0 -12 -1.5 -24.5t-6.5 -21.5q-26 0 -53 -2.5t-48 -6.5q-12 -70 -21 -121.5t-17.5 -90.5t-17 -70.5
t-18.5 -60.5q-23 -68 -65 -127t-97.5 -95.5t-118.5 -36.5q-36 0 -60.5 11.5t-44.5 27.5q-27 -37 -59.5 -57.5t-70.5 -20.5q-23 0 -47.5 10t-44.5 28q-1 17 1.5 35t7.5 32q23 -8 51.5 -12.5t59.5 -4.5q18 0 31 6t23 26.5t19.5 64t20.5 118.5q10 71 23 154.5t29 186.5
q-18 2 -37 4.5t-36 2.5q0 12 3 24.5t9 20.5h69zM434 448q8 37 18 68.5t23 57.5q-15 28 -39.5 44.5t-57.5 16.5t-59.5 -21t-45 -62t-30.5 -104h191zM354 1q10 37 18 74.5t16 82.5t17 103t20 135q-19 2 -40.5 4t-49.5 2q-29 0 -54.5 -2.5t-48.5 -6.5q-10 -59 -23 -128
t-27 -146q-12 -67 -30 -127t-42 -106q18 -8 38.5 -11.5t45.5 -3.5q47 0 77.5 11t49.5 39.5t33 79.5z" />
    <glyph glyph-name="f_f_j.liga" unicode="ffj" horiz-adv-x="851" 
d="M-52 -248q-24 0 -48.5 10t-44.5 28q-1 17 1.5 35t7.5 32q23 -8 50.5 -12.5t55.5 -4.5q20 0 34 6t24.5 26.5t20 64t20.5 118.5q4 30 9 63t11 75.5t15.5 101t22.5 137.5q15 85 54 141t95 84t117 28q48 0 84 -14.5t59 -31.5l-56 -76q-14 33 -39.5 52.5t-60.5 19.5
q-36 0 -63 -23t-46 -68.5t-32 -114.5l-56 -302q-13 -73 -31 -134t-42 -107q18 -8 38.5 -11.5t46.5 -3.5q47 0 77 11t49 39.5t33 79.5q10 39 19 78.5t17 88t18.5 112.5t22.5 152q13 91 45.5 153.5t89.5 95.5t142 33q47 0 88 -9t73 -27q-9 -26 -14 -52t-7 -51q-10 -5 -27 -8
t-35 -3.5t-32 1.5q-1 50 -18 74.5t-49 24.5q-30 0 -58 -23.5t-50 -75.5t-36 -138q-13 -80 -24 -139t-20 -102t-18.5 -76.5t-18.5 -62.5q-17 -50 -45 -96t-65 -82t-80 -57t-90 -21q-36 0 -60.5 11.5t-44.5 27.5q-27 -37 -59.5 -57.5t-69.5 -20.5zM133 394q-21 3 -43 6t-42 3
q0 12 3 24.5t9 20.5h81zM221 392l9 56h215l-10 -54q-20 3 -44 5.5t-55 2.5q-34 0 -62 -3t-53 -7zM508 -249q-17 15 -18 41q69 47 108 110t55 149l47 255q7 35 5 56t-19 30.5t-57 9.5q-27 0 -53 -3t-52 -8l10 57h68q59 0 93.5 2t55 6.5t33.5 10.5q26 -11 34.5 -36t1.5 -64
l-55 -285q-12 -66 -33 -116.5t-51.5 -90t-73.5 -70t-99 -54.5z" />
    <glyph glyph-name="f_f_t.liga" unicode="fft" horiz-adv-x="921" 
d="M770 209q-12 -55 -12.5 -87.5t9.5 -46.5t26 -14t35 12t34 30q8 -6 14.5 -17t7.5 -22q-13 -17 -36 -34t-49 -28t-53 -11q-45 0 -69 23t-27.5 69.5t12.5 117.5l44 195q-16 4 -30 5t-31 1q0 13 3 25.5t8 20.5h64q10 48 14 71.5t4 44.5q0 30 -16 47.5t-52 17.5
q-28 0 -51 -14.5t-40.5 -53t-31.5 -113.5h76q1 -11 -1.5 -24t-8.5 -22q-19 0 -37.5 -1.5t-38.5 -7.5q-12 -70 -21 -121.5t-17.5 -90.5t-17 -70.5t-18.5 -60.5q-23 -68 -65 -127t-97.5 -95.5t-118.5 -36.5q-36 0 -60.5 11.5t-44.5 27.5q-27 -37 -59.5 -57.5t-70.5 -20.5
q-23 0 -47.5 10t-44.5 28q-1 17 1.5 35t7.5 32q23 -8 51.5 -12.5t59.5 -4.5q18 0 31 6t23 26.5t19.5 64t20.5 118.5q10 71 23 154.5t29 186.5q-18 2 -37 4.5t-36 2.5q0 12 3 24.5t9 20.5h69q14 63 42 106t64.5 70t77 39t79.5 12q54 0 90 -13t59 -28q32 22 70 32.5t80 10.5
q34 0 59.5 -7.5t43.5 -16.5q24 6 40 16q16 -6 21 -22t1 -43q-4 -24 -10 -58.5t-19 -97.5h92q0 -12 -1.5 -24.5t-5.5 -21.5q-27 0 -52 -2t-46 -6zM433 448q8 38 20 69t28 56q-16 25 -40.5 38.5t-60.5 13.5q-31 0 -58 -16.5t-47 -55.5t-32 -105h190zM354 1q10 37 18 74.5
t16 82.5t17 103t20 135q-19 2 -40.5 4t-49.5 2q-29 0 -54.5 -2.5t-48.5 -6.5q-10 -59 -23 -128t-27 -146q-12 -67 -30 -127t-42 -106q18 -8 38.5 -11.5t45.5 -3.5q47 0 77.5 11t49.5 39.5t33 79.5z" />
    <glyph glyph-name="f_i.liga" unicode="fi" horiz-adv-x="556" 
d="M-53 -248q-23 0 -47.5 10t-44.5 28q-1 17 1.5 35t7.5 32q23 -8 51.5 -12.5t59.5 -4.5q18 0 31 6t23 26.5t19.5 64t20.5 118.5q10 71 20.5 154t26.5 187q-19 2 -37.5 4.5t-35.5 2.5q0 12 3 24.5t9 20.5h69q19 98 57.5 156t92.5 84t115 26q59 0 100 -9t71 -27
q-10 -26 -14.5 -52t-6.5 -51q-11 -5 -28 -8t-35 -3.5t-31 1.5q-2 51 -19.5 76.5t-53.5 25.5q-35 0 -57.5 -18.5t-39.5 -65.5t-37 -135h54q59 0 94 2t55.5 6.5t33.5 10.5q29 -13 36.5 -42t-8.5 -88l-52 -192q-13 -49 -11 -63t16 -14q9 0 21.5 6t27.5 20q8 -5 13.5 -15
t6.5 -22q-30 -31 -60.5 -48.5t-61.5 -17.5q-37 0 -54.5 19t-18.5 52.5t11 78.5l38 135q14 51 15.5 78t-14 37.5t-54.5 10.5q-29 0 -52.5 -2.5t-46.5 -6.5q-15 -89 -26 -157.5t-18 -109.5q-13 -81 -35 -149t-52 -118.5t-67 -78.5t-82 -28z" />
    <glyph glyph-name="f_j.liga" unicode="fj" horiz-adv-x="541" 
d="M510 367l-54 -285q-12 -66 -33 -116.5t-51.5 -90t-73.5 -70t-100 -54.5q-17 15 -17 41q69 47 108 110t55 149l47 255q7 35 5.5 56t-17.5 30.5t-53 9.5q-29 0 -52.5 -2.5t-46.5 -6.5q-15 -89 -26 -157.5t-18 -109.5q-13 -81 -35 -149t-52 -118.5t-67 -78.5t-82 -28
q-23 0 -47.5 10t-44.5 28q-1 17 1.5 35t7.5 32q23 -8 51.5 -12.5t59.5 -4.5q18 0 31 6t23 26.5t19.5 64t20.5 118.5q10 71 20.5 154t26.5 187q-19 2 -37.5 4.5t-35.5 2.5q0 12 3 24.5t9 20.5h69q19 98 57.5 156t92.5 84t115 26q59 0 100 -9t71 -27q-10 -26 -14.5 -52
t-6.5 -51q-11 -5 -28 -8t-35 -3.5t-31 1.5q-2 51 -19.5 76.5t-53.5 25.5q-35 0 -57.5 -18.5t-39.5 -65.5t-37 -135h54q59 0 94 2t55.5 6.5t33.5 10.5q26 -11 34.5 -36t0.5 -64z" />
    <glyph glyph-name="f_l.liga" unicode="fl" horiz-adv-x="569" 
d="M124 448q18 93 55.5 152t90.5 86.5t116 27.5q34 0 59.5 -5.5t42.5 -14.5q24 6 40 16q17 -7 22 -23t0 -45q-20 -112 -40.5 -218t-40.5 -206q-13 -65 -15.5 -97.5t2 -42.5t14.5 -10q9 0 21 6t27 20q9 -7 13.5 -16.5t6.5 -18.5q-25 -29 -57.5 -48.5t-62.5 -19.5
q-40 0 -58 22t-17 62q0 15 2 32t6 46t13 77t24 122.5t37 184.5q11 59 0.5 94t-60.5 35q-29 0 -52 -18t-41.5 -64.5t-33.5 -135.5h98q0 -12 -2 -24.5t-6 -21.5q-28 0 -54 -2.5t-47 -6.5q-15 -89 -26 -157.5t-18 -109.5q-13 -81 -35 -149t-52 -118.5t-67 -78.5t-82 -28
q-23 0 -47.5 10t-44.5 28q-1 17 1.5 35t7.5 32q23 -8 51.5 -12.5t59.5 -4.5q18 0 31 6t23 26.5t19.5 64t20.5 118.5q10 71 20.5 154t26.5 187q-19 2 -37.5 4.5t-35.5 2.5q0 12 3 24.5t9 20.5h69z" />
    <glyph glyph-name="f_t.liga" unicode="ft" horiz-adv-x="612" 
d="M381 677q35 0 60.5 -7.5t43.5 -16.5q24 6 39 16q17 -6 21.5 -22t1.5 -43q-4 -24 -10 -58.5t-20 -97.5h93q0 -12 -1.5 -24.5t-6.5 -21.5q-27 0 -51.5 -2t-45.5 -6l-44 -185q-12 -55 -12.5 -87.5t9 -46.5t25.5 -14t35.5 12t34.5 30q8 -6 14.5 -17t7.5 -22
q-14 -17 -36.5 -34t-48.5 -28t-54 -11q-45 0 -69 23t-27.5 69.5t13.5 117.5l44 195q-16 4 -30 5t-32 1q0 13 3 25.5t9 20.5h63q11 48 15 71.5t4 44.5q0 30 -16.5 47.5t-51.5 17.5q-29 0 -52 -14.5t-40.5 -53t-30.5 -113.5h76q0 -11 -2.5 -24t-7.5 -22q-20 0 -38 -1.5
t-39 -7.5q-15 -89 -26 -157.5t-18 -109.5q-13 -81 -35 -149t-52 -118.5t-67 -78.5t-82 -28q-23 0 -47.5 10t-44.5 28q-1 17 1.5 35t7.5 32q23 -8 51.5 -12.5t59.5 -4.5q18 0 31 6t23 26.5t19.5 64t20.5 118.5q10 71 20.5 154t26.5 187q-19 2 -37.5 4.5t-35.5 2.5
q0 12 3 24.5t9 20.5h69q16 83 53.5 133t90 73t113.5 23z" />
    <glyph glyph-name="longs_t.liga" unicode="&#x17f;t" horiz-adv-x="612" 
d="M381 677q35 0 60.5 -7.5t43.5 -16.5q24 6 39 16q17 -6 21.5 -22t1.5 -43q-4 -24 -10 -58.5t-20 -97.5h93q0 -12 -1.5 -24.5t-6.5 -21.5q-27 0 -51.5 -2t-45.5 -6l-44 -185q-12 -55 -12.5 -87.5t9 -46.5t25.5 -14t35.5 12t34.5 30q8 -6 14.5 -17t7.5 -22
q-14 -17 -36.5 -34t-48.5 -28t-54 -11q-45 0 -69 23t-27.5 69.5t13.5 117.5l44 195q-16 4 -30 5t-32 1q0 13 3 25.5t9 20.5h63q11 48 15 71.5t4 44.5q0 30 -16.5 47.5t-51.5 17.5q-29 0 -52 -14.5t-40.5 -53t-30.5 -113.5q-21 -108 -34 -191t-21 -131q-13 -81 -35 -149
t-52 -118.5t-67 -78.5t-82 -28q-23 0 -47.5 10t-44.5 28q-1 17 1.5 35t7.5 32q23 -8 51.5 -12.5t59.5 -4.5q18 0 31 6t23 26.5t19.5 64t20.5 118.5q10 71 20.5 154t26.5 187q-19 2 -37.5 4.5t-35.5 2.5q0 12 3 24.5t9 20.5h69q16 83 53.5 133t90 73t113.5 23z" />
    <glyph glyph-name="longs_h.liga" unicode="&#x17f;h" horiz-adv-x="829" 
d="M386 714q34 0 59.5 -5.5t42.5 -14.5q24 6 40 16q17 -7 22 -22.5t0 -45.5q-15 -82 -25 -137t-18.5 -93.5t-18.5 -72.5t-23 -77l6 -64l-35 -198h-106l95 537q11 59 0.5 94t-60.5 35q-29 0 -52 -18t-41.5 -64.5t-33.5 -135.5q-11 -62 -25 -144.5t-30 -177.5
q-13 -81 -35 -149t-52 -118.5t-67 -78.5t-82 -28q-23 0 -47.5 10t-44.5 28q-1 17 1.5 35t7.5 32q23 -8 51.5 -12.5t59.5 -4.5q18 0 31 6t23 26.5t19.5 64t20.5 118.5q10 71 20.5 154t26.5 187q-19 2 -37.5 4.5t-35.5 2.5q0 12 3 24.5t9 20.5h69q18 93 55.5 152t90.5 86.5
t116 27.5zM681 467q19 0 38 -8.5t32 -29.5t15.5 -59t-10.5 -96l-28 -116q-9 -44 -13 -63t-1 -24t11 -5q10 0 25 8.5t28 19.5q8 -7 13 -16.5t7 -20.5q-33 -34 -63 -50t-59 -16q-43 0 -58 20t-12.5 57.5t14.5 86.5l25 111q11 46 10.5 71.5t-8 35t-18.5 9.5q-18 0 -42.5 -18.5
t-50 -53t-46.5 -83.5t-33 -109l-6 110l39 83q13 26 33.5 53.5t46.5 50.5t55 37.5t56 14.5z" />
    <glyph glyph-name="longs_i.liga" unicode="&#x17f;i" horiz-adv-x="563" 
d="M389 714q59 0 100 -9t71 -27q-10 -26 -14.5 -52t-6.5 -51q-11 -5 -28 -8t-35 -3.5t-31 1.5q-2 51 -19.5 76.5t-53.5 25.5q-35 0 -58 -18.5t-39.5 -65.5t-36.5 -135q-15 -74 -27 -150.5t-28 -171.5q-13 -81 -35 -149t-52 -118.5t-67 -78.5t-82 -28q-23 0 -47.5 10
t-44.5 28q-1 17 1.5 35t7.5 32q23 -8 51.5 -12.5t59.5 -4.5q18 0 31 6t23 26.5t19.5 64t20.5 118.5q10 71 20.5 154t26.5 187q-19 2 -37.5 4.5t-35.5 2.5q0 12 3 24.5t9 20.5h69q19 98 57.5 156t92.5 84t115 26zM410 -9q-37 0 -54.5 19t-18.5 52.5t11 78.5l38 135
q13 49 15.5 71.5t-11 28.5t-46.5 6q-1 12 0.5 23.5t6.5 20.5q20 2 44.5 8.5t48 15.5t38.5 17q29 -13 36.5 -42t-8.5 -88l-52 -192q-13 -49 -11 -63t16 -14q9 0 21.5 6t27.5 20q8 -5 13.5 -15t6.5 -22q-30 -31 -60.5 -48.5t-61.5 -17.5z" />
    <glyph glyph-name="longs_longs.liga" unicode="&#x17f;&#x17f;" horiz-adv-x="604" 
d="M683 714q34 0 62 -7t42 -17q-7 -16 -12.5 -35.5t-9 -40t-4.5 -39.5q-6 -3 -14.5 -5t-18 -3t-18.5 -1q-1 33 -8 54.5t-19.5 32t-32.5 10.5q-24 0 -41 -18t-31 -64.5t-31 -132.5q-19 -97 -31.5 -168t-24 -125.5t-29.5 -103.5q-25 -70 -66 -129.5t-95 -95t-118 -35.5
q-39 0 -63 11.5t-43 27.5q-27 -37 -59.5 -57.5t-69.5 -20.5q-24 0 -48.5 10t-44.5 28q-1 17 1.5 35t7.5 32q23 -8 51.5 -12.5t54.5 -4.5q21 0 34.5 6t24 26.5t20 64t20.5 118.5q5 36 8 56t5 34t4 29t6 40t11 68.5t18 113.5q-18 2 -37 4.5t-36 2.5q0 12 3 24.5t9 20.5h69
q17 77 56 130t93.5 80t116.5 27q40 0 72 -11t55 -25q35 36 75.5 50.5t85.5 14.5zM378 635q-35 0 -61 -21.5t-44 -63.5t-30 -102q-11 -61 -22.5 -118.5t-21 -109.5t-17.5 -101q-13 -72 -30 -127t-42 -106q18 -8 38.5 -11.5t46.5 -3.5q49 0 78.5 11t47.5 39.5t33 79.5
q12 41 23.5 99.5t23.5 132.5t24 163q-19 2 -37.5 4.5t-35.5 2.5q1 12 3.5 23.5t8.5 21.5h69l1 6q6 37 16 67.5t22 56.5q-15 26 -38.5 41.5t-55.5 15.5z" />
    <glyph glyph-name="Yi_Yicy.rlig" unicode="&#x407;&#x407;" horiz-adv-x="732" 
d="M186 733q-29 0 -44.5 18t-10.5 42q4 21 20 36t47 15q35 0 47.5 -19t6.5 -46q-4 -20 -22.5 -33t-43.5 -13zM364 734q-34 0 -47.5 19t-8.5 47q4 21 22.5 32.5t43.5 11.5q29 0 45 -17.5t11 -43.5q-5 -19 -20 -34t-46 -15zM541 733q-29 0 -44.5 18t-10.5 42q4 21 20 36t47 15
q35 0 47 -19t7 -46q-4 -20 -22.5 -33t-43.5 -13zM718 734q-33 0 -47 19t-8 47q4 21 22 32.5t44 11.5q29 0 45 -17.5t10 -43.5q-4 -19 -19 -34t-47 -15zM184 542q6 34 2.5 51.5t-18 25.5t-42.5 12q-1 11 -1.5 23t0.5 25q29 -1 61 -2t66 -1q33 0 65.5 1t64.5 2
q-1 -13 -2.5 -25t-7.5 -23q-25 -4 -40 -12t-23 -26.5t-15 -54.5l-70 -403q-6 -34 -3 -52.5t17.5 -25.5t42.5 -12q2 -10 3 -22.5t-1 -25.5q-32 2 -63.5 2.5t-64.5 0.5t-67.5 -0.5t-61.5 -2.5q0 14 2.5 26.5t7.5 21.5q26 4 41 11.5t23 25.5t14 53zM550 542q6 34 2.5 51.5
t-18 25.5t-42.5 12q-2 11 -2.5 23t1.5 25q29 -1 61 -2t66 -1q33 0 65.5 1t64.5 2q-1 -13 -2.5 -25t-7.5 -23q-25 -4 -40 -12t-23 -26.5t-15 -54.5l-70 -403q-6 -34 -3 -52.5t17.5 -25.5t42.5 -12q2 -10 3 -22.5t-1 -25.5q-32 2 -64 2.5t-64 0.5q-33 0 -67.5 -0.5t-61.5 -2.5
q0 14 2.5 26.5t7.5 21.5q26 4 41 11.5t23 25.5t14 53z" />
    <glyph glyph-name="yi_yicy.rlig" unicode="&#x457;&#x457;" horiz-adv-x="525" 
d="M248 527q-29 0 -42.5 19t-8.5 48q6 28 23 40t40 12q27 0 41.5 -15.5t8.5 -47.5q-10 -56 -62 -56zM103 527q-29 0 -42 21t-6 49q5 23 19.5 36t39.5 13q31 0 44 -18.5t7 -47.5q-5 -24 -21 -38.5t-41 -14.5zM391 527q-29 0 -42 21t-7 49q6 23 20.5 36t38.5 13q32 0 45 -18.5
t7 -47.5q-5 -24 -21 -38.5t-41 -14.5zM536 527q-30 0 -43 19t-8 48q6 28 22.5 40t39.5 12q28 0 42.5 -15.5t8.5 -47.5q-10 -56 -62 -56zM110 -9q-37 0 -54.5 19t-18.5 52.5t11 78.5l37 135q14 49 16 71.5t-11.5 28.5t-45.5 6q-1 12 0.5 23.5t6.5 20.5q19 2 44 8.5t48 15.5
t39 17q29 -13 36 -42t-8 -88l-52 -192q-14 -49 -11.5 -63t16.5 -14q9 0 21.5 6t26.5 20q9 -5 14 -15t7 -22q-30 -31 -61 -48.5t-61 -17.5zM372 -9q-36 0 -53.5 19t-19 52.5t10.5 78.5l38 135q14 49 16 71.5t-11.5 28.5t-46.5 6q-1 12 1 23.5t6 20.5q20 2 45 8.5t48 15.5
t38 17q30 -13 37 -42t-9 -88l-52 -192q-13 -49 -11 -63t16 -14q9 0 22 6t27 20q8 -5 13.5 -15t6.5 -22q-30 -31 -60.5 -48.5t-61.5 -17.5z" />
    <glyph glyph-name=".notdef" horiz-adv-x="453" 
d="M6 0l132 677h352l-132 -677h-352zM145 329v70h70v-70h-70zM155 339h50v50h-50v-50zM165 349v30h30v-30h-30zM145 409v10h30v-10h-30zM145 429v10h10v10h10v-20h-20zM225 329v30h10v-20h10v20h10v10h10v-20h-10v-10h10v10h10v-20h-50zM225 379v10h10v-10h-10zM185 409v20
h20v-10h20v-10h-40zM225 399v10h10v-10h-10zM285 339v20h10v-20h-10zM175 459v10h10v-10h-10zM175 429v20h20v10h30v-20h-10v10h-10v-10h-20v-10h-10zM205 429v10h10v-10h-10zM305 329v20h10v-20h-10zM145 459v40h30v-10h20v10h20v-10h-10v-10h20v-10h-30v10h-40v-10h10v-10
h-20zM355 329v10h10v-10h-10zM135 319h270v270h-270v-270zM145 509v70h70v-70h-70zM155 519h50v50h-50v-50zM165 529v30h30v-30h-30zM315 379h30v30h-30v-30zM325 389v10h10v-10h-10zM385 329v10h10v-10h-10zM275 469v10h10v-10h-10zM375 379v10h10v-10h-10zM325 339v10h20
v10h-10v10h-10v-20h-10v10h-20v20h-10v10h-10v-20h-10v10h-10v-10h-20v10h10v10h-10v10h10v20h-20v20h10v30h10v-40h10v20h10v10h-10v20h-20v10h-10v50h20v20h-20v20h10v-10h10v10h30v-20h-10v10h-10v-20h10v-10h-10v-10h-20v-30h10v20h10v-30h10v50h10v20h10v-10h10v-10
h-10v-10h-10v-50h-10v-10h10v-30h-10v-20h10v-20h20v-10h10v10h-10v50h10v10h-20v10h10v20h10v-10h10v-50h-10v-10h30v20h-10v20h10v10h20v20h10v-10h10v-10h-10v-10h-20v-40h10v-20h10v-10h-10v-10h10v-10h20v-10h10v-10h-20v10h-20v-20h-30zM365 399v10h10v-10h-10z
M385 389v20h10v-20h-10zM375 409v10h10v-10h-10zM355 429v10h20v-10h-20zM285 509v10h10v-10h-10zM385 429v10h-10v10h10v10h10v-30h-10zM325 479v10h-20v40h10v-30h40v-10h-10v-10h-20zM295 549v10h10v-10h-10zM305 539v10h10v-10h-10zM385 469v10h-10v20h20v-30h-10z
M325 509v70h70v-70h-70zM335 519h50v50h-50v-50zM345 529v30h30v-30h-30zM79 99q5 0 5 5t-5 5t-5 -5t5 -5zM102 163q5 0 7 2l-1 3q-2 -1 -4 -1q-3 0 -3 6v16h7v3h-7v7q0 3 -2 3l-5 -3v-7h-5v-3h5v-18q0 -8 8 -8zM118 148q3 0 5.5 2.5t5.5 10.5l9 22q3 6 5 6v3h-12v-3
q6 0 3 -7l-4 -11l-5 12q-3 6 3 6v3h-17v-3q4 0 6 -6l9 -21q-1 -3 -2.5 -5.5t-5.5 -2.5q-2 0 -5 1v-5q2 -2 5 -2zM146 148h18v3q-6 0 -6 6v6h5q16 0 16 16q0 14 -11 14q-7 0 -10 -6v3q0 2 -1 3q-4 -2 -11 -2v-3q5 0 5 -5v-26q0 -6 -5 -6v-3zM163 167h-5v9q0 12 7 12
q6 0 6 -10q0 -7 -3 -9t-5 -2zM115 227h4l9 21q3 6 5 6v3h-12v-3q6 0 3 -6l-5 -13l-4 10q-3 9 2 9v3h-16v-3q3 0 5 -6zM198 163q7 0 11 4l-2 3q-3 -3 -8 -3q-8 0 -8 10h17l1 3q0 13 -12 13q-14 0 -14 -15t15 -15zM150 227q15 0 15 15t-15 15t-15 -15t15 -15zM150 231
q-7 0 -7 11t7 11t7 -11t-7 -11zM191 181q0 8 5 8q6 0 6 -8h-11zM214 163h17v3q-6 0 -6 6v17h7v3h-7q0 11 4 11q5 0 5 -6h4v8q-2 2 -6 2q-14 0 -14 -14v-1h-5v-3h5v-17q0 -6 -4 -6v-3zM168 227h16v3q-4 0 -4 6v32q0 3 -2 3q-4 -2 -10 -2v-3q5 0 5 -4v-26q0 -6 -5 -6v-3z
M247 167q-3 0 -3 4t9 6q0 -10 -6 -10zM244 163q8 0 10 5q0 -5 2 -5l7 2v3q-3 0 -3 5v7q0 8 -3 10.5t-8 2.5q-6 0 -11 -3l1 -7h4q0 6 5 6t5 -9q-4 -1 -10.5 -3t-6.5 -8t8 -6zM188 227h15v3q-4 0 -4 6v32q0 3 -2 3q-4 -2 -10 -2v-3q5 0 5 -4v-26q0 -6 -4 -6v-3zM281 163
q6 0 10 4l-2 3q-3 -3 -7 -3q-8 0 -8 11t6 11q5 0 6 -7h4v8q-3 3 -9 3q-14 0 -14 -15t14 -15zM208 227h15v3q-4 0 -4 6v5l11 -14h9v3q-3 0 -14 14q6 6 8.5 7.5t4.5 1.5v3h-14v-3q3 0 3 -1q0 -2 -8 -9v25q0 3 -2 3q-4 -2 -10 -2v-3q5 0 5 -4v-26q0 -6 -4 -6v-3zM303 227h15v3
q-4 0 -4 6v6q0 11 7 11q5 0 5 -8v-9q0 -6 -4 -6v-3h15v3q-4 0 -4 6v10q0 11 -9 11q-8 0 -10 -7v3q0 3 -2 4q-4 -2 -9 -2v-3q4 0 4 -5v-11q0 -6 -4 -6v-3zM342 240h18v6h-18v-6zM275 227h18v3q-6 0 -6 6v5q0 10 5 10q3 0 3 -4h4v9q-1 1 -4 1q-5 0 -8 -7v3q0 3 -2 4
q-4 -2 -10 -2v-3q5 0 5 -5v-11q0 -6 -5 -6v-3zM256 227q15 0 15 15t-15 15t-15 -15t15 -15zM256 231q-7 0 -7 11t7 11t7 -11t-7 -11zM310 163q7 0 11 4l-2 3q-3 -3 -8 -3q-8 0 -8 10h17l1 3q0 13 -12 13q-14 0 -14 -15t15 -15zM303 181q0 8 5 8q6 0 6 -8h-11zM105 99
q6 0 10 4l-2 3q-3 -3 -7 -3q-8 0 -8 11t6 11q5 0 6 -7h4v8q-3 3 -9 3q-14 0 -14 -15t14 -15zM134 99q15 0 15 15t-15 15t-15 -15t15 -15zM134 103q-7 0 -7 11t7 11t7 -11t-7 -11zM182 114q0 11 7 11q5 0 5 -8v-9q0 -6 -4 -6v-3h15v3q-4 0 -4 6v10q0 11 -9 11q-8 0 -10 -6
q-2 6 -9 6q-8 0 -10 -7v3q0 3 -2 4q-4 -2 -9 -2v-3q4 0 4 -5v-11q0 -6 -4 -6v-3h15v3q-4 0 -4 6v6q0 11 7 11q5 0 5 -8v-9q0 -6 -4 -6v-3h15v3q-4 0 -4 6v6z" />
    <glyph glyph-name="A" unicode="A" horiz-adv-x="691" 
d="M-28 -3q0 13 2 25t7 23q18 6 32 16.5t30 32.5t39 61q35 59 71 120.5t72.5 126t75 133t80.5 141.5q11 4 22.5 5t22.5 1q27 -92 51.5 -183.5t47.5 -181t44 -175.5q9 -39 17 -58.5t18 -26.5t24 -12q3 -11 3.5 -23t-0.5 -25q-16 2 -38.5 2.5t-43.5 0.5h-36h-28t-31.5 -0.5
l-33 -1t-31.5 -1.5q0 13 2 25.5t7 22.5q43 6 54 21.5t0 60.5q-18 77 -37 153.5t-41 151.5q-9 32 -14.5 60t-10.5 66h11q-17 -38 -32 -67.5t-34 -63.5q-38 -71 -77.5 -141.5t-81.5 -141.5q-21 -35 -25.5 -55t6.5 -29.5t36 -14.5q2 -11 3 -23t0 -25q-16 2 -32 2.5t-32.5 0.5
h-32.5q-26 0 -45.5 -0.5t-40.5 -2.5zM155 205l23 55h260l4 -49q-45 0 -94.5 -0.5t-99.5 -1.5t-93 -4z" />
    <glyph glyph-name="Aacute" unicode="&#xc1;" horiz-adv-x="691" 
d="M-28 -3q0 13 2 25t7 23q18 6 32 16.5t30 32.5t39 61q35 59 71 120.5t72.5 126t75 133t80.5 141.5q11 4 22.5 5t22.5 1q27 -92 51.5 -183.5t47.5 -181t44 -175.5q9 -39 17 -58.5t18 -26.5t24 -12q3 -11 3.5 -23t-0.5 -25q-16 2 -38.5 2.5t-43.5 0.5h-36h-28t-31.5 -0.5
l-33 -1t-31.5 -1.5q0 13 2 25.5t7 22.5q43 6 54 21.5t0 60.5q-18 77 -37 153.5t-41 151.5q-9 32 -14.5 60t-10.5 66h11q-17 -38 -32 -67.5t-34 -63.5q-38 -71 -77.5 -141.5t-81.5 -141.5q-21 -35 -25.5 -55t6.5 -29.5t36 -14.5q2 -11 3 -23t0 -25q-16 2 -32 2.5t-32.5 0.5
h-32.5q-26 0 -45.5 -0.5t-40.5 -2.5zM155 205l23 55h260l4 -49q-45 0 -94.5 -0.5t-99.5 -1.5t-93 -4zM404 729q-13 2 -24.5 6.5t-21.5 12.5q20 24 36 48t28 45t19 35q11 2 21 3t21 1q21 0 39.5 -3.5t32.5 -10.5q-38 -32 -77.5 -67.5t-73.5 -69.5z" />
    <glyph glyph-name="Abreve" unicode="&#x102;" horiz-adv-x="691" 
d="M-28 -3q0 13 2 25t7 23q18 6 32 16.5t30 32.5t39 61q35 59 71 120.5t72.5 126t75 133t80.5 141.5q11 4 22.5 5t22.5 1q27 -92 51.5 -183.5t47.5 -181t44 -175.5q9 -39 17 -58.5t18 -26.5t24 -12q3 -11 3.5 -23t-0.5 -25q-16 2 -38.5 2.5t-43.5 0.5h-36h-28t-31.5 -0.5
l-33 -1t-31.5 -1.5q0 13 2 25.5t7 22.5q43 6 54 21.5t0 60.5q-18 77 -37 153.5t-41 151.5q-9 32 -14.5 60t-10.5 66h11q-17 -38 -32 -67.5t-34 -63.5q-38 -71 -77.5 -141.5t-81.5 -141.5q-21 -35 -25.5 -55t6.5 -29.5t36 -14.5q2 -11 3 -23t0 -25q-16 2 -32 2.5t-32.5 0.5
h-32.5q-26 0 -45.5 -0.5t-40.5 -2.5zM155 205l23 55h260l4 -49q-45 0 -94.5 -0.5t-99.5 -1.5t-93 -4zM402 728q-80 0 -116.5 35.5t-23.5 103.5q12 5 26.5 7.5t26.5 1.5q0 -36 29 -56.5t80 -20.5t86.5 20.5t45.5 56.5q13 2 24.5 0t17.5 -5q-13 -69 -63.5 -106t-132.5 -37z
" />
    <glyph glyph-name="uni1EAE" unicode="&#x1eae;" horiz-adv-x="691" 
d="M-28 -3q0 13 2 25t7 23q18 6 32 16.5t30 32.5t39 61q35 59 71 120.5t72.5 126t75 133t80.5 141.5q11 4 22.5 5t22.5 1q27 -92 51.5 -183.5t47.5 -181t44 -175.5q9 -39 17 -58.5t18 -26.5t24 -12q3 -11 3.5 -23t-0.5 -25q-16 2 -38.5 2.5t-43.5 0.5h-36h-28t-31.5 -0.5
l-33 -1t-31.5 -1.5q0 13 2 25.5t7 22.5q43 6 54 21.5t0 60.5q-18 77 -37 153.5t-41 151.5q-9 32 -14.5 60t-10.5 66h11q-17 -38 -32 -67.5t-34 -63.5q-38 -71 -77.5 -141.5t-81.5 -141.5q-21 -35 -25.5 -55t6.5 -29.5t36 -14.5q2 -11 3 -23t0 -25q-16 2 -32 2.5t-32.5 0.5
h-32.5q-26 0 -45.5 -0.5t-40.5 -2.5zM155 205l23 55h260l4 -49q-45 0 -94.5 -0.5t-99.5 -1.5t-93 -4zM402 728q-80 0 -116.5 35.5t-23.5 103.5q12 5 26.5 7.5t26.5 1.5q0 -36 29 -56.5t80 -20.5t86.5 20.5t45.5 56.5q13 2 24.5 0t17.5 -5q-13 -69 -63.5 -106t-132.5 -37z
M434 856q-13 2 -24.5 6.5t-21.5 12.5q20 24 36 48t28 45t19 35q11 2 21 3t21 1q21 0 39.5 -3.5t32.5 -10.5q-38 -32 -77.5 -67.5t-73.5 -69.5z" />
    <glyph glyph-name="uni1EB6" unicode="&#x1eb6;" horiz-adv-x="691" 
d="M-28 -3q0 13 2 25t7 23q18 6 32 16.5t30 32.5t39 61q35 59 71 120.5t72.5 126t75 133t80.5 141.5q11 4 22.5 5t22.5 1q27 -92 51.5 -183.5t47.5 -181t44 -175.5q9 -39 17 -58.5t18 -26.5t24 -12q3 -11 3.5 -23t-0.5 -25q-16 2 -38.5 2.5t-43.5 0.5h-36h-28t-31.5 -0.5
l-33 -1t-31.5 -1.5q0 13 2 25.5t7 22.5q43 6 54 21.5t0 60.5q-18 77 -37 153.5t-41 151.5q-9 32 -14.5 60t-10.5 66h11q-17 -38 -32 -67.5t-34 -63.5q-38 -71 -77.5 -141.5t-81.5 -141.5q-21 -35 -25.5 -55t6.5 -29.5t36 -14.5q2 -11 3 -23t0 -25q-16 2 -32 2.5t-32.5 0.5
h-32.5q-26 0 -45.5 -0.5t-40.5 -2.5zM155 205l23 55h260l4 -49q-45 0 -94.5 -0.5t-99.5 -1.5t-93 -4zM234 -218q-29 0 -43.5 17t-10.5 47q6 29 25 47t46 18q24 0 41.5 -16t11.5 -51q-4 -28 -22.5 -45t-47.5 -17zM402 728q-80 0 -116.5 35.5t-23.5 103.5q12 5 26.5 7.5
t26.5 1.5q0 -36 29 -56.5t80 -20.5t86.5 20.5t45.5 56.5q13 2 24.5 0t17.5 -5q-13 -69 -63.5 -106t-132.5 -37z" />
    <glyph glyph-name="uni1EB0" unicode="&#x1eb0;" horiz-adv-x="691" 
d="M-28 -3q0 13 2 25t7 23q18 6 32 16.5t30 32.5t39 61q35 59 71 120.5t72.5 126t75 133t80.5 141.5q11 4 22.5 5t22.5 1q27 -92 51.5 -183.5t47.5 -181t44 -175.5q9 -39 17 -58.5t18 -26.5t24 -12q3 -11 3.5 -23t-0.5 -25q-16 2 -38.5 2.5t-43.5 0.5h-36h-28t-31.5 -0.5
l-33 -1t-31.5 -1.5q0 13 2 25.5t7 22.5q43 6 54 21.5t0 60.5q-18 77 -37 153.5t-41 151.5q-9 32 -14.5 60t-10.5 66h11q-17 -38 -32 -67.5t-34 -63.5q-38 -71 -77.5 -141.5t-81.5 -141.5q-21 -35 -25.5 -55t6.5 -29.5t36 -14.5q2 -11 3 -23t0 -25q-16 2 -32 2.5t-32.5 0.5
h-32.5q-26 0 -45.5 -0.5t-40.5 -2.5zM155 205l23 55h260l4 -49q-45 0 -94.5 -0.5t-99.5 -1.5t-93 -4zM402 728q-80 0 -116.5 35.5t-23.5 103.5q12 5 26.5 7.5t26.5 1.5q0 -36 29 -56.5t80 -20.5t86.5 20.5t45.5 56.5q13 2 24.5 0t17.5 -5q-13 -69 -63.5 -106t-132.5 -37z
M475 869q-10 -4 -27 -4t-28 4q-11 19 -27 41t-34.5 44t-36.5 40q23 8 50.5 9.5t53.5 -4.5q8 -31 20 -64.5t29 -65.5z" />
    <glyph glyph-name="uni1EB2" unicode="&#x1eb2;" horiz-adv-x="691" 
d="M-28 -3q0 13 2 25t7 23q18 6 32 16.5t30 32.5t39 61q35 59 71 120.5t72.5 126t75 133t80.5 141.5q11 4 22.5 5t22.5 1q27 -92 51.5 -183.5t47.5 -181t44 -175.5q9 -39 17 -58.5t18 -26.5t24 -12q3 -11 3.5 -23t-0.5 -25q-16 2 -38.5 2.5t-43.5 0.5h-36h-28t-31.5 -0.5
l-33 -1t-31.5 -1.5q0 13 2 25.5t7 22.5q43 6 54 21.5t0 60.5q-18 77 -37 153.5t-41 151.5q-9 32 -14.5 60t-10.5 66h11q-17 -38 -32 -67.5t-34 -63.5q-38 -71 -77.5 -141.5t-81.5 -141.5q-21 -35 -25.5 -55t6.5 -29.5t36 -14.5q2 -11 3 -23t0 -25q-16 2 -32 2.5t-32.5 0.5
h-32.5q-26 0 -45.5 -0.5t-40.5 -2.5zM155 205l23 55h260l4 -49q-45 0 -94.5 -0.5t-99.5 -1.5t-93 -4zM402 728q-80 0 -116.5 35.5t-23.5 103.5q12 5 26.5 7.5t26.5 1.5q0 -36 29 -56.5t80 -20.5t86.5 20.5t45.5 56.5q13 2 24.5 0t17.5 -5q-13 -69 -63.5 -106t-132.5 -37z
M406 860q-3 8 -4.5 17t0.5 17q5 20 21 29t32 17t21 22q4 11 -2.5 16t-18.5 5q-18 0 -33 -13.5t-25 -45.5q-15 3 -28 6.5t-22 10.5q5 16 8.5 27t2.5 27q19 10 46 18t61 8q49 0 70.5 -17.5t13.5 -45.5q-5 -19 -18.5 -30t-29 -19t-28.5 -15.5t-16 -19.5q-1 -4 -2 -6.5t0 -9.5
q-11 -1 -24.5 -1t-24.5 3z" />
    <glyph glyph-name="uni1EB4" unicode="&#x1eb4;" horiz-adv-x="691" 
d="M-28 -3q0 13 2 25t7 23q18 6 32 16.5t30 32.5t39 61q35 59 71 120.5t72.5 126t75 133t80.5 141.5q11 4 22.5 5t22.5 1q27 -92 51.5 -183.5t47.5 -181t44 -175.5q9 -39 17 -58.5t18 -26.5t24 -12q3 -11 3.5 -23t-0.5 -25q-16 2 -38.5 2.5t-43.5 0.5h-36h-28t-31.5 -0.5
l-33 -1t-31.5 -1.5q0 13 2 25.5t7 22.5q43 6 54 21.5t0 60.5q-18 77 -37 153.5t-41 151.5q-9 32 -14.5 60t-10.5 66h11q-17 -38 -32 -67.5t-34 -63.5q-38 -71 -77.5 -141.5t-81.5 -141.5q-21 -35 -25.5 -55t6.5 -29.5t36 -14.5q2 -11 3 -23t0 -25q-16 2 -32 2.5t-32.5 0.5
h-32.5q-26 0 -45.5 -0.5t-40.5 -2.5zM155 205l23 55h260l4 -49q-45 0 -94.5 -0.5t-99.5 -1.5t-93 -4zM402 728q-80 0 -116.5 35.5t-23.5 103.5q12 5 26.5 7.5t26.5 1.5q0 -36 29 -56.5t80 -20.5t86.5 20.5t45.5 56.5q13 2 24.5 0t17.5 -5q-13 -69 -63.5 -106t-132.5 -37z
M506 904q-21 0 -37 6t-30.5 13t-29.5 12.5t-32 5.5q-21 0 -41 -10t-39 -24q-7 9 -9.5 20t-1.5 26q35 35 67 46.5t58 11.5q28 0 48.5 -9t39 -17.5t38.5 -8.5q18 0 33.5 8.5t29.5 21.5q9 -4 17.5 -10t13.5 -17q-31 -40 -62.5 -57.5t-62.5 -17.5z" />
    <glyph glyph-name="uni01CD" unicode="&#x1cd;" horiz-adv-x="691" 
d="M-28 -3q0 13 2 25t7 23q18 6 32 16.5t30 32.5t39 61q35 59 71 120.5t72.5 126t75 133t80.5 141.5q11 4 22.5 5t22.5 1q27 -92 51.5 -183.5t47.5 -181t44 -175.5q9 -39 17 -58.5t18 -26.5t24 -12q3 -11 3.5 -23t-0.5 -25q-16 2 -38.5 2.5t-43.5 0.5h-36h-28t-31.5 -0.5
l-33 -1t-31.5 -1.5q0 13 2 25.5t7 22.5q43 6 54 21.5t0 60.5q-18 77 -37 153.5t-41 151.5q-9 32 -14.5 60t-10.5 66h11q-17 -38 -32 -67.5t-34 -63.5q-38 -71 -77.5 -141.5t-81.5 -141.5q-21 -35 -25.5 -55t6.5 -29.5t36 -14.5q2 -11 3 -23t0 -25q-16 2 -32 2.5t-32.5 0.5
h-32.5q-26 0 -45.5 -0.5t-40.5 -2.5zM155 205l23 55h260l4 -49q-45 0 -94.5 -0.5t-99.5 -1.5t-93 -4zM389 732q-25 30 -57 62t-67 59q3 14 10 22.5t20 10.5q31 -18 66 -36t66 -32q41 15 74.5 31.5t61.5 33.5q10 -4 18.5 -12.5t13.5 -18.5q-39 -25 -82.5 -54.5t-81.5 -59.5
q-22 -10 -42 -6z" />
    <glyph glyph-name="Acircumflex" unicode="&#xc2;" horiz-adv-x="691" 
d="M-28 -3q0 13 2 25t7 23q18 6 32 16.5t30 32.5t39 61q35 59 71 120.5t72.5 126t75 133t80.5 141.5q11 4 22.5 5t22.5 1q27 -92 51.5 -183.5t47.5 -181t44 -175.5q9 -39 17 -58.5t18 -26.5t24 -12q3 -11 3.5 -23t-0.5 -25q-16 2 -38.5 2.5t-43.5 0.5h-36h-28t-31.5 -0.5
l-33 -1t-31.5 -1.5q0 13 2 25.5t7 22.5q43 6 54 21.5t0 60.5q-18 77 -37 153.5t-41 151.5q-9 32 -14.5 60t-10.5 66h11q-17 -38 -32 -67.5t-34 -63.5q-38 -71 -77.5 -141.5t-81.5 -141.5q-21 -35 -25.5 -55t6.5 -29.5t36 -14.5q2 -11 3 -23t0 -25q-16 2 -32 2.5t-32.5 0.5
h-32.5q-26 0 -45.5 -0.5t-40.5 -2.5zM155 205l23 55h260l4 -49q-45 0 -94.5 -0.5t-99.5 -1.5t-93 -4zM291 728q-9 8 -14 21t-5 24q28 16 55 33.5t52.5 36.5t48.5 37q13 2 24 0.5t22 -6.5q25 -28 53 -57t59 -60q-5 -10 -15.5 -16.5t-23.5 -7.5q-28 18 -58.5 34t-62.5 28
q-23 -8 -46.5 -19.5t-45.5 -23.5t-43 -24z" />
    <glyph glyph-name="uni1EA4" unicode="&#x1ea4;" horiz-adv-x="691" 
d="M-28 -3q0 13 2 25t7 23q18 6 32 16.5t30 32.5t39 61q35 59 71 120.5t72.5 126t75 133t80.5 141.5q11 4 22.5 5t22.5 1q27 -92 51.5 -183.5t47.5 -181t44 -175.5q9 -39 17 -58.5t18 -26.5t24 -12q3 -11 3.5 -23t-0.5 -25q-16 2 -38.5 2.5t-43.5 0.5h-36h-28t-31.5 -0.5
l-33 -1t-31.5 -1.5q0 13 2 25.5t7 22.5q43 6 54 21.5t0 60.5q-18 77 -37 153.5t-41 151.5q-9 32 -14.5 60t-10.5 66h11q-17 -38 -32 -67.5t-34 -63.5q-38 -71 -77.5 -141.5t-81.5 -141.5q-21 -35 -25.5 -55t6.5 -29.5t36 -14.5q2 -11 3 -23t0 -25q-16 2 -32 2.5t-32.5 0.5
h-32.5q-26 0 -45.5 -0.5t-40.5 -2.5zM155 205l23 55h260l4 -49q-45 0 -94.5 -0.5t-99.5 -1.5t-93 -4zM291 728q-9 8 -14 21t-5 24q28 16 55 33.5t52.5 36.5t48.5 37q13 2 24 0.5t22 -6.5q25 -28 53 -57t59 -60q-5 -10 -15.5 -16.5t-23.5 -7.5q-28 18 -58.5 34t-62.5 28
q-23 -8 -46.5 -19.5t-45.5 -23.5t-43 -24zM576.104 853.118q-11.7002 1.7998 -22.0508 5.84961t-19.3506 11.251q18.001 21.5996 32.4014 43.2012q14.4004 21.5996 25.2002 40.501q10.8008 18.9004 17.1006 31.501q9.90039 1.7998 18.9004 2.69922
q9 0.900391 18.9004 0.900391q18.9004 0 35.5508 -3.15039q16.6514 -3.14941 29.251 -9.4502q-34.2012 -28.8008 -69.752 -60.751q-35.5508 -31.9512 -66.1514 -62.5518z" />
    <glyph glyph-name="uni1EAC" unicode="&#x1eac;" horiz-adv-x="691" 
d="M-28 -3q0 13 2 25t7 23q18 6 32 16.5t30 32.5t39 61q35 59 71 120.5t72.5 126t75 133t80.5 141.5q11 4 22.5 5t22.5 1q27 -92 51.5 -183.5t47.5 -181t44 -175.5q9 -39 17 -58.5t18 -26.5t24 -12q3 -11 3.5 -23t-0.5 -25q-16 2 -38.5 2.5t-43.5 0.5h-36h-28t-31.5 -0.5
l-33 -1t-31.5 -1.5q0 13 2 25.5t7 22.5q43 6 54 21.5t0 60.5q-18 77 -37 153.5t-41 151.5q-9 32 -14.5 60t-10.5 66h11q-17 -38 -32 -67.5t-34 -63.5q-38 -71 -77.5 -141.5t-81.5 -141.5q-21 -35 -25.5 -55t6.5 -29.5t36 -14.5q2 -11 3 -23t0 -25q-16 2 -32 2.5t-32.5 0.5
h-32.5q-26 0 -45.5 -0.5t-40.5 -2.5zM155 205l23 55h260l4 -49q-45 0 -94.5 -0.5t-99.5 -1.5t-93 -4zM234 -218q-29 0 -43.5 17t-10.5 47q6 29 25 47t46 18q24 0 41.5 -16t11.5 -51q-4 -28 -22.5 -45t-47.5 -17zM291 728q-9 8 -14 21t-5 24q28 16 55 33.5t52.5 36.5t48.5 37
q13 2 24 0.5t22 -6.5q25 -28 53 -57t59 -60q-5 -10 -15.5 -16.5t-23.5 -7.5q-28 18 -58.5 34t-62.5 28q-23 -8 -46.5 -19.5t-45.5 -23.5t-43 -24z" />
    <glyph glyph-name="uni1EA6" unicode="&#x1ea6;" horiz-adv-x="691" 
d="M-28 -3q0 13 2 25t7 23q18 6 32 16.5t30 32.5t39 61q35 59 71 120.5t72.5 126t75 133t80.5 141.5q11 4 22.5 5t22.5 1q27 -92 51.5 -183.5t47.5 -181t44 -175.5q9 -39 17 -58.5t18 -26.5t24 -12q3 -11 3.5 -23t-0.5 -25q-16 2 -38.5 2.5t-43.5 0.5h-36h-28t-31.5 -0.5
l-33 -1t-31.5 -1.5q0 13 2 25.5t7 22.5q43 6 54 21.5t0 60.5q-18 77 -37 153.5t-41 151.5q-9 32 -14.5 60t-10.5 66h11q-17 -38 -32 -67.5t-34 -63.5q-38 -71 -77.5 -141.5t-81.5 -141.5q-21 -35 -25.5 -55t6.5 -29.5t36 -14.5q2 -11 3 -23t0 -25q-16 2 -32 2.5t-32.5 0.5
h-32.5q-26 0 -45.5 -0.5t-40.5 -2.5zM155 205l23 55h260l4 -49q-45 0 -94.5 -0.5t-99.5 -1.5t-93 -4zM291 728q-9 8 -14 21t-5 24q28 16 55 33.5t52.5 36.5t48.5 37q13 2 24 0.5t22 -6.5q25 -28 53 -57t59 -60q-5 -10 -15.5 -16.5t-23.5 -7.5q-28 18 -58.5 34t-62.5 28
q-23 -8 -46.5 -19.5t-45.5 -23.5t-43 -24zM609 852q-10 -4 -27 -4t-28 4q-11 19 -27 41t-34.5 44t-36.5 40q23 8 50.5 9.5t53.5 -4.5q8 -31 20 -64.5t29 -65.5z" />
    <glyph glyph-name="uni1EA8" unicode="&#x1ea8;" horiz-adv-x="691" 
d="M-28 -3q0 13 2 25t7 23q18 6 32 16.5t30 32.5t39 61q35 59 71 120.5t72.5 126t75 133t80.5 141.5q11 4 22.5 5t22.5 1q27 -92 51.5 -183.5t47.5 -181t44 -175.5q9 -39 17 -58.5t18 -26.5t24 -12q3 -11 3.5 -23t-0.5 -25q-16 2 -38.5 2.5t-43.5 0.5h-36h-28t-31.5 -0.5
l-33 -1t-31.5 -1.5q0 13 2 25.5t7 22.5q43 6 54 21.5t0 60.5q-18 77 -37 153.5t-41 151.5q-9 32 -14.5 60t-10.5 66h11q-17 -38 -32 -67.5t-34 -63.5q-38 -71 -77.5 -141.5t-81.5 -141.5q-21 -35 -25.5 -55t6.5 -29.5t36 -14.5q2 -11 3 -23t0 -25q-16 2 -32 2.5t-32.5 0.5
h-32.5q-26 0 -45.5 -0.5t-40.5 -2.5zM155 205l23 55h260l4 -49q-45 0 -94.5 -0.5t-99.5 -1.5t-93 -4zM291 728q-9 8 -14 21t-5 24q28 16 55 33.5t52.5 36.5t48.5 37q13 2 24 0.5t22 -6.5q25 -28 53 -57t59 -60q-5 -10 -15.5 -16.5t-23.5 -7.5q-28 18 -58.5 34t-62.5 28
q-23 -8 -46.5 -19.5t-45.5 -23.5t-43 -24zM544 869q-3 8 -4.5 17t0.5 17q5 20 21 29t32 17t21 22q4 11 -2.5 16t-18.5 5q-18 0 -33 -13.5t-25 -45.5q-15 3 -28 6.5t-22 10.5q5 16 8.5 27t2.5 27q19 10 46 18t61 8q49 0 70.5 -17.5t13.5 -45.5q-5 -19 -18.5 -30t-29 -19
t-28.5 -15.5t-16 -19.5q-1 -4 -2 -6.5t0 -9.5q-11 -1 -24.5 -1t-24.5 3z" />
    <glyph glyph-name="uni1EAA" unicode="&#x1eaa;" horiz-adv-x="691" 
d="M-28 -3q0 13 2 25t7 23q18 6 32 16.5t30 32.5t39 61q35 59 71 120.5t72.5 126t75 133t80.5 141.5q11 4 22.5 5t22.5 1q27 -92 51.5 -183.5t47.5 -181t44 -175.5q9 -39 17 -58.5t18 -26.5t24 -12q3 -11 3.5 -23t-0.5 -25q-16 2 -38.5 2.5t-43.5 0.5h-36h-28t-31.5 -0.5
l-33 -1t-31.5 -1.5q0 13 2 25.5t7 22.5q43 6 54 21.5t0 60.5q-18 77 -37 153.5t-41 151.5q-9 32 -14.5 60t-10.5 66h11q-17 -38 -32 -67.5t-34 -63.5q-38 -71 -77.5 -141.5t-81.5 -141.5q-21 -35 -25.5 -55t6.5 -29.5t36 -14.5q2 -11 3 -23t0 -25q-16 2 -32 2.5t-32.5 0.5
h-32.5q-26 0 -45.5 -0.5t-40.5 -2.5zM155 205l23 55h260l4 -49q-45 0 -94.5 -0.5t-99.5 -1.5t-93 -4zM291 728q-9 8 -14 21t-5 24q28 16 55 33.5t52.5 36.5t48.5 37q13 2 24 0.5t22 -6.5q25 -28 53 -57t59 -60q-5 -10 -15.5 -16.5t-23.5 -7.5q-28 18 -58.5 34t-62.5 28
q-23 -8 -46.5 -19.5t-45.5 -23.5t-43 -24zM515 931q-21 0 -37 6t-30.5 13t-29.5 12.5t-32 5.5q-21 0 -41 -10t-39 -24q-7 9 -9.5 20t-1.5 26q35 35 67 46.5t58 11.5q28 0 48.5 -9t39 -17.5t38.5 -8.5q18 0 33.5 8.5t29.5 21.5q9 -4 17.5 -10t13.5 -17q-31 -40 -62.5 -57.5
t-62.5 -17.5z" />
    <glyph glyph-name="uni0200" unicode="&#x200;" horiz-adv-x="691" 
d="M-28 -3q0 13 2 25t7 23q18 6 32 16.5t30 32.5t39 61q35 59 71 120.5t72.5 126t75 133t80.5 141.5q11 4 22.5 5t22.5 1q27 -92 51.5 -183.5t47.5 -181t44 -175.5q9 -39 17 -58.5t18 -26.5t24 -12q3 -11 3.5 -23t-0.5 -25q-16 2 -38.5 2.5t-43.5 0.5h-36h-28t-31.5 -0.5
l-33 -1t-31.5 -1.5q0 13 2 25.5t7 22.5q43 6 54 21.5t0 60.5q-18 77 -37 153.5t-41 151.5q-9 32 -14.5 60t-10.5 66h11q-17 -38 -32 -67.5t-34 -63.5q-38 -71 -77.5 -141.5t-81.5 -141.5q-21 -35 -25.5 -55t6.5 -29.5t36 -14.5q2 -11 3 -23t0 -25q-16 2 -32 2.5t-32.5 0.5
h-32.5q-26 0 -45.5 -0.5t-40.5 -2.5zM155 205l23 55h260l4 -49q-45 0 -94.5 -0.5t-99.5 -1.5t-93 -4zM340 725q-23 38 -44 68.5t-45 58.5q20 9 46.5 9.5t50.5 -4.5q8 -30 17 -64.5t23 -70.5q-11 -1 -22 0t-26 3zM498 725q-23 38 -44 68.5t-44 59.5q20 8 46 8.5t50 -4.5
q8 -30 17 -64.5t23 -70.5q-11 -1 -22 0t-26 3z" />
    <glyph glyph-name="Adieresis" unicode="&#xc4;" horiz-adv-x="691" 
d="M-28 -3q0 13 2 25t7 23q18 6 32 16.5t30 32.5t39 61q35 59 71 120.5t72.5 126t75 133t80.5 141.5q11 4 22.5 5t22.5 1q27 -92 51.5 -183.5t47.5 -181t44 -175.5q9 -39 17 -58.5t18 -26.5t24 -12q3 -11 3.5 -23t-0.5 -25q-16 2 -38.5 2.5t-43.5 0.5h-36h-28t-31.5 -0.5
l-33 -1t-31.5 -1.5q0 13 2 25.5t7 22.5q43 6 54 21.5t0 60.5q-18 77 -37 153.5t-41 151.5q-9 32 -14.5 60t-10.5 66h11q-17 -38 -32 -67.5t-34 -63.5q-38 -71 -77.5 -141.5t-81.5 -141.5q-21 -35 -25.5 -55t6.5 -29.5t36 -14.5q2 -11 3 -23t0 -25q-16 2 -32 2.5t-32.5 0.5
h-32.5q-26 0 -45.5 -0.5t-40.5 -2.5zM155 205l23 55h260l4 -49q-45 0 -94.5 -0.5t-99.5 -1.5t-93 -4zM319 730q-28 0 -41.5 19.5t-8.5 50.5q3 23 18.5 35.5t40.5 12.5q29 0 43.5 -18t7.5 -48q-12 -52 -60 -52zM521 731q-28 0 -42 18t-10 47q8 52 63 52q27 0 41 -17t9 -46
q-8 -54 -61 -54z" />
    <glyph glyph-name="uni1EA0" unicode="&#x1ea0;" horiz-adv-x="691" 
d="M-28 -3q0 13 2 25t7 23q18 6 32 16.5t30 32.5t39 61q35 59 71 120.5t72.5 126t75 133t80.5 141.5q11 4 22.5 5t22.5 1q27 -92 51.5 -183.5t47.5 -181t44 -175.5q9 -39 17 -58.5t18 -26.5t24 -12q3 -11 3.5 -23t-0.5 -25q-16 2 -38.5 2.5t-43.5 0.5h-36h-28t-31.5 -0.5
l-33 -1t-31.5 -1.5q0 13 2 25.5t7 22.5q43 6 54 21.5t0 60.5q-18 77 -37 153.5t-41 151.5q-9 32 -14.5 60t-10.5 66h11q-17 -38 -32 -67.5t-34 -63.5q-38 -71 -77.5 -141.5t-81.5 -141.5q-21 -35 -25.5 -55t6.5 -29.5t36 -14.5q2 -11 3 -23t0 -25q-16 2 -32 2.5t-32.5 0.5
h-32.5q-26 0 -45.5 -0.5t-40.5 -2.5zM155 205l23 55h260l4 -49q-45 0 -94.5 -0.5t-99.5 -1.5t-93 -4zM234 -218q-29 0 -43.5 17t-10.5 47q6 29 25 47t46 18q24 0 41.5 -16t11.5 -51q-4 -28 -22.5 -45t-47.5 -17z" />
    <glyph glyph-name="Agrave" unicode="&#xc0;" horiz-adv-x="691" 
d="M-28 -3q0 13 2 25t7 23q18 6 32 16.5t30 32.5t39 61q35 59 71 120.5t72.5 126t75 133t80.5 141.5q11 4 22.5 5t22.5 1q27 -92 51.5 -183.5t47.5 -181t44 -175.5q9 -39 17 -58.5t18 -26.5t24 -12q3 -11 3.5 -23t-0.5 -25q-16 2 -38.5 2.5t-43.5 0.5h-36h-28t-31.5 -0.5
l-33 -1t-31.5 -1.5q0 13 2 25.5t7 22.5q43 6 54 21.5t0 60.5q-18 77 -37 153.5t-41 151.5q-9 32 -14.5 60t-10.5 66h11q-17 -38 -32 -67.5t-34 -63.5q-38 -71 -77.5 -141.5t-81.5 -141.5q-21 -35 -25.5 -55t6.5 -29.5t36 -14.5q2 -11 3 -23t0 -25q-16 2 -32 2.5t-32.5 0.5
h-32.5q-26 0 -45.5 -0.5t-40.5 -2.5zM155 205l23 55h260l4 -49q-45 0 -94.5 -0.5t-99.5 -1.5t-93 -4zM456 740q-10 -4 -27 -4t-28 4q-11 19 -27 41t-34.5 44t-36.5 40q23 8 50.5 9.5t53.5 -4.5q8 -31 20 -64.5t29 -65.5z" />
    <glyph glyph-name="uni1EA2" unicode="&#x1ea2;" horiz-adv-x="691" 
d="M-28 -3q0 13 2 25t7 23q18 6 32 16.5t30 32.5t39 61q35 59 71 120.5t72.5 126t75 133t80.5 141.5q11 4 22.5 5t22.5 1q27 -92 51.5 -183.5t47.5 -181t44 -175.5q9 -39 17 -58.5t18 -26.5t24 -12q3 -11 3.5 -23t-0.5 -25q-16 2 -38.5 2.5t-43.5 0.5h-36h-28t-31.5 -0.5
l-33 -1t-31.5 -1.5q0 13 2 25.5t7 22.5q43 6 54 21.5t0 60.5q-18 77 -37 153.5t-41 151.5q-9 32 -14.5 60t-10.5 66h11q-17 -38 -32 -67.5t-34 -63.5q-38 -71 -77.5 -141.5t-81.5 -141.5q-21 -35 -25.5 -55t6.5 -29.5t36 -14.5q2 -11 3 -23t0 -25q-16 2 -32 2.5t-32.5 0.5
h-32.5q-26 0 -45.5 -0.5t-40.5 -2.5zM155 205l23 55h260l4 -49q-45 0 -94.5 -0.5t-99.5 -1.5t-93 -4zM387 731q-3 8 -4.5 17t0.5 17q5 20 21 29t32 17t21 22q4 11 -2.5 16t-18.5 5q-18 0 -33 -13.5t-25 -45.5q-15 3 -28 6.5t-22 10.5q5 16 8.5 27t2.5 27q19 10 46 18t61 8
q49 0 70.5 -17.5t13.5 -45.5q-5 -19 -18.5 -30t-29 -19t-28.5 -15.5t-16 -19.5q-1 -4 -2 -6.5t0 -9.5q-11 -1 -24.5 -1t-24.5 3z" />
    <glyph glyph-name="uni0202" unicode="&#x202;" horiz-adv-x="691" 
d="M-28 -3q0 13 2 25t7 23q18 6 32 16.5t30 32.5t39 61q35 59 71 120.5t72.5 126t75 133t80.5 141.5q11 4 22.5 5t22.5 1q27 -92 51.5 -183.5t47.5 -181t44 -175.5q9 -39 17 -58.5t18 -26.5t24 -12q3 -11 3.5 -23t-0.5 -25q-16 2 -38.5 2.5t-43.5 0.5h-36h-28t-31.5 -0.5
l-33 -1t-31.5 -1.5q0 13 2 25.5t7 22.5q43 6 54 21.5t0 60.5q-18 77 -37 153.5t-41 151.5q-9 32 -14.5 60t-10.5 66h11q-17 -38 -32 -67.5t-34 -63.5q-38 -71 -77.5 -141.5t-81.5 -141.5q-21 -35 -25.5 -55t6.5 -29.5t36 -14.5q2 -11 3 -23t0 -25q-16 2 -32 2.5t-32.5 0.5
h-32.5q-26 0 -45.5 -0.5t-40.5 -2.5zM155 205l23 55h260l4 -49q-45 0 -94.5 -0.5t-99.5 -1.5t-93 -4zM453 870q80 0 116.5 -35.5t23.5 -103.5q-12 -5 -26.5 -7.5t-26.5 -1.5q0 36 -29 56.5t-80 20.5t-86.5 -20.5t-45.5 -56.5q-13 -2 -24.5 0t-17.5 5q13 69 63.5 106
t132.5 37z" />
    <glyph glyph-name="Amacron" unicode="&#x100;" horiz-adv-x="691" 
d="M-28 -3q0 13 2 25t7 23q18 6 32 16.5t30 32.5t39 61q35 59 71 120.5t72.5 126t75 133t80.5 141.5q11 4 22.5 5t22.5 1q27 -92 51.5 -183.5t47.5 -181t44 -175.5q9 -39 17 -58.5t18 -26.5t24 -12q3 -11 3.5 -23t-0.5 -25q-16 2 -38.5 2.5t-43.5 0.5h-36h-28t-31.5 -0.5
l-33 -1t-31.5 -1.5q0 13 2 25.5t7 22.5q43 6 54 21.5t0 60.5q-18 77 -37 153.5t-41 151.5q-9 32 -14.5 60t-10.5 66h11q-17 -38 -32 -67.5t-34 -63.5q-38 -71 -77.5 -141.5t-81.5 -141.5q-21 -35 -25.5 -55t6.5 -29.5t36 -14.5q2 -11 3 -23t0 -25q-16 2 -32 2.5t-32.5 0.5
h-32.5q-26 0 -45.5 -0.5t-40.5 -2.5zM155 205l23 55h260l4 -49q-45 0 -94.5 -0.5t-99.5 -1.5t-93 -4zM245 763q0 8 2 24t7 25h351q0 -10 -2 -21.5t-7 -23.5q-98 0 -186 -0.5t-165 -3.5z" />
    <glyph glyph-name="Aogonek" unicode="&#x104;" horiz-adv-x="691" 
d="M-28 -3q0 13 2 25t7 23q18 6 32 16.5t30 32.5t39 61q35 59 71 120.5t72.5 126t75 133t80.5 141.5q11 4 22.5 5t22.5 1q27 -92 51.5 -183.5t47.5 -181t44 -175.5q9 -39 17 -58.5t18 -26.5t24 -12q3 -11 3.5 -23t-0.5 -25q-16 2 -38.5 2.5t-43.5 0.5h-36h-28t-31.5 -0.5
l-33 -1t-31.5 -1.5q0 13 2 25.5t7 22.5q43 6 54 21.5t0 60.5q-18 77 -37 153.5t-41 151.5q-9 32 -14.5 60t-10.5 66h11q-17 -38 -32 -67.5t-34 -63.5q-38 -71 -77.5 -141.5t-81.5 -141.5q-21 -35 -25.5 -55t6.5 -29.5t36 -14.5q2 -11 3 -23t0 -25q-16 2 -32 2.5t-32.5 0.5
h-32.5q-26 0 -45.5 -0.5t-40.5 -2.5zM155 205l23 55h260l4 -49q-45 0 -94.5 -0.5t-99.5 -1.5t-93 -4zM534 23l37 -23q-55 -26 -80 -52.5t-29 -52.5q-2 -21 11.5 -37t42.5 -16q8 0 19 2t21 6q5 -9 6.5 -20.5t-0.5 -23.5q-22 -10 -43.5 -23t-41.5 -30q-4 -1 -9 -1.5t-11 -0.5
q-24 0 -47.5 11.5t-36.5 35.5t-8 62q5 28 22.5 55.5t53.5 54.5t93 53z" />
    <glyph glyph-name="Aring" unicode="&#xc5;" horiz-adv-x="691" 
d="M-28 -3q0 13 2 25t7 23q18 6 32 16.5t30 32.5t39 61q35 59 71 120.5t72.5 126t75 133t80.5 141.5q11 4 22.5 5t22.5 1q27 -92 51.5 -183.5t47.5 -181t44 -175.5q9 -39 17 -58.5t18 -26.5t24 -12q3 -11 3.5 -23t-0.5 -25q-16 2 -38.5 2.5t-43.5 0.5h-36h-28t-31.5 -0.5
l-33 -1t-31.5 -1.5q0 13 2 25.5t7 22.5q43 6 54 21.5t0 60.5q-18 77 -37 153.5t-41 151.5q-9 32 -14.5 60t-10.5 66h11q-17 -38 -32 -67.5t-34 -63.5q-38 -71 -77.5 -141.5t-81.5 -141.5q-21 -35 -25.5 -55t6.5 -29.5t36 -14.5q2 -11 3 -23t0 -25q-16 2 -32 2.5t-32.5 0.5
h-32.5q-26 0 -45.5 -0.5t-40.5 -2.5zM155 205l23 55h260l4 -49q-45 0 -94.5 -0.5t-99.5 -1.5t-93 -4zM422 721q-56 0 -81 25t-19 61q6 33 35 51.5t77 18.5q41 0 63.5 -12t31 -32t4.5 -43q-6 -32 -34.5 -50.5t-76.5 -18.5zM425 758q16 0 28.5 9t16.5 26q4 18 -5.5 33.5
t-33.5 15.5q-20 0 -32.5 -12t-15.5 -29q-4 -18 8 -30.5t34 -12.5z" />
    <glyph glyph-name="Aringacute" unicode="&#x1fa;" horiz-adv-x="691" 
d="M-28 -3q0 13 2 25t7 23q18 6 32 16.5t30 32.5t39 61q35 59 71 120.5t72.5 126t75 133t80.5 141.5q11 4 22.5 5t22.5 1q27 -92 51.5 -183.5t47.5 -181t44 -175.5q9 -39 17 -58.5t18 -26.5t24 -12q3 -11 3.5 -23t-0.5 -25q-16 2 -38.5 2.5t-43.5 0.5h-36h-28t-31.5 -0.5
l-33 -1t-31.5 -1.5q0 13 2 25.5t7 22.5q43 6 54 21.5t0 60.5q-18 77 -37 153.5t-41 151.5q-9 32 -14.5 60t-10.5 66h11q-17 -38 -32 -67.5t-34 -63.5q-38 -71 -77.5 -141.5t-81.5 -141.5q-21 -35 -25.5 -55t6.5 -29.5t36 -14.5q2 -11 3 -23t0 -25q-16 2 -32 2.5t-32.5 0.5
h-32.5q-26 0 -45.5 -0.5t-40.5 -2.5zM155 205l23 55h260l4 -49q-45 0 -94.5 -0.5t-99.5 -1.5t-93 -4zM422 721q-56 0 -81 25t-19 61q6 33 35 51.5t77 18.5q41 0 63.5 -12t31 -32t4.5 -43q-6 -32 -34.5 -50.5t-76.5 -18.5zM425 758q16 0 28.5 9t16.5 26q4 18 -5.5 33.5
t-33.5 15.5q-20 0 -32.5 -12t-15.5 -29q-4 -18 8 -30.5t34 -12.5zM443 930q-13 2 -24.5 6.5t-21.5 12.5q20 24 36 48t28 45t19 35q11 2 21 3t21 1q21 0 39.5 -3.5t32.5 -10.5q-38 -32 -77.5 -67.5t-73.5 -69.5z" />
    <glyph glyph-name="Atilde" unicode="&#xc3;" horiz-adv-x="691" 
d="M-28 -3q0 13 2 25t7 23q18 6 32 16.5t30 32.5t39 61q35 59 71 120.5t72.5 126t75 133t80.5 141.5q11 4 22.5 5t22.5 1q27 -92 51.5 -183.5t47.5 -181t44 -175.5q9 -39 17 -58.5t18 -26.5t24 -12q3 -11 3.5 -23t-0.5 -25q-16 2 -38.5 2.5t-43.5 0.5h-36h-28t-31.5 -0.5
l-33 -1t-31.5 -1.5q0 13 2 25.5t7 22.5q43 6 54 21.5t0 60.5q-18 77 -37 153.5t-41 151.5q-9 32 -14.5 60t-10.5 66h11q-17 -38 -32 -67.5t-34 -63.5q-38 -71 -77.5 -141.5t-81.5 -141.5q-21 -35 -25.5 -55t6.5 -29.5t36 -14.5q2 -11 3 -23t0 -25q-16 2 -32 2.5t-32.5 0.5
h-32.5q-26 0 -45.5 -0.5t-40.5 -2.5zM155 205l23 55h260l4 -49q-45 0 -94.5 -0.5t-99.5 -1.5t-93 -4zM476 746q-21 0 -37 6t-30.5 13t-29.5 12.5t-32 5.5q-21 0 -41 -10t-39 -24q-7 9 -9.5 20t-1.5 26q35 35 67 46.5t58 11.5q28 0 48.5 -9t39 -17.5t38.5 -8.5q18 0 33.5 8.5
t29.5 21.5q9 -4 17.5 -10t13.5 -17q-31 -40 -62.5 -57.5t-62.5 -17.5z" />
    <glyph glyph-name="AE" unicode="&#xc6;" horiz-adv-x="865" 
d="M263 343h227l-8 -47q-49 0 -93.5 -0.5t-83.5 -2t-74 -4.5zM703 424q15 3 27.5 3.5t27.5 -1.5q-6 -26 -11 -50.5t-10 -63.5q-5 -35 -7.5 -62t-4.5 -52q-16 2 -29 4.5t-23 8.5q2 32 -5.5 50.5t-28.5 26.5t-60 8h-55l8 47h52q59 0 85.5 16.5t33.5 64.5zM868 679
q-5 -38 -7.5 -83.5t-0.5 -82.5q-23 -9 -57 -8q-1 42 -9.5 69t-37.5 39.5t-92 12.5h-93l31 50h87t87 1t92 2zM775 179q16 -2 29 -7.5t24 -16.5q-16 -32 -30 -72.5t-23 -85.5q-29 2 -62 2.5t-68.5 0.5h-73.5l14 50h5q58 0 90.5 14.5t53.5 43.5t41 71zM512 676h91l-89 -527
q-7 -43 -4.5 -64t21 -28t54.5 -7l-14 -50h-68.5t-67 -0.5t-63.5 -1t-60 -1.5q0 12 2 24.5t7 24.5q30 3 45 12t23 31t15 62l62 353q11 61 23.5 104.5t22.5 67.5zM387 534q30 42 22 67.5t-55 29.5q-3 11 -3 23.5t2 24.5q42 -1 74 -2t56.5 -1h43.5q-18 -33 -39.5 -67.5
t-50 -77.5t-68 -98.5t-93 -130t-126.5 -174.5q-28 -38 -27 -56.5t29 -26.5q2 -11 3 -23t0 -25q-16 2 -32 2.5t-32.5 0.5h-32.5q-26 0 -45.5 -0.5t-40.5 -2.5q0 13 2 25t7 23q18 6 33.5 14.5t34 27.5t46.5 55q49 62 96.5 127t97 131.5t98.5 133.5z" />
    <glyph glyph-name="AEacute" unicode="&#x1fc;" horiz-adv-x="865" 
d="M263 343h227l-8 -47q-49 0 -93.5 -0.5t-83.5 -2t-74 -4.5zM703 424q15 3 27.5 3.5t27.5 -1.5q-6 -26 -11 -50.5t-10 -63.5q-5 -35 -7.5 -62t-4.5 -52q-16 2 -29 4.5t-23 8.5q2 32 -5.5 50.5t-28.5 26.5t-60 8h-55l8 47h52q59 0 85.5 16.5t33.5 64.5zM868 679
q-5 -38 -7.5 -83.5t-0.5 -82.5q-23 -9 -57 -8q-1 42 -9.5 69t-37.5 39.5t-92 12.5h-93l31 50h87t87 1t92 2zM775 179q16 -2 29 -7.5t24 -16.5q-16 -32 -30 -72.5t-23 -85.5q-29 2 -62 2.5t-68.5 0.5h-73.5l14 50h5q58 0 90.5 14.5t53.5 43.5t41 71zM512 676h91l-89 -527
q-7 -43 -4.5 -64t21 -28t54.5 -7l-14 -50h-68.5t-67 -0.5t-63.5 -1t-60 -1.5q0 12 2 24.5t7 24.5q30 3 45 12t23 31t15 62l62 353q11 61 23.5 104.5t22.5 67.5zM387 534q30 42 22 67.5t-55 29.5q-3 11 -3 23.5t2 24.5q42 -1 74 -2t56.5 -1h43.5q-18 -33 -39.5 -67.5
t-50 -77.5t-68 -98.5t-93 -130t-126.5 -174.5q-28 -38 -27 -56.5t29 -26.5q2 -11 3 -23t0 -25q-16 2 -32 2.5t-32.5 0.5h-32.5q-26 0 -45.5 -0.5t-40.5 -2.5q0 13 2 25t7 23q18 6 33.5 14.5t34 27.5t46.5 55q49 62 96.5 127t97 131.5t98.5 133.5zM592 729q-13 2 -24.5 6.5
t-21.5 12.5q20 24 36 48t28 45t19 35q11 2 21 3t21 1q21 0 39.5 -3.5t32.5 -10.5q-38 -32 -77.5 -67.5t-73.5 -69.5z" />
    <glyph glyph-name="B" unicode="B" horiz-adv-x="618" 
d="M224 138q-7 -41 -3.5 -60.5t21.5 -25t51 -5.5q61 0 105 34t54 90q17 86 -22.5 121t-147.5 35h-42l9 51h46q76 0 120 34.5t55 91.5q13 64 -19.5 95.5t-94.5 31.5q-14 0 -28.5 -3t-32.5 -8l16 22zM235 676q37 0 77 1.5t78 1.5q76 0 124 -17t67 -54.5t8 -96.5
q-10 -55 -56.5 -95t-116.5 -50q96 -5 138 -53.5t24 -141.5q-10 -52 -45 -90.5t-93.5 -59.5t-138.5 -21h-91.5t-98 -0.5t-88.5 -2.5q1 15 3.5 27t5.5 21q31 5 46 14t23 30t14 62l69 395q6 35 2 52t-18.5 23.5t-40.5 9.5q-3 11 -3 23t1 25q33 -2 58 -2.5t52 -0.5z" />
    <glyph glyph-name="C" unicode="C" horiz-adv-x="632" 
d="M665 627q-13 -34 -20.5 -71.5t-12.5 -80.5q-28 -11 -60 -2q8 68 -4 103.5t-40.5 48.5t-69.5 13q-79 0 -138 -41t-94 -110t-46 -152q-8 -74 8.5 -137.5t62 -102t122.5 -38.5q51 0 99.5 14.5t92.5 40.5q9 -8 12.5 -19t4.5 -24q-56 -40 -116 -59t-125 -19q-104 0 -171 45.5
t-95.5 123t-15.5 173.5q13 92 51.5 158.5t93.5 109.5t119.5 63.5t128.5 20.5q63 0 113 -14t100 -44z" />
    <glyph glyph-name="Cacute" unicode="&#x106;" horiz-adv-x="632" 
d="M665 627q-13 -34 -20.5 -71.5t-12.5 -80.5q-28 -11 -60 -2q8 68 -4 103.5t-40.5 48.5t-69.5 13q-79 0 -138 -41t-94 -110t-46 -152q-8 -74 8.5 -137.5t62 -102t122.5 -38.5q51 0 99.5 14.5t92.5 40.5q9 -8 12.5 -19t4.5 -24q-56 -40 -116 -59t-125 -19q-104 0 -171 45.5
t-95.5 123t-15.5 173.5q13 92 51.5 158.5t93.5 109.5t119.5 63.5t128.5 20.5q63 0 113 -14t100 -44zM457 729q-13 2 -24.5 6.5t-21.5 12.5q20 24 36 48t28 45t19 35q11 2 21 3t21 1q21 0 39.5 -3.5t32.5 -10.5q-38 -32 -77.5 -67.5t-73.5 -69.5z" />
    <glyph glyph-name="Ccaron" unicode="&#x10c;" horiz-adv-x="632" 
d="M665 627q-13 -34 -20.5 -71.5t-12.5 -80.5q-28 -11 -60 -2q8 68 -4 103.5t-40.5 48.5t-69.5 13q-79 0 -138 -41t-94 -110t-46 -152q-8 -74 8.5 -137.5t62 -102t122.5 -38.5q51 0 99.5 14.5t92.5 40.5q9 -8 12.5 -19t4.5 -24q-56 -40 -116 -59t-125 -19q-104 0 -171 45.5
t-95.5 123t-15.5 173.5q13 92 51.5 158.5t93.5 109.5t119.5 63.5t128.5 20.5q63 0 113 -14t100 -44zM441 732q-25 30 -57 62t-67 59q3 14 10 22.5t20 10.5q31 -18 66 -36t66 -32q41 15 74.5 31.5t61.5 33.5q10 -4 18.5 -12.5t13.5 -18.5q-39 -25 -82.5 -54.5t-81.5 -59.5
q-22 -10 -42 -6z" />
    <glyph glyph-name="Ccedilla" unicode="&#xc7;" horiz-adv-x="632" 
d="M665 627q-13 -34 -20.5 -71.5t-12.5 -80.5q-28 -11 -60 -2q8 68 -4 103.5t-40.5 48.5t-69.5 13q-79 0 -138 -41t-94 -110t-46 -152q-8 -74 8.5 -137.5t62 -102t122.5 -38.5q51 0 99.5 14.5t92.5 40.5q9 -8 12.5 -19t4.5 -24q-56 -40 -116 -59t-125 -19q-104 0 -171 45.5
t-95.5 123t-15.5 173.5q13 92 51.5 158.5t93.5 109.5t119.5 63.5t128.5 20.5q63 0 113 -14t100 -44zM227 -242q-2 8 -2 17t1 18q37 0 60.5 11.5t28.5 36.5q5 28 -10.5 42.5t-43.5 14.5q-15 15 -10 39l68 79h60l-58 -70q37 -7 53 -32.5t7 -69.5t-51 -65.5t-103 -20.5z" />
    <glyph glyph-name="uni1E08" unicode="&#x1e08;" horiz-adv-x="632" 
d="M665 627q-13 -34 -20.5 -71.5t-12.5 -80.5q-28 -11 -60 -2q8 68 -4 103.5t-40.5 48.5t-69.5 13q-79 0 -138 -41t-94 -110t-46 -152q-8 -74 8.5 -137.5t62 -102t122.5 -38.5q51 0 99.5 14.5t92.5 40.5q9 -8 12.5 -19t4.5 -24q-56 -40 -116 -59t-125 -19q-104 0 -171 45.5
t-95.5 123t-15.5 173.5q13 92 51.5 158.5t93.5 109.5t119.5 63.5t128.5 20.5q63 0 113 -14t100 -44zM227 -242q-2 8 -2 17t1 18q37 0 60.5 11.5t28.5 36.5q5 28 -10.5 42.5t-43.5 14.5q-15 15 -10 39l68 79h60l-58 -70q37 -7 53 -32.5t7 -69.5t-51 -65.5t-103 -20.5z
M457 729q-13 2 -24.5 6.5t-21.5 12.5q20 24 36 48t28 45t19 35q11 2 21 3t21 1q21 0 39.5 -3.5t32.5 -10.5q-38 -32 -77.5 -67.5t-73.5 -69.5z" />
    <glyph glyph-name="Ccircumflex" unicode="&#x108;" horiz-adv-x="632" 
d="M665 627q-13 -34 -20.5 -71.5t-12.5 -80.5q-28 -11 -60 -2q8 68 -4 103.5t-40.5 48.5t-69.5 13q-79 0 -138 -41t-94 -110t-46 -152q-8 -74 8.5 -137.5t62 -102t122.5 -38.5q51 0 99.5 14.5t92.5 40.5q9 -8 12.5 -19t4.5 -24q-56 -40 -116 -59t-125 -19q-104 0 -171 45.5
t-95.5 123t-15.5 173.5q13 92 51.5 158.5t93.5 109.5t119.5 63.5t128.5 20.5q63 0 113 -14t100 -44zM344 728q-9 8 -14 21t-5 24q28 16 55 33.5t52.5 36.5t48.5 37q13 2 24 0.5t22 -6.5q25 -28 53 -57t59 -60q-5 -10 -15.5 -16.5t-23.5 -7.5q-28 18 -58.5 34t-62.5 28
q-23 -8 -46.5 -19.5t-45.5 -23.5t-43 -24z" />
    <glyph glyph-name="Cdotaccent" unicode="&#x10a;" horiz-adv-x="632" 
d="M665 627q-13 -34 -20.5 -71.5t-12.5 -80.5q-28 -11 -60 -2q8 68 -4 103.5t-40.5 48.5t-69.5 13q-79 0 -138 -41t-94 -110t-46 -152q-8 -74 8.5 -137.5t62 -102t122.5 -38.5q51 0 99.5 14.5t92.5 40.5q9 -8 12.5 -19t4.5 -24q-56 -40 -116 -59t-125 -19q-104 0 -171 45.5
t-95.5 123t-15.5 173.5q13 92 51.5 158.5t93.5 109.5t119.5 63.5t128.5 20.5q63 0 113 -14t100 -44zM466 720q-28 0 -42 17t-10 45q5 28 25 43.5t47 15.5q28 0 43 -17.5t9 -46.5q-4 -27 -23.5 -42t-48.5 -15z" />
    <glyph glyph-name="D" unicode="D" horiz-adv-x="735" 
d="M397 679q54 0 107 -9t98.5 -32t76.5 -62.5t42 -101.5t-6 -149q-12 -70 -40.5 -123.5t-69.5 -92t-92 -62.5t-108.5 -35.5t-120.5 -11.5h-111l9 50h113q54 0 102 14t88 45.5t69 83.5t43 129q17 90 5.5 150t-44.5 95t-80.5 49.5t-101.5 14.5q-21 0 -38 -2t-36 -8l-41 55
q33 0 67.5 1.5t68.5 1.5zM125 679q22 -1 48.5 -1.5t53.5 -1t50.5 -0.5h38.5l-91 -535q-6 -39 -3.5 -58.5t19.5 -26t54 -6.5l-11 -50h-61.5t-69 -0.5t-69 -1t-61.5 -1.5q1 13 3 26t6 22q30 4 45.5 13t24 31t14.5 62l69 395q6 35 1.5 52t-19 23.5t-40.5 9.5q-3 13 -3 25t1 23z
" />
    <glyph glyph-name="uni01F1" unicode="&#x1f1;" horiz-adv-x="1279" 
d="M397 679q54 0 107 -9t98.5 -32t76.5 -62.5t42 -101.5t-6 -149q-12 -70 -40.5 -123.5t-69.5 -92t-92 -62.5t-108.5 -35.5t-120.5 -11.5h-111l9 50h113q54 0 102 14t88 45.5t69 83.5t43 129q17 90 5.5 150t-44.5 95t-80.5 49.5t-101.5 14.5q-21 0 -38 -2t-36 -8l-41 55
q33 0 67.5 1.5t68.5 1.5zM125 679q22 -1 48.5 -1.5t53.5 -1t50.5 -0.5h38.5l-91 -535q-6 -39 -3.5 -58.5t19.5 -26t54 -6.5l-11 -50h-61.5t-69 -0.5t-69 -1t-61.5 -1.5q1 13 3 26t6 22q30 4 45.5 13t24 31t14.5 62l69 395q6 35 1.5 52t-19 23.5t-40.5 9.5q-3 13 -3 25t1 23z
M725 -3q-5 9 -8.5 20.5t-2.5 26.5q83 101 161.5 200t154.5 200t150 205l17 -22h-152q-42 0 -70.5 -10t-50.5 -38t-44 -84q-38 3 -60 21q10 21 18.5 48.5t15.5 57.5t11 57q39 -1 75 -2t74.5 -1h82.5h67t65.5 1t71.5 2q14 -17 14 -47q-77 -105 -153 -206.5t-154.5 -201.5
t-161.5 -201l-11 27h160q44 0 74.5 5t50.5 18.5t37 39t34 67.5q36 -7 59 -27q-9 -21 -17.5 -47t-16 -54.5t-12.5 -54.5q-47 2 -89 2.5t-83 0.5h-85h-82t-68.5 -0.5t-71.5 -2.5z" />
    <glyph glyph-name="uni01C4" unicode="&#x1c4;" horiz-adv-x="1279" 
d="M397 679q54 0 107 -9t98.5 -32t76.5 -62.5t42 -101.5t-6 -149q-12 -70 -40.5 -123.5t-69.5 -92t-92 -62.5t-108.5 -35.5t-120.5 -11.5h-111l9 50h113q54 0 102 14t88 45.5t69 83.5t43 129q17 90 5.5 150t-44.5 95t-80.5 49.5t-101.5 14.5q-21 0 -38 -2t-36 -8l-41 55
q33 0 67.5 1.5t68.5 1.5zM125 679q22 -1 48.5 -1.5t53.5 -1t50.5 -0.5h38.5l-91 -535q-6 -39 -3.5 -58.5t19.5 -26t54 -6.5l-11 -50h-61.5t-69 -0.5t-69 -1t-61.5 -1.5q1 13 3 26t6 22q30 4 45.5 13t24 31t14.5 62l69 395q6 35 1.5 52t-19 23.5t-40.5 9.5q-3 13 -3 25t1 23z
M725 -3q-5 9 -8.5 20.5t-2.5 26.5q83 101 161.5 200t154.5 200t150 205l17 -22h-152q-42 0 -70.5 -10t-50.5 -38t-44 -84q-38 3 -60 21q10 21 18.5 48.5t15.5 57.5t11 57q39 -1 75 -2t74.5 -1h82.5h67t65.5 1t71.5 2q14 -17 14 -47q-77 -105 -153 -206.5t-154.5 -201.5
t-161.5 -201l-11 27h160q44 0 74.5 5t50.5 18.5t37 39t34 67.5q36 -7 59 -27q-9 -21 -17.5 -47t-16 -54.5t-12.5 -54.5q-47 2 -89 2.5t-83 0.5h-85h-82t-68.5 -0.5t-71.5 -2.5zM1063 732q-25 30 -57 62t-67 59q3 14 10 22.5t20 10.5q31 -18 66 -36t66 -32q41 15 74.5 31.5
t61.5 33.5q10 -4 18.5 -12.5t13.5 -18.5q-39 -25 -82.5 -54.5t-81.5 -59.5q-22 -10 -42 -6z" />
    <glyph glyph-name="Eth" unicode="&#xd0;" horiz-adv-x="735" 
d="M397 679q54 0 107 -9t98.5 -32t76.5 -62.5t42 -101.5t-6 -149q-12 -70 -40.5 -123.5t-69.5 -92t-92 -62.5t-108.5 -35.5t-120.5 -11.5h-111l9 50h113q54 0 102 14t88 45.5t69 83.5t43 129q17 90 5.5 150t-44.5 95t-80.5 49.5t-101.5 14.5q-21 0 -38 -2t-36 -8l-41 55
q33 0 67.5 1.5t68.5 1.5zM125 679q22 -1 48.5 -1.5t53.5 -1t50.5 -0.5h38.5l-91 -535q-6 -39 -3.5 -58.5t19.5 -26t54 -6.5l-11 -50h-61.5t-69 -0.5t-69 -1t-61.5 -1.5q1 13 3 26t6 22q30 4 45.5 13t24 31t14.5 62l69 395q6 35 1.5 52t-19 23.5t-40.5 9.5q-3 13 -3 25t1 23z
M70.0488 314q0 13 2.97461 30.5t7.22461 26.5h309.392q0 -17 -1.7002 -30.5t-7.64941 -25.5q-37.3994 1 -67.998 1h-68.8486h-67.5723q-27.625 0 -51.4238 -1q-23.7998 -1 -54.3984 -1z" />
    <glyph glyph-name="Dcaron" unicode="&#x10e;" horiz-adv-x="735" 
d="M397 679q54 0 107 -9t98.5 -32t76.5 -62.5t42 -101.5t-6 -149q-12 -70 -40.5 -123.5t-69.5 -92t-92 -62.5t-108.5 -35.5t-120.5 -11.5h-111l9 50h113q54 0 102 14t88 45.5t69 83.5t43 129q17 90 5.5 150t-44.5 95t-80.5 49.5t-101.5 14.5q-21 0 -38 -2t-36 -8l-41 55
q33 0 67.5 1.5t68.5 1.5zM125 679q22 -1 48.5 -1.5t53.5 -1t50.5 -0.5h38.5l-91 -535q-6 -39 -3.5 -58.5t19.5 -26t54 -6.5l-11 -50h-61.5t-69 -0.5t-69 -1t-61.5 -1.5q1 13 3 26t6 22q30 4 45.5 13t24 31t14.5 62l69 395q6 35 1.5 52t-19 23.5t-40.5 9.5q-3 13 -3 25t1 23z
M395 732q-25 30 -57 62t-67 59q3 14 10 22.5t20 10.5q31 -18 66 -36t66 -32q41 15 74.5 31.5t61.5 33.5q10 -4 18.5 -12.5t13.5 -18.5q-39 -25 -82.5 -54.5t-81.5 -59.5q-22 -10 -42 -6z" />
    <glyph glyph-name="uni1E10" unicode="&#x1e10;" horiz-adv-x="735" 
d="M397 679q54 0 107 -9t98.5 -32t76.5 -62.5t42 -101.5t-6 -149q-12 -70 -40.5 -123.5t-69.5 -92t-92 -62.5t-108.5 -35.5t-120.5 -11.5h-111l9 50h113q54 0 102 14t88 45.5t69 83.5t43 129q17 90 5.5 150t-44.5 95t-80.5 49.5t-101.5 14.5q-21 0 -38 -2t-36 -8l-41 55
q33 0 67.5 1.5t68.5 1.5zM125 679q22 -1 48.5 -1.5t53.5 -1t50.5 -0.5h38.5l-91 -535q-6 -39 -3.5 -58.5t19.5 -26t54 -6.5l-11 -50h-61.5t-69 -0.5t-69 -1t-61.5 -1.5q1 13 3 26t6 22q30 4 45.5 13t24 31t14.5 62l69 395q6 35 1.5 52t-19 23.5t-40.5 9.5q-3 13 -3 25t1 23z
M230 -285q-22 7 -28 25q26 22 42 44.5t19 40.5q2 16 -6.5 25.5t-29.5 11.5q-2 37 19 66q26 4 49.5 11.5t43.5 18.5q18 -7 24.5 -25t1.5 -45q-10 -54 -48.5 -97.5t-86.5 -75.5z" />
    <glyph glyph-name="Dcroat" unicode="&#x110;" horiz-adv-x="735" 
d="M397 679q54 0 107 -9t98.5 -32t76.5 -62.5t42 -101.5t-6 -149q-12 -70 -40.5 -123.5t-69.5 -92t-92 -62.5t-108.5 -35.5t-120.5 -11.5h-111l9 50h113q54 0 102 14t88 45.5t69 83.5t43 129q17 90 5.5 150t-44.5 95t-80.5 49.5t-101.5 14.5q-21 0 -38 -2t-36 -8l-41 55
q33 0 67.5 1.5t68.5 1.5zM125 679q22 -1 48.5 -1.5t53.5 -1t50.5 -0.5h38.5l-91 -535q-6 -39 -3.5 -58.5t19.5 -26t54 -6.5l-11 -50h-61.5t-69 -0.5t-69 -1t-61.5 -1.5q1 13 3 26t6 22q30 4 45.5 13t24 31t14.5 62l69 395q6 35 1.5 52t-19 23.5t-40.5 9.5q-3 13 -3 25t1 23z
M70.0488 314q0 13 2.97461 30.5t7.22461 26.5h309.392q0 -17 -1.7002 -30.5t-7.64941 -25.5q-37.3994 1 -67.998 1h-68.8486h-67.5723q-27.625 0 -51.4238 -1q-23.7998 -1 -54.3984 -1z" />
    <glyph glyph-name="uni1E0C" unicode="&#x1e0c;" horiz-adv-x="735" 
d="M397 679q54 0 107 -9t98.5 -32t76.5 -62.5t42 -101.5t-6 -149q-12 -70 -40.5 -123.5t-69.5 -92t-92 -62.5t-108.5 -35.5t-120.5 -11.5h-111l9 50h113q54 0 102 14t88 45.5t69 83.5t43 129q17 90 5.5 150t-44.5 95t-80.5 49.5t-101.5 14.5q-21 0 -38 -2t-36 -8l-41 55
q33 0 67.5 1.5t68.5 1.5zM125 679q22 -1 48.5 -1.5t53.5 -1t50.5 -0.5h38.5l-91 -535q-6 -39 -3.5 -58.5t19.5 -26t54 -6.5l-11 -50h-61.5t-69 -0.5t-69 -1t-61.5 -1.5q1 13 3 26t6 22q30 4 45.5 13t24 31t14.5 62l69 395q6 35 1.5 52t-19 23.5t-40.5 9.5q-3 13 -3 25t1 23z
M284 -218q-29 0 -43.5 17t-10.5 47q6 29 25 47t46 18q24 0 41.5 -16t11.5 -51q-4 -28 -22.5 -45t-47.5 -17z" />
    <glyph glyph-name="uni1E0E" unicode="&#x1e0e;" horiz-adv-x="735" 
d="M397 679q54 0 107 -9t98.5 -32t76.5 -62.5t42 -101.5t-6 -149q-12 -70 -40.5 -123.5t-69.5 -92t-92 -62.5t-108.5 -35.5t-120.5 -11.5h-111l9 50h113q54 0 102 14t88 45.5t69 83.5t43 129q17 90 5.5 150t-44.5 95t-80.5 49.5t-101.5 14.5q-21 0 -38 -2t-36 -8l-41 55
q33 0 67.5 1.5t68.5 1.5zM125 679q22 -1 48.5 -1.5t53.5 -1t50.5 -0.5h38.5l-91 -535q-6 -39 -3.5 -58.5t19.5 -26t54 -6.5l-11 -50h-61.5t-69 -0.5t-69 -1t-61.5 -1.5q1 13 3 26t6 22q30 4 45.5 13t24 31t14.5 62l69 395q6 35 1.5 52t-19 23.5t-40.5 9.5q-3 13 -3 25t1 23z
M112 -176q0 7 2 23t7 26h351q0 -10 -2 -22t-7 -23q-98 0 -186 -1t-165 -3z" />
    <glyph glyph-name="uni01F2" unicode="&#x1f2;" horiz-adv-x="1142" 
d="M397 679q54 0 107 -9t98.5 -32t76.5 -62.5t42 -101.5t-6 -149q-12 -70 -40.5 -123.5t-69.5 -92t-92 -62.5t-108.5 -35.5t-120.5 -11.5h-111l9 50h113q54 0 102 14t88 45.5t69 83.5t43 129q17 90 5.5 150t-44.5 95t-80.5 49.5t-101.5 14.5q-21 0 -38 -2t-36 -8l-41 55
q33 0 67.5 1.5t68.5 1.5zM125 679q22 -1 48.5 -1.5t53.5 -1t50.5 -0.5h38.5l-91 -535q-6 -39 -3.5 -58.5t19.5 -26t54 -6.5l-11 -50h-61.5t-69 -0.5t-69 -1t-61.5 -1.5q1 13 3 26t6 22q30 4 45.5 13t24 31t14.5 62l69 395q6 35 1.5 52t-19 23.5t-40.5 9.5q-3 13 -3 25t1 23z
M740 -9q-6 9 -9.5 21.5t-2.5 25.5q105 90 184.5 176t126.5 157l2 -7q-19 4 -40 5t-45 1q-36 0 -56.5 -5t-34.5 -18t-29 -38q-14 0 -26.5 5.5t-20.5 13.5q17 30 28.5 63.5t16.5 66.5q31 2 66.5 3t74.5 1q38 0 74 -1t66 -3q14 -18 15 -42q-33 -56 -80 -117.5t-102 -121.5
t-115 -113l6 16q29 12 51.5 14t42.5 -0.5t42 -2.5q33 0 46.5 11.5t28.5 42.5q13 1 27.5 -2.5t23.5 -10.5q-10 -26 -18 -58t-11 -62q-7 -11 -25.5 -16t-60.5 -5q-51 0 -90 4.5t-78 4.5q-18 0 -37.5 -2t-40.5 -7z" />
    <glyph glyph-name="uni01C5" unicode="&#x1c5;" horiz-adv-x="1142" 
d="M397 679q54 0 107 -9t98.5 -32t76.5 -62.5t42 -101.5t-6 -149q-12 -70 -40.5 -123.5t-69.5 -92t-92 -62.5t-108.5 -35.5t-120.5 -11.5h-111l9 50h113q54 0 102 14t88 45.5t69 83.5t43 129q17 90 5.5 150t-44.5 95t-80.5 49.5t-101.5 14.5q-21 0 -38 -2t-36 -8l-41 55
q33 0 67.5 1.5t68.5 1.5zM125 679q22 -1 48.5 -1.5t53.5 -1t50.5 -0.5h38.5l-91 -535q-6 -39 -3.5 -58.5t19.5 -26t54 -6.5l-11 -50h-61.5t-69 -0.5t-69 -1t-61.5 -1.5q1 13 3 26t6 22q30 4 45.5 13t24 31t14.5 62l69 395q6 35 1.5 52t-19 23.5t-40.5 9.5q-3 13 -3 25t1 23z
M740 -9q-6 9 -9.5 21.5t-2.5 25.5q105 90 184.5 176t126.5 157l2 -7q-19 4 -40 5t-45 1q-36 0 -56.5 -5t-34.5 -18t-29 -38q-14 0 -26.5 5.5t-20.5 13.5q17 30 28.5 63.5t16.5 66.5q31 2 66.5 3t74.5 1q38 0 74 -1t66 -3q14 -18 15 -42q-33 -56 -80 -117.5t-102 -121.5
t-115 -113l6 16q29 12 51.5 14t42.5 -0.5t42 -2.5q33 0 46.5 11.5t28.5 42.5q13 1 27.5 -2.5t23.5 -10.5q-10 -26 -18 -58t-11 -62q-7 -11 -25.5 -16t-60.5 -5q-51 0 -90 4.5t-78 4.5q-18 0 -37.5 -2t-40.5 -7zM976 517q-23 36 -53.5 77t-64.5 77q3 13 11 21t21 12
q30 -24 64.5 -48.5t63.5 -41.5q42 20 76.5 40t62.5 42q11 -3 19 -10.5t12 -17.5q-41 -30 -86 -68t-84 -78q-10 -5 -21.5 -5.5t-20.5 0.5z" />
    <glyph glyph-name="E" unicode="E" horiz-adv-x="592" 
d="M26 -3q0 12 2 24.5t7 24.5q29 3 44.5 12t23.5 31t14 62l67 383q7 37 3.5 57t-18.5 28t-43 12q-2 11 -2.5 22.5t1.5 25.5q28 -1 55.5 -1.5t53 -1t46.5 -0.5h37l-90 -527q-7 -43 -4 -64t21 -28t54 -7l-13 -50h-69t-67 -0.5t-64 -1t-59 -1.5zM502 -3q-30 2 -63 2.5
t-71.5 0.5h-82.5l13 50h18q58 0 91 14.5t53.5 43.5t40.5 71q16 -2 29 -7.5t24 -16.5q-16 -32 -30 -72.5t-22 -85.5zM454 220q-16 2 -29 4.5t-23 8.5q2 32 -5.5 50t-28.5 26t-60 8h-68l9 50h64q59 0 85.5 16t33.5 63q14 3 27 3.5t28 -1.5q-6 -25 -11.5 -50t-10.5 -64
q-4 -34 -6.5 -61.5t-4.5 -52.5zM529 505q-1 42 -9.5 69t-37.5 39.5t-92 12.5h-105l30 50h96t90 1t93 2q-5 -38 -7.5 -83.5t0.5 -82.5q-24 -9 -58 -8z" />
    <glyph glyph-name="Eacute" unicode="&#xc9;" horiz-adv-x="592" 
d="M26 -3q0 12 2 24.5t7 24.5q29 3 44.5 12t23.5 31t14 62l67 383q7 37 3.5 57t-18.5 28t-43 12q-2 11 -2.5 22.5t1.5 25.5q28 -1 55.5 -1.5t53 -1t46.5 -0.5h37l-90 -527q-7 -43 -4 -64t21 -28t54 -7l-13 -50h-69t-67 -0.5t-64 -1t-59 -1.5zM502 -3q-30 2 -63 2.5
t-71.5 0.5h-82.5l13 50h18q58 0 91 14.5t53.5 43.5t40.5 71q16 -2 29 -7.5t24 -16.5q-16 -32 -30 -72.5t-22 -85.5zM454 220q-16 2 -29 4.5t-23 8.5q2 32 -5.5 50t-28.5 26t-60 8h-68l9 50h64q59 0 85.5 16t33.5 63q14 3 27 3.5t28 -1.5q-6 -25 -11.5 -50t-10.5 -64
q-4 -34 -6.5 -61.5t-4.5 -52.5zM529 505q-1 42 -9.5 69t-37.5 39.5t-92 12.5h-105l30 50h96t90 1t93 2q-5 -38 -7.5 -83.5t0.5 -82.5q-24 -9 -58 -8zM369 729q-13 2 -24.5 6.5t-21.5 12.5q20 24 36 48t28 45t19 35q11 2 21 3t21 1q21 0 39.5 -3.5t32.5 -10.5
q-38 -32 -77.5 -67.5t-73.5 -69.5z" />
    <glyph glyph-name="Ebreve" unicode="&#x114;" horiz-adv-x="592" 
d="M26 -3q0 12 2 24.5t7 24.5q29 3 44.5 12t23.5 31t14 62l67 383q7 37 3.5 57t-18.5 28t-43 12q-2 11 -2.5 22.5t1.5 25.5q28 -1 55.5 -1.5t53 -1t46.5 -0.5h37l-90 -527q-7 -43 -4 -64t21 -28t54 -7l-13 -50h-69t-67 -0.5t-64 -1t-59 -1.5zM502 -3q-30 2 -63 2.5
t-71.5 0.5h-82.5l13 50h18q58 0 91 14.5t53.5 43.5t40.5 71q16 -2 29 -7.5t24 -16.5q-16 -32 -30 -72.5t-22 -85.5zM454 220q-16 2 -29 4.5t-23 8.5q2 32 -5.5 50t-28.5 26t-60 8h-68l9 50h64q59 0 85.5 16t33.5 63q14 3 27 3.5t28 -1.5q-6 -25 -11.5 -50t-10.5 -64
q-4 -34 -6.5 -61.5t-4.5 -52.5zM529 505q-1 42 -9.5 69t-37.5 39.5t-92 12.5h-105l30 50h96t90 1t93 2q-5 -38 -7.5 -83.5t0.5 -82.5q-24 -9 -58 -8zM367 728q-80 0 -116.5 35.5t-23.5 103.5q12 5 26.5 7.5t26.5 1.5q0 -36 29 -56.5t80 -20.5t86.5 20.5t45.5 56.5
q13 2 24.5 0t17.5 -5q-13 -69 -63.5 -106t-132.5 -37z" />
    <glyph glyph-name="Ecaron" unicode="&#x11a;" horiz-adv-x="592" 
d="M26 -3q0 12 2 24.5t7 24.5q29 3 44.5 12t23.5 31t14 62l67 383q7 37 3.5 57t-18.5 28t-43 12q-2 11 -2.5 22.5t1.5 25.5q28 -1 55.5 -1.5t53 -1t46.5 -0.5h37l-90 -527q-7 -43 -4 -64t21 -28t54 -7l-13 -50h-69t-67 -0.5t-64 -1t-59 -1.5zM502 -3q-30 2 -63 2.5
t-71.5 0.5h-82.5l13 50h18q58 0 91 14.5t53.5 43.5t40.5 71q16 -2 29 -7.5t24 -16.5q-16 -32 -30 -72.5t-22 -85.5zM454 220q-16 2 -29 4.5t-23 8.5q2 32 -5.5 50t-28.5 26t-60 8h-68l9 50h64q59 0 85.5 16t33.5 63q14 3 27 3.5t28 -1.5q-6 -25 -11.5 -50t-10.5 -64
q-4 -34 -6.5 -61.5t-4.5 -52.5zM529 505q-1 42 -9.5 69t-37.5 39.5t-92 12.5h-105l30 50h96t90 1t93 2q-5 -38 -7.5 -83.5t0.5 -82.5q-24 -9 -58 -8zM354 732q-25 30 -57 62t-67 59q3 14 10 22.5t20 10.5q31 -18 66 -36t66 -32q41 15 74.5 31.5t61.5 33.5q10 -4 18.5 -12.5
t13.5 -18.5q-39 -25 -82.5 -54.5t-81.5 -59.5q-22 -10 -42 -6z" />
    <glyph glyph-name="uni0228" unicode="&#x228;" horiz-adv-x="592" 
d="M26 -3q0 12 2 24.5t7 24.5q29 3 44.5 12t23.5 31t14 62l67 383q7 37 3.5 57t-18.5 28t-43 12q-2 11 -2.5 22.5t1.5 25.5q28 -1 55.5 -1.5t53 -1t46.5 -0.5h37l-90 -527q-7 -43 -4 -64t21 -28t54 -7l-13 -50h-69t-67 -0.5t-64 -1t-59 -1.5zM502 -3q-30 2 -63 2.5
t-71.5 0.5h-82.5l13 50h18q58 0 91 14.5t53.5 43.5t40.5 71q16 -2 29 -7.5t24 -16.5q-16 -32 -30 -72.5t-22 -85.5zM454 220q-16 2 -29 4.5t-23 8.5q2 32 -5.5 50t-28.5 26t-60 8h-68l9 50h64q59 0 85.5 16t33.5 63q14 3 27 3.5t28 -1.5q-6 -25 -11.5 -50t-10.5 -64
q-4 -34 -6.5 -61.5t-4.5 -52.5zM529 505q-1 42 -9.5 69t-37.5 39.5t-92 12.5h-105l30 50h96t90 1t93 2q-5 -38 -7.5 -83.5t0.5 -82.5q-24 -9 -58 -8zM173 -242q-2 8 -2 17t1 18q37 0 60.5 11.5t28.5 36.5q5 28 -10.5 42.5t-43.5 14.5q-15 15 -10 39l68 79h60l-58 -70
q37 -7 53 -32.5t7 -69.5t-51 -65.5t-103 -20.5z" />
    <glyph glyph-name="uni1E1C" unicode="&#x1e1c;" horiz-adv-x="592" 
d="M26 -3q0 12 2 24.5t7 24.5q29 3 44.5 12t23.5 31t14 62l67 383q7 37 3.5 57t-18.5 28t-43 12q-2 11 -2.5 22.5t1.5 25.5q28 -1 55.5 -1.5t53 -1t46.5 -0.5h37l-90 -527q-7 -43 -4 -64t21 -28t54 -7l-13 -50h-69t-67 -0.5t-64 -1t-59 -1.5zM502 -3q-30 2 -63 2.5
t-71.5 0.5h-82.5l13 50h18q58 0 91 14.5t53.5 43.5t40.5 71q16 -2 29 -7.5t24 -16.5q-16 -32 -30 -72.5t-22 -85.5zM454 220q-16 2 -29 4.5t-23 8.5q2 32 -5.5 50t-28.5 26t-60 8h-68l9 50h64q59 0 85.5 16t33.5 63q14 3 27 3.5t28 -1.5q-6 -25 -11.5 -50t-10.5 -64
q-4 -34 -6.5 -61.5t-4.5 -52.5zM529 505q-1 42 -9.5 69t-37.5 39.5t-92 12.5h-105l30 50h96t90 1t93 2q-5 -38 -7.5 -83.5t0.5 -82.5q-24 -9 -58 -8zM173 -242q-2 8 -2 17t1 18q37 0 60.5 11.5t28.5 36.5q5 28 -10.5 42.5t-43.5 14.5q-15 15 -10 39l68 79h60l-58 -70
q37 -7 53 -32.5t7 -69.5t-51 -65.5t-103 -20.5zM367 728q-80 0 -116.5 35.5t-23.5 103.5q12 5 26.5 7.5t26.5 1.5q0 -36 29 -56.5t80 -20.5t86.5 20.5t45.5 56.5q13 2 24.5 0t17.5 -5q-13 -69 -63.5 -106t-132.5 -37z" />
    <glyph glyph-name="Ecircumflex" unicode="&#xca;" horiz-adv-x="592" 
d="M26 -3q0 12 2 24.5t7 24.5q29 3 44.5 12t23.5 31t14 62l67 383q7 37 3.5 57t-18.5 28t-43 12q-2 11 -2.5 22.5t1.5 25.5q28 -1 55.5 -1.5t53 -1t46.5 -0.5h37l-90 -527q-7 -43 -4 -64t21 -28t54 -7l-13 -50h-69t-67 -0.5t-64 -1t-59 -1.5zM502 -3q-30 2 -63 2.5
t-71.5 0.5h-82.5l13 50h18q58 0 91 14.5t53.5 43.5t40.5 71q16 -2 29 -7.5t24 -16.5q-16 -32 -30 -72.5t-22 -85.5zM454 220q-16 2 -29 4.5t-23 8.5q2 32 -5.5 50t-28.5 26t-60 8h-68l9 50h64q59 0 85.5 16t33.5 63q14 3 27 3.5t28 -1.5q-6 -25 -11.5 -50t-10.5 -64
q-4 -34 -6.5 -61.5t-4.5 -52.5zM529 505q-1 42 -9.5 69t-37.5 39.5t-92 12.5h-105l30 50h96t90 1t93 2q-5 -38 -7.5 -83.5t0.5 -82.5q-24 -9 -58 -8zM256 728q-9 8 -14 21t-5 24q28 16 55 33.5t52.5 36.5t48.5 37q13 2 24 0.5t22 -6.5q25 -28 53 -57t59 -60
q-5 -10 -15.5 -16.5t-23.5 -7.5q-28 18 -58.5 34t-62.5 28q-23 -8 -46.5 -19.5t-45.5 -23.5t-43 -24z" />
    <glyph glyph-name="uni1EBE" unicode="&#x1ebe;" horiz-adv-x="592" 
d="M26 -3q0 12 2 24.5t7 24.5q29 3 44.5 12t23.5 31t14 62l67 383q7 37 3.5 57t-18.5 28t-43 12q-2 11 -2.5 22.5t1.5 25.5q28 -1 55.5 -1.5t53 -1t46.5 -0.5h37l-90 -527q-7 -43 -4 -64t21 -28t54 -7l-13 -50h-69t-67 -0.5t-64 -1t-59 -1.5zM502 -3q-30 2 -63 2.5
t-71.5 0.5h-82.5l13 50h18q58 0 91 14.5t53.5 43.5t40.5 71q16 -2 29 -7.5t24 -16.5q-16 -32 -30 -72.5t-22 -85.5zM454 220q-16 2 -29 4.5t-23 8.5q2 32 -5.5 50t-28.5 26t-60 8h-68l9 50h64q59 0 85.5 16t33.5 63q14 3 27 3.5t28 -1.5q-6 -25 -11.5 -50t-10.5 -64
q-4 -34 -6.5 -61.5t-4.5 -52.5zM529 505q-1 42 -9.5 69t-37.5 39.5t-92 12.5h-105l30 50h96t90 1t93 2q-5 -38 -7.5 -83.5t0.5 -82.5q-24 -9 -58 -8zM256 728q-9 8 -14 21t-5 24q28 16 55 33.5t52.5 36.5t48.5 37q13 2 24 0.5t22 -6.5q25 -28 53 -57t59 -60
q-5 -10 -15.5 -16.5t-23.5 -7.5q-28 18 -58.5 34t-62.5 28q-23 -8 -46.5 -19.5t-45.5 -23.5t-43 -24zM541.104 853.118q-11.7002 1.7998 -22.0508 5.84961t-19.3506 11.251q18.001 21.5996 32.4014 43.2012q14.4004 21.5996 25.2002 40.501q10.8008 18.9004 17.1006 31.501
q9.90039 1.7998 18.9004 2.69922q9 0.900391 18.9004 0.900391q18.9004 0 35.5508 -3.15039q16.6514 -3.14941 29.251 -9.4502q-34.2012 -28.8008 -69.752 -60.751q-35.5508 -31.9512 -66.1514 -62.5518z" />
    <glyph glyph-name="uni1EC6" unicode="&#x1ec6;" horiz-adv-x="592" 
d="M26 -3q0 12 2 24.5t7 24.5q29 3 44.5 12t23.5 31t14 62l67 383q7 37 3.5 57t-18.5 28t-43 12q-2 11 -2.5 22.5t1.5 25.5q28 -1 55.5 -1.5t53 -1t46.5 -0.5h37l-90 -527q-7 -43 -4 -64t21 -28t54 -7l-13 -50h-69t-67 -0.5t-64 -1t-59 -1.5zM502 -3q-30 2 -63 2.5
t-71.5 0.5h-82.5l13 50h18q58 0 91 14.5t53.5 43.5t40.5 71q16 -2 29 -7.5t24 -16.5q-16 -32 -30 -72.5t-22 -85.5zM454 220q-16 2 -29 4.5t-23 8.5q2 32 -5.5 50t-28.5 26t-60 8h-68l9 50h64q59 0 85.5 16t33.5 63q14 3 27 3.5t28 -1.5q-6 -25 -11.5 -50t-10.5 -64
q-4 -34 -6.5 -61.5t-4.5 -52.5zM529 505q-1 42 -9.5 69t-37.5 39.5t-92 12.5h-105l30 50h96t90 1t93 2q-5 -38 -7.5 -83.5t0.5 -82.5q-24 -9 -58 -8zM236 -218q-29 0 -43.5 17t-10.5 47q6 29 25 47t46 18q24 0 41.5 -16t11.5 -51q-4 -28 -22.5 -45t-47.5 -17zM256 728
q-9 8 -14 21t-5 24q28 16 55 33.5t52.5 36.5t48.5 37q13 2 24 0.5t22 -6.5q25 -28 53 -57t59 -60q-5 -10 -15.5 -16.5t-23.5 -7.5q-28 18 -58.5 34t-62.5 28q-23 -8 -46.5 -19.5t-45.5 -23.5t-43 -24z" />
    <glyph glyph-name="uni1EC0" unicode="&#x1ec0;" horiz-adv-x="592" 
d="M26 -3q0 12 2 24.5t7 24.5q29 3 44.5 12t23.5 31t14 62l67 383q7 37 3.5 57t-18.5 28t-43 12q-2 11 -2.5 22.5t1.5 25.5q28 -1 55.5 -1.5t53 -1t46.5 -0.5h37l-90 -527q-7 -43 -4 -64t21 -28t54 -7l-13 -50h-69t-67 -0.5t-64 -1t-59 -1.5zM502 -3q-30 2 -63 2.5
t-71.5 0.5h-82.5l13 50h18q58 0 91 14.5t53.5 43.5t40.5 71q16 -2 29 -7.5t24 -16.5q-16 -32 -30 -72.5t-22 -85.5zM454 220q-16 2 -29 4.5t-23 8.5q2 32 -5.5 50t-28.5 26t-60 8h-68l9 50h64q59 0 85.5 16t33.5 63q14 3 27 3.5t28 -1.5q-6 -25 -11.5 -50t-10.5 -64
q-4 -34 -6.5 -61.5t-4.5 -52.5zM529 505q-1 42 -9.5 69t-37.5 39.5t-92 12.5h-105l30 50h96t90 1t93 2q-5 -38 -7.5 -83.5t0.5 -82.5q-24 -9 -58 -8zM256 728q-9 8 -14 21t-5 24q28 16 55 33.5t52.5 36.5t48.5 37q13 2 24 0.5t22 -6.5q25 -28 53 -57t59 -60
q-5 -10 -15.5 -16.5t-23.5 -7.5q-28 18 -58.5 34t-62.5 28q-23 -8 -46.5 -19.5t-45.5 -23.5t-43 -24zM574 852q-10 -4 -27 -4t-28 4q-11 19 -27 41t-34.5 44t-36.5 40q23 8 50.5 9.5t53.5 -4.5q8 -31 20 -64.5t29 -65.5z" />
    <glyph glyph-name="uni1EC2" unicode="&#x1ec2;" horiz-adv-x="592" 
d="M26 -3q0 12 2 24.5t7 24.5q29 3 44.5 12t23.5 31t14 62l67 383q7 37 3.5 57t-18.5 28t-43 12q-2 11 -2.5 22.5t1.5 25.5q28 -1 55.5 -1.5t53 -1t46.5 -0.5h37l-90 -527q-7 -43 -4 -64t21 -28t54 -7l-13 -50h-69t-67 -0.5t-64 -1t-59 -1.5zM502 -3q-30 2 -63 2.5
t-71.5 0.5h-82.5l13 50h18q58 0 91 14.5t53.5 43.5t40.5 71q16 -2 29 -7.5t24 -16.5q-16 -32 -30 -72.5t-22 -85.5zM454 220q-16 2 -29 4.5t-23 8.5q2 32 -5.5 50t-28.5 26t-60 8h-68l9 50h64q59 0 85.5 16t33.5 63q14 3 27 3.5t28 -1.5q-6 -25 -11.5 -50t-10.5 -64
q-4 -34 -6.5 -61.5t-4.5 -52.5zM529 505q-1 42 -9.5 69t-37.5 39.5t-92 12.5h-105l30 50h96t90 1t93 2q-5 -38 -7.5 -83.5t0.5 -82.5q-24 -9 -58 -8zM256 728q-9 8 -14 21t-5 24q28 16 55 33.5t52.5 36.5t48.5 37q13 2 24 0.5t22 -6.5q25 -28 53 -57t59 -60
q-5 -10 -15.5 -16.5t-23.5 -7.5q-28 18 -58.5 34t-62.5 28q-23 -8 -46.5 -19.5t-45.5 -23.5t-43 -24zM509 869q-3 8 -4.5 17t0.5 17q5 20 21 29t32 17t21 22q4 11 -2.5 16t-18.5 5q-18 0 -33 -13.5t-25 -45.5q-15 3 -28 6.5t-22 10.5q5 16 8.5 27t2.5 27q19 10 46 18t61 8
q49 0 70.5 -17.5t13.5 -45.5q-5 -19 -18.5 -30t-29 -19t-28.5 -15.5t-16 -19.5q-1 -4 -2 -6.5t0 -9.5q-11 -1 -24.5 -1t-24.5 3z" />
    <glyph glyph-name="uni1EC4" unicode="&#x1ec4;" horiz-adv-x="592" 
d="M26 -3q0 12 2 24.5t7 24.5q29 3 44.5 12t23.5 31t14 62l67 383q7 37 3.5 57t-18.5 28t-43 12q-2 11 -2.5 22.5t1.5 25.5q28 -1 55.5 -1.5t53 -1t46.5 -0.5h37l-90 -527q-7 -43 -4 -64t21 -28t54 -7l-13 -50h-69t-67 -0.5t-64 -1t-59 -1.5zM502 -3q-30 2 -63 2.5
t-71.5 0.5h-82.5l13 50h18q58 0 91 14.5t53.5 43.5t40.5 71q16 -2 29 -7.5t24 -16.5q-16 -32 -30 -72.5t-22 -85.5zM454 220q-16 2 -29 4.5t-23 8.5q2 32 -5.5 50t-28.5 26t-60 8h-68l9 50h64q59 0 85.5 16t33.5 63q14 3 27 3.5t28 -1.5q-6 -25 -11.5 -50t-10.5 -64
q-4 -34 -6.5 -61.5t-4.5 -52.5zM529 505q-1 42 -9.5 69t-37.5 39.5t-92 12.5h-105l30 50h96t90 1t93 2q-5 -38 -7.5 -83.5t0.5 -82.5q-24 -9 -58 -8zM256 728q-9 8 -14 21t-5 24q28 16 55 33.5t52.5 36.5t48.5 37q13 2 24 0.5t22 -6.5q25 -28 53 -57t59 -60
q-5 -10 -15.5 -16.5t-23.5 -7.5q-28 18 -58.5 34t-62.5 28q-23 -8 -46.5 -19.5t-45.5 -23.5t-43 -24zM480 931q-21 0 -37 6t-30.5 13t-29.5 12.5t-32 5.5q-21 0 -41 -10t-39 -24q-7 9 -9.5 20t-1.5 26q35 35 67 46.5t58 11.5q28 0 48.5 -9t39 -17.5t38.5 -8.5q18 0 33.5 8.5
t29.5 21.5q9 -4 17.5 -10t13.5 -17q-31 -40 -62.5 -57.5t-62.5 -17.5z" />
    <glyph glyph-name="uni0204" unicode="&#x204;" horiz-adv-x="592" 
d="M26 -3q0 12 2 24.5t7 24.5q29 3 44.5 12t23.5 31t14 62l67 383q7 37 3.5 57t-18.5 28t-43 12q-2 11 -2.5 22.5t1.5 25.5q28 -1 55.5 -1.5t53 -1t46.5 -0.5h37l-90 -527q-7 -43 -4 -64t21 -28t54 -7l-13 -50h-69t-67 -0.5t-64 -1t-59 -1.5zM502 -3q-30 2 -63 2.5
t-71.5 0.5h-82.5l13 50h18q58 0 91 14.5t53.5 43.5t40.5 71q16 -2 29 -7.5t24 -16.5q-16 -32 -30 -72.5t-22 -85.5zM454 220q-16 2 -29 4.5t-23 8.5q2 32 -5.5 50t-28.5 26t-60 8h-68l9 50h64q59 0 85.5 16t33.5 63q14 3 27 3.5t28 -1.5q-6 -25 -11.5 -50t-10.5 -64
q-4 -34 -6.5 -61.5t-4.5 -52.5zM529 505q-1 42 -9.5 69t-37.5 39.5t-92 12.5h-105l30 50h96t90 1t93 2q-5 -38 -7.5 -83.5t0.5 -82.5q-24 -9 -58 -8zM305 725q-23 38 -44 68.5t-45 58.5q20 9 46.5 9.5t50.5 -4.5q8 -30 17 -64.5t23 -70.5q-11 -1 -22 0t-26 3zM463 725
q-23 38 -44 68.5t-44 59.5q20 8 46 8.5t50 -4.5q8 -30 17 -64.5t23 -70.5q-11 -1 -22 0t-26 3z" />
    <glyph glyph-name="Edieresis" unicode="&#xcb;" horiz-adv-x="592" 
d="M26 -3q0 12 2 24.5t7 24.5q29 3 44.5 12t23.5 31t14 62l67 383q7 37 3.5 57t-18.5 28t-43 12q-2 11 -2.5 22.5t1.5 25.5q28 -1 55.5 -1.5t53 -1t46.5 -0.5h37l-90 -527q-7 -43 -4 -64t21 -28t54 -7l-13 -50h-69t-67 -0.5t-64 -1t-59 -1.5zM502 -3q-30 2 -63 2.5
t-71.5 0.5h-82.5l13 50h18q58 0 91 14.5t53.5 43.5t40.5 71q16 -2 29 -7.5t24 -16.5q-16 -32 -30 -72.5t-22 -85.5zM454 220q-16 2 -29 4.5t-23 8.5q2 32 -5.5 50t-28.5 26t-60 8h-68l9 50h64q59 0 85.5 16t33.5 63q14 3 27 3.5t28 -1.5q-6 -25 -11.5 -50t-10.5 -64
q-4 -34 -6.5 -61.5t-4.5 -52.5zM529 505q-1 42 -9.5 69t-37.5 39.5t-92 12.5h-105l30 50h96t90 1t93 2q-5 -38 -7.5 -83.5t0.5 -82.5q-24 -9 -58 -8zM284 730q-28 0 -41.5 19.5t-8.5 50.5q3 23 18.5 35.5t40.5 12.5q29 0 43.5 -18t7.5 -48q-12 -52 -60 -52zM486 731
q-28 0 -42 18t-10 47q8 52 63 52q27 0 41 -17t9 -46q-8 -54 -61 -54z" />
    <glyph glyph-name="Edotaccent" unicode="&#x116;" horiz-adv-x="592" 
d="M26 -3q0 12 2 24.5t7 24.5q29 3 44.5 12t23.5 31t14 62l67 383q7 37 3.5 57t-18.5 28t-43 12q-2 11 -2.5 22.5t1.5 25.5q28 -1 55.5 -1.5t53 -1t46.5 -0.5h37l-90 -527q-7 -43 -4 -64t21 -28t54 -7l-13 -50h-69t-67 -0.5t-64 -1t-59 -1.5zM502 -3q-30 2 -63 2.5
t-71.5 0.5h-82.5l13 50h18q58 0 91 14.5t53.5 43.5t40.5 71q16 -2 29 -7.5t24 -16.5q-16 -32 -30 -72.5t-22 -85.5zM454 220q-16 2 -29 4.5t-23 8.5q2 32 -5.5 50t-28.5 26t-60 8h-68l9 50h64q59 0 85.5 16t33.5 63q14 3 27 3.5t28 -1.5q-6 -25 -11.5 -50t-10.5 -64
q-4 -34 -6.5 -61.5t-4.5 -52.5zM529 505q-1 42 -9.5 69t-37.5 39.5t-92 12.5h-105l30 50h96t90 1t93 2q-5 -38 -7.5 -83.5t0.5 -82.5q-24 -9 -58 -8zM379 720q-28 0 -42 17t-10 45q5 28 25 43.5t47 15.5q28 0 43 -17.5t9 -46.5q-4 -27 -23.5 -42t-48.5 -15z" />
    <glyph glyph-name="uni1EB8" unicode="&#x1eb8;" horiz-adv-x="592" 
d="M26 -3q0 12 2 24.5t7 24.5q29 3 44.5 12t23.5 31t14 62l67 383q7 37 3.5 57t-18.5 28t-43 12q-2 11 -2.5 22.5t1.5 25.5q28 -1 55.5 -1.5t53 -1t46.5 -0.5h37l-90 -527q-7 -43 -4 -64t21 -28t54 -7l-13 -50h-69t-67 -0.5t-64 -1t-59 -1.5zM502 -3q-30 2 -63 2.5
t-71.5 0.5h-82.5l13 50h18q58 0 91 14.5t53.5 43.5t40.5 71q16 -2 29 -7.5t24 -16.5q-16 -32 -30 -72.5t-22 -85.5zM454 220q-16 2 -29 4.5t-23 8.5q2 32 -5.5 50t-28.5 26t-60 8h-68l9 50h64q59 0 85.5 16t33.5 63q14 3 27 3.5t28 -1.5q-6 -25 -11.5 -50t-10.5 -64
q-4 -34 -6.5 -61.5t-4.5 -52.5zM529 505q-1 42 -9.5 69t-37.5 39.5t-92 12.5h-105l30 50h96t90 1t93 2q-5 -38 -7.5 -83.5t0.5 -82.5q-24 -9 -58 -8zM236 -218q-29 0 -43.5 17t-10.5 47q6 29 25 47t46 18q24 0 41.5 -16t11.5 -51q-4 -28 -22.5 -45t-47.5 -17z" />
    <glyph glyph-name="Egrave" unicode="&#xc8;" horiz-adv-x="592" 
d="M26 -3q0 12 2 24.5t7 24.5q29 3 44.5 12t23.5 31t14 62l67 383q7 37 3.5 57t-18.5 28t-43 12q-2 11 -2.5 22.5t1.5 25.5q28 -1 55.5 -1.5t53 -1t46.5 -0.5h37l-90 -527q-7 -43 -4 -64t21 -28t54 -7l-13 -50h-69t-67 -0.5t-64 -1t-59 -1.5zM502 -3q-30 2 -63 2.5
t-71.5 0.5h-82.5l13 50h18q58 0 91 14.5t53.5 43.5t40.5 71q16 -2 29 -7.5t24 -16.5q-16 -32 -30 -72.5t-22 -85.5zM454 220q-16 2 -29 4.5t-23 8.5q2 32 -5.5 50t-28.5 26t-60 8h-68l9 50h64q59 0 85.5 16t33.5 63q14 3 27 3.5t28 -1.5q-6 -25 -11.5 -50t-10.5 -64
q-4 -34 -6.5 -61.5t-4.5 -52.5zM529 505q-1 42 -9.5 69t-37.5 39.5t-92 12.5h-105l30 50h96t90 1t93 2q-5 -38 -7.5 -83.5t0.5 -82.5q-24 -9 -58 -8zM421 740q-10 -4 -27 -4t-28 4q-11 19 -27 41t-34.5 44t-36.5 40q23 8 50.5 9.5t53.5 -4.5q8 -31 20 -64.5t29 -65.5z" />
    <glyph glyph-name="uni1EBA" unicode="&#x1eba;" horiz-adv-x="592" 
d="M26 -3q0 12 2 24.5t7 24.5q29 3 44.5 12t23.5 31t14 62l67 383q7 37 3.5 57t-18.5 28t-43 12q-2 11 -2.5 22.5t1.5 25.5q28 -1 55.5 -1.5t53 -1t46.5 -0.5h37l-90 -527q-7 -43 -4 -64t21 -28t54 -7l-13 -50h-69t-67 -0.5t-64 -1t-59 -1.5zM502 -3q-30 2 -63 2.5
t-71.5 0.5h-82.5l13 50h18q58 0 91 14.5t53.5 43.5t40.5 71q16 -2 29 -7.5t24 -16.5q-16 -32 -30 -72.5t-22 -85.5zM454 220q-16 2 -29 4.5t-23 8.5q2 32 -5.5 50t-28.5 26t-60 8h-68l9 50h64q59 0 85.5 16t33.5 63q14 3 27 3.5t28 -1.5q-6 -25 -11.5 -50t-10.5 -64
q-4 -34 -6.5 -61.5t-4.5 -52.5zM529 505q-1 42 -9.5 69t-37.5 39.5t-92 12.5h-105l30 50h96t90 1t93 2q-5 -38 -7.5 -83.5t0.5 -82.5q-24 -9 -58 -8zM352 731q-3 8 -4.5 17t0.5 17q5 20 21 29t32 17t21 22q4 11 -2.5 16t-18.5 5q-18 0 -33 -13.5t-25 -45.5q-15 3 -28 6.5
t-22 10.5q5 16 8.5 27t2.5 27q19 10 46 18t61 8q49 0 70.5 -17.5t13.5 -45.5q-5 -19 -18.5 -30t-29 -19t-28.5 -15.5t-16 -19.5q-1 -4 -2 -6.5t0 -9.5q-11 -1 -24.5 -1t-24.5 3z" />
    <glyph glyph-name="uni0206" unicode="&#x206;" horiz-adv-x="592" 
d="M26 -3q0 12 2 24.5t7 24.5q29 3 44.5 12t23.5 31t14 62l67 383q7 37 3.5 57t-18.5 28t-43 12q-2 11 -2.5 22.5t1.5 25.5q28 -1 55.5 -1.5t53 -1t46.5 -0.5h37l-90 -527q-7 -43 -4 -64t21 -28t54 -7l-13 -50h-69t-67 -0.5t-64 -1t-59 -1.5zM502 -3q-30 2 -63 2.5
t-71.5 0.5h-82.5l13 50h18q58 0 91 14.5t53.5 43.5t40.5 71q16 -2 29 -7.5t24 -16.5q-16 -32 -30 -72.5t-22 -85.5zM454 220q-16 2 -29 4.5t-23 8.5q2 32 -5.5 50t-28.5 26t-60 8h-68l9 50h64q59 0 85.5 16t33.5 63q14 3 27 3.5t28 -1.5q-6 -25 -11.5 -50t-10.5 -64
q-4 -34 -6.5 -61.5t-4.5 -52.5zM529 505q-1 42 -9.5 69t-37.5 39.5t-92 12.5h-105l30 50h96t90 1t93 2q-5 -38 -7.5 -83.5t0.5 -82.5q-24 -9 -58 -8zM418 870q80 0 116.5 -35.5t23.5 -103.5q-12 -5 -26.5 -7.5t-26.5 -1.5q0 36 -29 56.5t-80 20.5t-86.5 -20.5t-45.5 -56.5
q-13 -2 -24.5 0t-17.5 5q13 69 63.5 106t132.5 37z" />
    <glyph glyph-name="Emacron" unicode="&#x112;" horiz-adv-x="592" 
d="M26 -3q0 12 2 24.5t7 24.5q29 3 44.5 12t23.5 31t14 62l67 383q7 37 3.5 57t-18.5 28t-43 12q-2 11 -2.5 22.5t1.5 25.5q28 -1 55.5 -1.5t53 -1t46.5 -0.5h37l-90 -527q-7 -43 -4 -64t21 -28t54 -7l-13 -50h-69t-67 -0.5t-64 -1t-59 -1.5zM502 -3q-30 2 -63 2.5
t-71.5 0.5h-82.5l13 50h18q58 0 91 14.5t53.5 43.5t40.5 71q16 -2 29 -7.5t24 -16.5q-16 -32 -30 -72.5t-22 -85.5zM454 220q-16 2 -29 4.5t-23 8.5q2 32 -5.5 50t-28.5 26t-60 8h-68l9 50h64q59 0 85.5 16t33.5 63q14 3 27 3.5t28 -1.5q-6 -25 -11.5 -50t-10.5 -64
q-4 -34 -6.5 -61.5t-4.5 -52.5zM529 505q-1 42 -9.5 69t-37.5 39.5t-92 12.5h-105l30 50h96t90 1t93 2q-5 -38 -7.5 -83.5t0.5 -82.5q-24 -9 -58 -8zM210 763q0 8 2 24t7 25h351q0 -10 -2 -21.5t-7 -23.5q-98 0 -186 -0.5t-165 -3.5z" />
    <glyph glyph-name="uni1E16" unicode="&#x1e16;" horiz-adv-x="592" 
d="M26 -3q0 12 2 24.5t7 24.5q29 3 44.5 12t23.5 31t14 62l67 383q7 37 3.5 57t-18.5 28t-43 12q-2 11 -2.5 22.5t1.5 25.5q28 -1 55.5 -1.5t53 -1t46.5 -0.5h37l-90 -527q-7 -43 -4 -64t21 -28t54 -7l-13 -50h-69t-67 -0.5t-64 -1t-59 -1.5zM502 -3q-30 2 -63 2.5
t-71.5 0.5h-82.5l13 50h18q58 0 91 14.5t53.5 43.5t40.5 71q16 -2 29 -7.5t24 -16.5q-16 -32 -30 -72.5t-22 -85.5zM454 220q-16 2 -29 4.5t-23 8.5q2 32 -5.5 50t-28.5 26t-60 8h-68l9 50h64q59 0 85.5 16t33.5 63q14 3 27 3.5t28 -1.5q-6 -25 -11.5 -50t-10.5 -64
q-4 -34 -6.5 -61.5t-4.5 -52.5zM529 505q-1 42 -9.5 69t-37.5 39.5t-92 12.5h-105l30 50h96t90 1t93 2q-5 -38 -7.5 -83.5t0.5 -82.5q-24 -9 -58 -8zM210 763q0 8 2 24t7 25h351q0 -10 -2 -21.5t-7 -23.5q-98 0 -186 -0.5t-165 -3.5zM396 865q-13 2 -24.5 6.5t-21.5 12.5
q20 24 36 48t28 45t19 35q11 2 21 3t21 1q21 0 39.5 -3.5t32.5 -10.5q-38 -32 -77.5 -67.5t-73.5 -69.5z" />
    <glyph glyph-name="uni1E14" unicode="&#x1e14;" horiz-adv-x="592" 
d="M26 -3q0 12 2 24.5t7 24.5q29 3 44.5 12t23.5 31t14 62l67 383q7 37 3.5 57t-18.5 28t-43 12q-2 11 -2.5 22.5t1.5 25.5q28 -1 55.5 -1.5t53 -1t46.5 -0.5h37l-90 -527q-7 -43 -4 -64t21 -28t54 -7l-13 -50h-69t-67 -0.5t-64 -1t-59 -1.5zM502 -3q-30 2 -63 2.5
t-71.5 0.5h-82.5l13 50h18q58 0 91 14.5t53.5 43.5t40.5 71q16 -2 29 -7.5t24 -16.5q-16 -32 -30 -72.5t-22 -85.5zM454 220q-16 2 -29 4.5t-23 8.5q2 32 -5.5 50t-28.5 26t-60 8h-68l9 50h64q59 0 85.5 16t33.5 63q14 3 27 3.5t28 -1.5q-6 -25 -11.5 -50t-10.5 -64
q-4 -34 -6.5 -61.5t-4.5 -52.5zM529 505q-1 42 -9.5 69t-37.5 39.5t-92 12.5h-105l30 50h96t90 1t93 2q-5 -38 -7.5 -83.5t0.5 -82.5q-24 -9 -58 -8zM210 763q0 8 2 24t7 25h351q0 -10 -2 -21.5t-7 -23.5q-98 0 -186 -0.5t-165 -3.5zM448 876q-10 -4 -27 -4t-28 4
q-11 19 -27 41t-34.5 44t-36.5 40q23 8 50.5 9.5t53.5 -4.5q8 -31 20 -64.5t29 -65.5z" />
    <glyph glyph-name="Eogonek" unicode="&#x118;" horiz-adv-x="592" 
d="M26 -3q0 12 2 24.5t7 24.5q29 3 44.5 12t23.5 31t14 62l67 383q7 37 3.5 57t-18.5 28t-43 12q-2 11 -2.5 22.5t1.5 25.5q28 -1 55.5 -1.5t53 -1t46.5 -0.5h37l-90 -527q-7 -43 -4 -64t21 -28t54 -7l-13 -50h-69t-67 -0.5t-64 -1t-59 -1.5zM502 -3q-30 2 -63 2.5
t-71.5 0.5h-82.5l13 50h18q58 0 91 14.5t53.5 43.5t40.5 71q16 -2 29 -7.5t24 -16.5q-16 -32 -30 -72.5t-22 -85.5zM454 220q-16 2 -29 4.5t-23 8.5q2 32 -5.5 50t-28.5 26t-60 8h-68l9 50h64q59 0 85.5 16t33.5 63q14 3 27 3.5t28 -1.5q-6 -25 -11.5 -50t-10.5 -64
q-4 -34 -6.5 -61.5t-4.5 -52.5zM529 505q-1 42 -9.5 69t-37.5 39.5t-92 12.5h-105l30 50h96t90 1t93 2q-5 -38 -7.5 -83.5t0.5 -82.5q-24 -9 -58 -8zM382 23l37 -23q-55 -26 -80 -52.5t-29 -52.5q-2 -21 11.5 -37t42.5 -16q8 0 19 2t21 6q5 -9 6.5 -20.5t-0.5 -23.5
q-22 -10 -43.5 -23t-41.5 -30q-4 -1 -9 -1.5t-11 -0.5q-24 0 -47.5 11.5t-36.5 35.5t-8 62q5 28 22.5 55.5t53.5 54.5t93 53z" />
    <glyph glyph-name="uni018E" unicode="&#x18e;" horiz-adv-x="582" 
d="M499 -3q-19 1 -52.5 1.5t-72.5 1t-76.5 0.5h-65.5l1 50q55 0 77.5 21t33.5 78l102 527h40.5t51.5 0.5t51.5 1t41.5 1.5q-2 -14 -6 -27.5t-9 -20.5q-26 -2 -43 -10.5t-27 -27.5t-16 -53l-77 -397q-8 -40 -6 -60.5t15.5 -28t39.5 -9.5q1 -11 0 -23.5t-3 -24.5zM11 -2
q3 40 3.5 81.5t-4.5 78.5q11 7 24 11t31 5q5 -31 12.5 -54.5t23.5 -39t45.5 -23t79.5 -7.5h9l-3 -50q-46 0 -89 -0.5t-77 -0.5t-55 -1zM145 226q6 25 12.5 56.5t12.5 60.5q5 28 10 56.5t8 53.5q15 -1 27.5 -3.5t25.5 -7.5q-8 -48 11.5 -63t78.5 -15h71l-10 -48h-69
q-58 0 -85 -18.5t-41 -69.5l-24 -2t-28 0zM168 501q-16 3 -28.5 8t-21.5 15q9 21 18 49t17.5 56.5t13.5 49.5q19 0 55 -1t92 -1.5t134 -0.5l14 -45h-109q-62 0 -99.5 -19t-57 -49t-28.5 -62z" />
    <glyph glyph-name="uni1EBC" unicode="&#x1ebc;" horiz-adv-x="592" 
d="M26 -3q0 12 2 24.5t7 24.5q29 3 44.5 12t23.5 31t14 62l67 383q7 37 3.5 57t-18.5 28t-43 12q-2 11 -2.5 22.5t1.5 25.5q28 -1 55.5 -1.5t53 -1t46.5 -0.5h37l-90 -527q-7 -43 -4 -64t21 -28t54 -7l-13 -50h-69t-67 -0.5t-64 -1t-59 -1.5zM502 -3q-30 2 -63 2.5
t-71.5 0.5h-82.5l13 50h18q58 0 91 14.5t53.5 43.5t40.5 71q16 -2 29 -7.5t24 -16.5q-16 -32 -30 -72.5t-22 -85.5zM454 220q-16 2 -29 4.5t-23 8.5q2 32 -5.5 50t-28.5 26t-60 8h-68l9 50h64q59 0 85.5 16t33.5 63q14 3 27 3.5t28 -1.5q-6 -25 -11.5 -50t-10.5 -64
q-4 -34 -6.5 -61.5t-4.5 -52.5zM529 505q-1 42 -9.5 69t-37.5 39.5t-92 12.5h-105l30 50h96t90 1t93 2q-5 -38 -7.5 -83.5t0.5 -82.5q-24 -9 -58 -8zM441 746q-21 0 -37 6t-30.5 13t-29.5 12.5t-32 5.5q-21 0 -41 -10t-39 -24q-7 9 -9.5 20t-1.5 26q35 35 67 46.5t58 11.5
q28 0 48.5 -9t39 -17.5t38.5 -8.5q18 0 33.5 8.5t29.5 21.5q9 -4 17.5 -10t13.5 -17q-31 -40 -62.5 -57.5t-62.5 -17.5z" />
    <glyph glyph-name="uni01B7" unicode="&#x1b7;" horiz-adv-x="578" 
d="M227 -9q-66 0 -115.5 15t-88.5 40q8 33 14 74.5t7 74.5q15 4 33 4t32 -3q-3 -52 7 -85.5t37.5 -49.5t76.5 -16q77 0 126.5 39.5t62.5 104.5q14 73 -33.5 109.5t-147.5 39.5q-4 10 -6 23.5t0 27.5q42 38 86.5 84t87.5 95t78 94l3 -31h-152q-42 0 -71 -11t-51 -40t-42 -85
q-16 0 -34.5 6.5t-28.5 15.5q15 32 29 76.5t20 84.5q16 -1 46 -1.5t65.5 -0.5h70h58.5h66.5t65 0.5t65.5 1.5q6 -8 9 -19.5t0 -23.5q-30 -35 -70 -80.5t-85.5 -94t-94.5 -96.5l-8 14q111 -1 162 -52t34 -140q-18 -92 -99.5 -143.5t-214.5 -51.5z" />
    <glyph glyph-name="uni01EE" unicode="&#x1ee;" horiz-adv-x="578" 
d="M227 -9q-66 0 -115.5 15t-88.5 40q8 33 14 74.5t7 74.5q15 4 33 4t32 -3q-3 -52 7 -85.5t37.5 -49.5t76.5 -16q77 0 126.5 39.5t62.5 104.5q14 73 -33.5 109.5t-147.5 39.5q-4 10 -6 23.5t0 27.5q42 38 86.5 84t87.5 95t78 94l3 -31h-152q-42 0 -71 -11t-51 -40t-42 -85
q-16 0 -34.5 6.5t-28.5 15.5q15 32 29 76.5t20 84.5q16 -1 46 -1.5t65.5 -0.5h70h58.5h66.5t65 0.5t65.5 1.5q6 -8 9 -19.5t0 -23.5q-30 -35 -70 -80.5t-85.5 -94t-94.5 -96.5l-8 14q111 -1 162 -52t34 -140q-18 -92 -99.5 -143.5t-214.5 -51.5zM356 732q-25 30 -57 62
t-67 59q3 14 10 22.5t20 10.5q31 -18 66 -36t66 -32q41 15 74.5 31.5t61.5 33.5q10 -4 18.5 -12.5t13.5 -18.5q-39 -25 -82.5 -54.5t-81.5 -59.5q-22 -10 -42 -6z" />
    <glyph glyph-name="F" unicode="F" horiz-adv-x="549" 
d="M226 149q-7 -39 -5.5 -59t19.5 -29t59 -16q3 -10 3.5 -21.5t-0.5 -26.5q-38 2 -69 2.5t-68 0.5q-39 0 -72 -0.5t-68 -2.5q1 28 9 48q30 5 45 13.5t22.5 28t13.5 55.5l68 391q6 35 4 55t-16 29.5t-44 13.5q-2 11 -2.5 23t0.5 25q26 -1 55.5 -2t63.5 -1h72zM589 679
q-5 -38 -7.5 -83.5t-0.5 -82.5q-23 -9 -57 -8q-1 42 -10 69t-37.5 39.5t-91.5 12.5h-101l30 50h93.5t89 1t92.5 2zM432 422q14 3 27 3.5t27 -1.5q-6 -25 -11 -50t-10 -64q-5 -34 -7.5 -61.5t-4.5 -53.5q-15 2 -28 5t-24 9q3 48 -16 66t-78 18h-80l8 48h77q59 0 85.5 17
t34.5 64z" />
    <glyph glyph-name="G" unicode="G" horiz-adv-x="688" 
d="M461 685q76 0 131.5 -14t100.5 -44q-12 -34 -19.5 -70.5t-12.5 -79.5q-15 -6 -30 -7t-32 3q8 71 -6 106t-46 47t-80 12q-82 0 -143 -39t-97 -107.5t-46 -156.5q-7 -56 -1 -107.5t26 -93t57.5 -65.5t94.5 -24q28 0 50.5 3t44.5 12q14 6 22 14t13 26t11 52q10 56 9.5 81.5
t-17 34.5t-52.5 11q-2 12 -2 24.5t1 24.5q34 -2 65 -2.5t62 -0.5q33 0 59 0.5t65 2.5q-1 -14 -3 -26t-7 -23q-21 -2 -33 -10t-20 -33t-18 -79q-6 -38 -7 -57.5t4 -35.5q-48 -30 -118.5 -51.5t-153.5 -21.5q-101 0 -166.5 44t-93 121.5t-14.5 176.5q13 93 52 159.5t94.5 109
t122 63t133.5 20.5z" />
    <glyph glyph-name="Gbreve" unicode="&#x11e;" horiz-adv-x="688" 
d="M461 685q76 0 131.5 -14t100.5 -44q-12 -34 -19.5 -70.5t-12.5 -79.5q-15 -6 -30 -7t-32 3q8 71 -6 106t-46 47t-80 12q-82 0 -143 -39t-97 -107.5t-46 -156.5q-7 -56 -1 -107.5t26 -93t57.5 -65.5t94.5 -24q28 0 50.5 3t44.5 12q14 6 22 14t13 26t11 52q10 56 9.5 81.5
t-17 34.5t-52.5 11q-2 12 -2 24.5t1 24.5q34 -2 65 -2.5t62 -0.5q33 0 59 0.5t65 2.5q-1 -14 -3 -26t-7 -23q-21 -2 -33 -10t-20 -33t-18 -79q-6 -38 -7 -57.5t4 -35.5q-48 -30 -118.5 -51.5t-153.5 -21.5q-101 0 -166.5 44t-93 121.5t-14.5 176.5q13 93 52 159.5t94.5 109
t122 63t133.5 20.5zM461 728q-80 0 -116.5 35.5t-23.5 103.5q12 5 26.5 7.5t26.5 1.5q0 -36 29 -56.5t80 -20.5t86.5 20.5t45.5 56.5q13 2 24.5 0t17.5 -5q-13 -69 -63.5 -106t-132.5 -37z" />
    <glyph glyph-name="Gcaron" unicode="&#x1e6;" horiz-adv-x="688" 
d="M461 685q76 0 131.5 -14t100.5 -44q-12 -34 -19.5 -70.5t-12.5 -79.5q-15 -6 -30 -7t-32 3q8 71 -6 106t-46 47t-80 12q-82 0 -143 -39t-97 -107.5t-46 -156.5q-7 -56 -1 -107.5t26 -93t57.5 -65.5t94.5 -24q28 0 50.5 3t44.5 12q14 6 22 14t13 26t11 52q10 56 9.5 81.5
t-17 34.5t-52.5 11q-2 12 -2 24.5t1 24.5q34 -2 65 -2.5t62 -0.5q33 0 59 0.5t65 2.5q-1 -14 -3 -26t-7 -23q-21 -2 -33 -10t-20 -33t-18 -79q-6 -38 -7 -57.5t4 -35.5q-48 -30 -118.5 -51.5t-153.5 -21.5q-101 0 -166.5 44t-93 121.5t-14.5 176.5q13 93 52 159.5t94.5 109
t122 63t133.5 20.5zM448 732q-25 30 -57 62t-67 59q3 14 10 22.5t20 10.5q31 -18 66 -36t66 -32q41 15 74.5 31.5t61.5 33.5q10 -4 18.5 -12.5t13.5 -18.5q-39 -25 -82.5 -54.5t-81.5 -59.5q-22 -10 -42 -6z" />
    <glyph glyph-name="Gcircumflex" unicode="&#x11c;" horiz-adv-x="688" 
d="M461 685q76 0 131.5 -14t100.5 -44q-12 -34 -19.5 -70.5t-12.5 -79.5q-15 -6 -30 -7t-32 3q8 71 -6 106t-46 47t-80 12q-82 0 -143 -39t-97 -107.5t-46 -156.5q-7 -56 -1 -107.5t26 -93t57.5 -65.5t94.5 -24q28 0 50.5 3t44.5 12q14 6 22 14t13 26t11 52q10 56 9.5 81.5
t-17 34.5t-52.5 11q-2 12 -2 24.5t1 24.5q34 -2 65 -2.5t62 -0.5q33 0 59 0.5t65 2.5q-1 -14 -3 -26t-7 -23q-21 -2 -33 -10t-20 -33t-18 -79q-6 -38 -7 -57.5t4 -35.5q-48 -30 -118.5 -51.5t-153.5 -21.5q-101 0 -166.5 44t-93 121.5t-14.5 176.5q13 93 52 159.5t94.5 109
t122 63t133.5 20.5zM351 728q-9 8 -14 21t-5 24q28 16 55 33.5t52.5 36.5t48.5 37q13 2 24 0.5t22 -6.5q25 -28 53 -57t59 -60q-5 -10 -15.5 -16.5t-23.5 -7.5q-28 18 -58.5 34t-62.5 28q-23 -8 -46.5 -19.5t-45.5 -23.5t-43 -24z" />
    <glyph glyph-name="uni0122" unicode="&#x122;" horiz-adv-x="688" 
d="M461 685q76 0 131.5 -14t100.5 -44q-12 -34 -19.5 -70.5t-12.5 -79.5q-15 -6 -30 -7t-32 3q8 71 -6 106t-46 47t-80 12q-82 0 -143 -39t-97 -107.5t-46 -156.5q-7 -56 -1 -107.5t26 -93t57.5 -65.5t94.5 -24q28 0 50.5 3t44.5 12q14 6 22 14t13 26t11 52q10 56 9.5 81.5
t-17 34.5t-52.5 11q-2 12 -2 24.5t1 24.5q34 -2 65 -2.5t62 -0.5q33 0 59 0.5t65 2.5q-1 -14 -3 -26t-7 -23q-21 -2 -33 -10t-20 -33t-18 -79q-6 -38 -7 -57.5t4 -35.5q-48 -30 -118.5 -51.5t-153.5 -21.5q-101 0 -166.5 44t-93 121.5t-14.5 176.5q13 93 52 159.5t94.5 109
t122 63t133.5 20.5zM265 -285q-22 7 -28 25q26 22 42 44.5t19 40.5q2 16 -6.5 25.5t-29.5 11.5q-2 37 19 66q26 4 49.5 11.5t43.5 18.5q18 -7 24.5 -25t1.5 -45q-10 -54 -48.5 -97.5t-86.5 -75.5z" />
    <glyph glyph-name="Gdotaccent" unicode="&#x120;" horiz-adv-x="688" 
d="M461 685q76 0 131.5 -14t100.5 -44q-12 -34 -19.5 -70.5t-12.5 -79.5q-15 -6 -30 -7t-32 3q8 71 -6 106t-46 47t-80 12q-82 0 -143 -39t-97 -107.5t-46 -156.5q-7 -56 -1 -107.5t26 -93t57.5 -65.5t94.5 -24q28 0 50.5 3t44.5 12q14 6 22 14t13 26t11 52q10 56 9.5 81.5
t-17 34.5t-52.5 11q-2 12 -2 24.5t1 24.5q34 -2 65 -2.5t62 -0.5q33 0 59 0.5t65 2.5q-1 -14 -3 -26t-7 -23q-21 -2 -33 -10t-20 -33t-18 -79q-6 -38 -7 -57.5t4 -35.5q-48 -30 -118.5 -51.5t-153.5 -21.5q-101 0 -166.5 44t-93 121.5t-14.5 176.5q13 93 52 159.5t94.5 109
t122 63t133.5 20.5zM473 720q-28 0 -42 17t-10 45q5 28 25 43.5t47 15.5q28 0 43 -17.5t9 -46.5q-4 -27 -23.5 -42t-48.5 -15z" />
    <glyph glyph-name="uni1E20" unicode="&#x1e20;" horiz-adv-x="688" 
d="M461 685q76 0 131.5 -14t100.5 -44q-12 -34 -19.5 -70.5t-12.5 -79.5q-15 -6 -30 -7t-32 3q8 71 -6 106t-46 47t-80 12q-82 0 -143 -39t-97 -107.5t-46 -156.5q-7 -56 -1 -107.5t26 -93t57.5 -65.5t94.5 -24q28 0 50.5 3t44.5 12q14 6 22 14t13 26t11 52q10 56 9.5 81.5
t-17 34.5t-52.5 11q-2 12 -2 24.5t1 24.5q34 -2 65 -2.5t62 -0.5q33 0 59 0.5t65 2.5q-1 -14 -3 -26t-7 -23q-21 -2 -33 -10t-20 -33t-18 -79q-6 -38 -7 -57.5t4 -35.5q-48 -30 -118.5 -51.5t-153.5 -21.5q-101 0 -166.5 44t-93 121.5t-14.5 176.5q13 93 52 159.5t94.5 109
t122 63t133.5 20.5zM305 763q0 8 2 24t7 25h351q0 -10 -2 -21.5t-7 -23.5q-98 0 -186 -0.5t-165 -3.5z" />
    <glyph glyph-name="uni01E4" unicode="&#x1e4;" horiz-adv-x="688" 
d="M461 685q76 0 131.5 -14t100.5 -44q-12 -34 -19.5 -70.5t-12.5 -79.5q-15 -6 -30 -7t-32 3q8 71 -6 106t-46 47t-80 12q-82 0 -143 -39t-97 -107.5t-46 -156.5q-7 -56 -1 -107.5t26 -93t57.5 -65.5t94.5 -24q28 0 50.5 3t44.5 12q14 6 22 14t13 26t11 52q10 56 9.5 81.5
t-17 34.5t-52.5 11q-2 12 -2 24.5t1 24.5q34 -2 65 -2.5t62 -0.5q33 0 59 0.5t65 2.5q-1 -14 -3 -26t-7 -23q-21 -2 -33 -10t-20 -33t-18 -79q-6 -38 -7 -57.5t4 -35.5q-48 -30 -118.5 -51.5t-153.5 -21.5q-101 0 -166.5 44t-93 121.5t-14.5 176.5q13 93 52 159.5t94.5 109
t122 63t133.5 20.5zM369.049 137q0 13 2.97461 30.5t7.22461 26.5h309.392q0 -17 -1.7002 -30.5t-7.64941 -25.5q-37.3994 1 -67.998 1h-68.8486h-67.5723q-27.625 0 -51.4238 -1q-23.7998 -1 -54.3984 -1z" />
    <glyph glyph-name="uni021C" unicode="&#x21c;" horiz-adv-x="525" 
d="M109 -171q-56 0 -94.5 13t-58.5 32q3 10 8 20t15 19q11 -10 46.5 -19.5t76.5 -9.5q63 0 114.5 26t87 74t47.5 113q16 80 -15.5 120.5t-100.5 40.5q-25 0 -51.5 -5t-50.5 -16q-5 12 -5 27.5t3 28.5q93 23 147.5 53t81.5 67.5t35 83.5q14 68 -13 103t-88 35
q-50 0 -84.5 -30t-62.5 -107q-15 -1 -29 1t-28 7q8 30 15.5 64t10.5 70q38 22 90 33.5t109 11.5q120 0 168 -49t33 -127q-9 -48 -40 -88t-85.5 -72t-136.5 -58l18 16q48 4 89 -5.5t70 -33.5t40.5 -64t0.5 -99q-12 -62 -44.5 -112.5t-80.5 -87t-108.5 -56.5t-129.5 -20z" />
    <glyph glyph-name="H" unicode="H" horiz-adv-x="764" 
d="M425 -3q0 14 2.5 26.5t6.5 21.5q27 4 41.5 11.5t22.5 25.5t15 53l70 407q6 34 2.5 51.5t-18 25.5t-43.5 12q-1 11 -1.5 23t0.5 25q30 -1 61.5 -2t66.5 -1q33 0 65 1t65 2q-1 -13 -3 -25t-7 -23q-25 -4 -40 -12t-23.5 -26.5t-14.5 -54.5l-70 -403q-6 -34 -3.5 -52.5
t17 -25.5t43.5 -12q2 -10 3 -22.5t-1 -25.5q-33 2 -64.5 2.5t-63.5 0.5q-33 0 -67.5 -0.5t-61.5 -2.5zM26 -3q0 14 2.5 26.5t7.5 21.5q26 4 41 11.5t23 25.5t14 53l70 407q6 34 2.5 51.5t-18 25.5t-42.5 12q-1 11 -1.5 23t0.5 25q29 -1 61 -2t66 -1q33 0 65.5 1t64.5 2
q-1 -13 -2.5 -25t-7.5 -23q-25 -4 -40 -12t-23 -26.5t-15 -54.5l-70 -403q-6 -34 -3 -52.5t17.5 -25.5t42.5 -12q2 -10 3 -22.5t-1 -25.5q-32 2 -63.5 2.5t-64.5 0.5t-67.5 -0.5t-61.5 -2.5zM233 314l10 55h332l-9 -49h-75t-91.5 -0.5t-91 -2t-75.5 -3.5z" />
    <glyph glyph-name="Hbar" unicode="&#x126;" horiz-adv-x="764" 
d="M425 -3q0 14 2.5 26.5t6.5 21.5q27 4 41.5 11.5t22.5 25.5t15 53l70 407q6 34 2.5 51.5t-18 25.5t-43.5 12q-1 11 -1.5 23t0.5 25q30 -1 61.5 -2t66.5 -1q33 0 65 1t65 2q-1 -13 -3 -25t-7 -23q-25 -4 -40 -12t-23.5 -26.5t-14.5 -54.5l-70 -403q-6 -34 -3.5 -52.5
t17 -25.5t43.5 -12q2 -10 3 -22.5t-1 -25.5q-33 2 -64.5 2.5t-63.5 0.5q-33 0 -67.5 -0.5t-61.5 -2.5zM26 -3q0 14 2.5 26.5t7.5 21.5q26 4 41 11.5t23 25.5t14 53l70 407q6 34 2.5 51.5t-18 25.5t-42.5 12q-1 11 -1.5 23t0.5 25q29 -1 61 -2t66 -1q33 0 65.5 1t64.5 2
q-1 -13 -2.5 -25t-7.5 -23q-25 -4 -40 -12t-23 -26.5t-15 -54.5l-70 -403q-6 -34 -3 -52.5t17.5 -25.5t42.5 -12q2 -10 3 -22.5t-1 -25.5q-32 2 -63.5 2.5t-64.5 0.5t-67.5 -0.5t-61.5 -2.5zM233 314l10 55h332l-9 -49h-75t-91.5 -0.5t-91 -2t-75.5 -3.5zM106 452
q0 9 2.5 25.5t7.5 26.5h630q0 -13 -2 -25t-8 -23h-57h-95t-118 -0.5t-128 -1t-124.5 -1t-107.5 -1.5z" />
    <glyph glyph-name="uni1E2A" unicode="&#x1e2a;" horiz-adv-x="764" 
d="M425 -3q0 14 2.5 26.5t6.5 21.5q27 4 41.5 11.5t22.5 25.5t15 53l70 407q6 34 2.5 51.5t-18 25.5t-43.5 12q-1 11 -1.5 23t0.5 25q30 -1 61.5 -2t66.5 -1q33 0 65 1t65 2q-1 -13 -3 -25t-7 -23q-25 -4 -40 -12t-23.5 -26.5t-14.5 -54.5l-70 -403q-6 -34 -3.5 -52.5
t17 -25.5t43.5 -12q2 -10 3 -22.5t-1 -25.5q-33 2 -64.5 2.5t-63.5 0.5q-33 0 -67.5 -0.5t-61.5 -2.5zM26 -3q0 14 2.5 26.5t7.5 21.5q26 4 41 11.5t23 25.5t14 53l70 407q6 34 2.5 51.5t-18 25.5t-42.5 12q-1 11 -1.5 23t0.5 25q29 -1 61 -2t66 -1q33 0 65.5 1t64.5 2
q-1 -13 -2.5 -25t-7.5 -23q-25 -4 -40 -12t-23 -26.5t-15 -54.5l-70 -403q-6 -34 -3 -52.5t17.5 -25.5t42.5 -12q2 -10 3 -22.5t-1 -25.5q-32 2 -63.5 2.5t-64.5 0.5t-67.5 -0.5t-61.5 -2.5zM233 314l10 55h332l-9 -49h-75t-91.5 -0.5t-91 -2t-75.5 -3.5zM284 -233
q-82 0 -118 44t-20 124q12 6 26 9t27 3q-3 -49 26.5 -77.5t83.5 -28.5t92.5 28.5t50.5 77.5q13 0 23.5 -1.5t16.5 -5.5q-16 -82 -70 -127.5t-138 -45.5z" />
    <glyph glyph-name="uni021E" unicode="&#x21e;" horiz-adv-x="764" 
d="M425 -3q0 14 2.5 26.5t6.5 21.5q27 4 41.5 11.5t22.5 25.5t15 53l70 407q6 34 2.5 51.5t-18 25.5t-43.5 12q-1 11 -1.5 23t0.5 25q30 -1 61.5 -2t66.5 -1q33 0 65 1t65 2q-1 -13 -3 -25t-7 -23q-25 -4 -40 -12t-23.5 -26.5t-14.5 -54.5l-70 -403q-6 -34 -3.5 -52.5
t17 -25.5t43.5 -12q2 -10 3 -22.5t-1 -25.5q-33 2 -64.5 2.5t-63.5 0.5q-33 0 -67.5 -0.5t-61.5 -2.5zM26 -3q0 14 2.5 26.5t7.5 21.5q26 4 41 11.5t23 25.5t14 53l70 407q6 34 2.5 51.5t-18 25.5t-42.5 12q-1 11 -1.5 23t0.5 25q29 -1 61 -2t66 -1q33 0 65.5 1t64.5 2
q-1 -13 -2.5 -25t-7.5 -23q-25 -4 -40 -12t-23 -26.5t-15 -54.5l-70 -403q-6 -34 -3 -52.5t17.5 -25.5t42.5 -12q2 -10 3 -22.5t-1 -25.5q-32 2 -63.5 2.5t-64.5 0.5t-67.5 -0.5t-61.5 -2.5zM233 314l10 55h332l-9 -49h-75t-91.5 -0.5t-91 -2t-75.5 -3.5zM435 732
q-25 30 -57 62t-67 59q3 14 10 22.5t20 10.5q31 -18 66 -36t66 -32q41 15 74.5 31.5t61.5 33.5q10 -4 18.5 -12.5t13.5 -18.5q-39 -25 -82.5 -54.5t-81.5 -59.5q-22 -10 -42 -6z" />
    <glyph glyph-name="Hcircumflex" unicode="&#x124;" horiz-adv-x="764" 
d="M425 -3q0 14 2.5 26.5t6.5 21.5q27 4 41.5 11.5t22.5 25.5t15 53l70 407q6 34 2.5 51.5t-18 25.5t-43.5 12q-1 11 -1.5 23t0.5 25q30 -1 61.5 -2t66.5 -1q33 0 65 1t65 2q-1 -13 -3 -25t-7 -23q-25 -4 -40 -12t-23.5 -26.5t-14.5 -54.5l-70 -403q-6 -34 -3.5 -52.5
t17 -25.5t43.5 -12q2 -10 3 -22.5t-1 -25.5q-33 2 -64.5 2.5t-63.5 0.5q-33 0 -67.5 -0.5t-61.5 -2.5zM26 -3q0 14 2.5 26.5t7.5 21.5q26 4 41 11.5t23 25.5t14 53l70 407q6 34 2.5 51.5t-18 25.5t-42.5 12q-1 11 -1.5 23t0.5 25q29 -1 61 -2t66 -1q33 0 65.5 1t64.5 2
q-1 -13 -2.5 -25t-7.5 -23q-25 -4 -40 -12t-23 -26.5t-15 -54.5l-70 -403q-6 -34 -3 -52.5t17.5 -25.5t42.5 -12q2 -10 3 -22.5t-1 -25.5q-32 2 -63.5 2.5t-64.5 0.5t-67.5 -0.5t-61.5 -2.5zM233 314l10 55h332l-9 -49h-75t-91.5 -0.5t-91 -2t-75.5 -3.5zM337 728
q-9 8 -14 21t-5 24q28 16 55 33.5t52.5 36.5t48.5 37q13 2 24 0.5t22 -6.5q25 -28 53 -57t59 -60q-5 -10 -15.5 -16.5t-23.5 -7.5q-28 18 -58.5 34t-62.5 28q-23 -8 -46.5 -19.5t-45.5 -23.5t-43 -24z" />
    <glyph glyph-name="uni1E24" unicode="&#x1e24;" horiz-adv-x="764" 
d="M425 -3q0 14 2.5 26.5t6.5 21.5q27 4 41.5 11.5t22.5 25.5t15 53l70 407q6 34 2.5 51.5t-18 25.5t-43.5 12q-1 11 -1.5 23t0.5 25q30 -1 61.5 -2t66.5 -1q33 0 65 1t65 2q-1 -13 -3 -25t-7 -23q-25 -4 -40 -12t-23.5 -26.5t-14.5 -54.5l-70 -403q-6 -34 -3.5 -52.5
t17 -25.5t43.5 -12q2 -10 3 -22.5t-1 -25.5q-33 2 -64.5 2.5t-63.5 0.5q-33 0 -67.5 -0.5t-61.5 -2.5zM26 -3q0 14 2.5 26.5t7.5 21.5q26 4 41 11.5t23 25.5t14 53l70 407q6 34 2.5 51.5t-18 25.5t-42.5 12q-1 11 -1.5 23t0.5 25q29 -1 61 -2t66 -1q33 0 65.5 1t64.5 2
q-1 -13 -2.5 -25t-7.5 -23q-25 -4 -40 -12t-23 -26.5t-15 -54.5l-70 -403q-6 -34 -3 -52.5t17.5 -25.5t42.5 -12q2 -10 3 -22.5t-1 -25.5q-32 2 -63.5 2.5t-64.5 0.5t-67.5 -0.5t-61.5 -2.5zM233 314l10 55h332l-9 -49h-75t-91.5 -0.5t-91 -2t-75.5 -3.5zM306 -218
q-29 0 -43.5 17t-10.5 47q6 29 25 47t46 18q24 0 41.5 -16t11.5 -51q-4 -28 -22.5 -45t-47.5 -17z" />
    <glyph glyph-name="I" unicode="I" horiz-adv-x="366" 
d="M184 542q6 34 2.5 51.5t-18 25.5t-42.5 12q-1 11 -1.5 23t0.5 25q29 -1 61 -2t66 -1q33 0 65.5 1t64.5 2q-1 -13 -2.5 -25t-7.5 -23q-25 -4 -40 -12t-23 -26.5t-15 -54.5l-70 -403q-6 -34 -3 -52.5t17.5 -25.5t42.5 -12q2 -10 3 -22.5t-1 -25.5q-32 2 -63.5 2.5
t-64.5 0.5t-67.5 -0.5t-61.5 -2.5q0 14 2.5 26.5t7.5 21.5q26 4 41 11.5t23 25.5t14 53z" />
    <glyph glyph-name="IJ" unicode="&#x132;" horiz-adv-x="659" 
d="M228 -247q-41 0 -81 17t-73 46q-4 28 -1 47t10 36q52 -19 106.5 -29.5t95.5 -10.5q32 0 52 9.5t33.5 34.5t24 71.5t24.5 119.5q8 42 12 62.5t8.5 33.5t11.5 32h-3q-14 -32 -39 -71.5t-57.5 -77t-70.5 -61t-77 -23.5t-58 23t-24 60.5t-1 80.5t11 84t12 70l41 234
q6 35 2 52.5t-20 25.5t-46 12q-2 11 -2.5 23t0.5 25q30 -1 63 -2t70 -1q35 0 68 1l66 2q0 -13 -2 -25t-7 -23q-27 -4 -42.5 -12.5t-24.5 -26.5t-16 -54l-51 -270q-12 -59 -16 -103.5t3.5 -70t30.5 -25.5q26 0 62.5 34.5t73 97.5t66 150t43.5 194q4 30 2 47.5t-17 26
t-50 12.5q-3 11 -3.5 23t0.5 25q24 -2 59 -2.5t70 -0.5h52.5t42 1t44.5 2q-1 -14 -2.5 -26.5t-5.5 -21.5q-28 -4 -44.5 -12.5t-25 -28t-16.5 -56.5l-76 -398q-15 -80 -44.5 -149t-70.5 -122t-90 -82.5t-103 -29.5z" />
    <glyph glyph-name="Iacute" unicode="&#xcd;" horiz-adv-x="366" 
d="M184 542q6 34 2.5 51.5t-18 25.5t-42.5 12q-1 11 -1.5 23t0.5 25q29 -1 61 -2t66 -1q33 0 65.5 1t64.5 2q-1 -13 -2.5 -25t-7.5 -23q-25 -4 -40 -12t-23 -26.5t-15 -54.5l-70 -403q-6 -34 -3 -52.5t17.5 -25.5t42.5 -12q2 -10 3 -22.5t-1 -25.5q-32 2 -63.5 2.5
t-64.5 0.5t-67.5 -0.5t-61.5 -2.5q0 14 2.5 26.5t7.5 21.5q26 4 41 11.5t23 25.5t14 53zM253 729q-13 2 -24.5 6.5t-21.5 12.5q20 24 36 48t28 45t19 35q11 2 21 3t21 1q21 0 39.5 -3.5t32.5 -10.5q-38 -32 -77.5 -67.5t-73.5 -69.5z" />
    <glyph glyph-name="Ibreve" unicode="&#x12c;" horiz-adv-x="366" 
d="M184 542q6 34 2.5 51.5t-18 25.5t-42.5 12q-1 11 -1.5 23t0.5 25q29 -1 61 -2t66 -1q33 0 65.5 1t64.5 2q-1 -13 -2.5 -25t-7.5 -23q-25 -4 -40 -12t-23 -26.5t-15 -54.5l-70 -403q-6 -34 -3 -52.5t17.5 -25.5t42.5 -12q2 -10 3 -22.5t-1 -25.5q-32 2 -63.5 2.5
t-64.5 0.5t-67.5 -0.5t-61.5 -2.5q0 14 2.5 26.5t7.5 21.5q26 4 41 11.5t23 25.5t14 53zM252 715q-72 0 -100.5 39.5t-15.5 110.5q11 2 23 2t23 -5q2 -37 22 -57t63 -20q44 0 74.5 24.5t40.5 63.5q11 -2 21 -6.5t15 -11.5q-13 -68 -54 -104t-112 -36z" />
    <glyph glyph-name="uni01CF" unicode="&#x1cf;" horiz-adv-x="366" 
d="M184 542q6 34 2.5 51.5t-18 25.5t-42.5 12q-1 11 -1.5 23t0.5 25q29 -1 61 -2t66 -1q33 0 65.5 1t64.5 2q-1 -13 -2.5 -25t-7.5 -23q-25 -4 -40 -12t-23 -26.5t-15 -54.5l-70 -403q-6 -34 -3 -52.5t17.5 -25.5t42.5 -12q2 -10 3 -22.5t-1 -25.5q-32 2 -63.5 2.5
t-64.5 0.5t-67.5 -0.5t-61.5 -2.5q0 14 2.5 26.5t7.5 21.5q26 4 41 11.5t23 25.5t14 53zM228 714q-19 31 -41.5 66t-46.5 74q7 7 20.5 10.5t25.5 4.5q21 -21 43.5 -41t43.5 -34q31 20 59 41.5t51 39.5q25 -16 28 -45q-34 -24 -71 -56t-69 -63q-15 -1 -25.5 -0.5t-17.5 3.5z
" />
    <glyph glyph-name="Icircumflex" unicode="&#xce;" horiz-adv-x="366" 
d="M184 542q6 34 2.5 51.5t-18 25.5t-42.5 12q-1 11 -1.5 23t0.5 25q29 -1 61 -2t66 -1q33 0 65.5 1t64.5 2q-1 -13 -2.5 -25t-7.5 -23q-25 -4 -40 -12t-23 -26.5t-15 -54.5l-70 -403q-6 -34 -3 -52.5t17.5 -25.5t42.5 -12q2 -10 3 -22.5t-1 -25.5q-32 2 -63.5 2.5
t-64.5 0.5t-67.5 -0.5t-61.5 -2.5q0 14 2.5 26.5t7.5 21.5q26 4 41 11.5t23 25.5t14 53zM166 708q-12 9 -19 19.5t-8 25.5q35 24 71 56t69 64q15 0 25.5 -0.5t17.5 -2.5q19 -32 41.5 -66.5t47.5 -74.5q-8 -6 -22 -10t-24 -4q-21 21 -44 40.5t-44 33.5q-31 -20 -59 -40.5
t-52 -40.5z" />
    <glyph glyph-name="uni0208" unicode="&#x208;" horiz-adv-x="366" 
d="M184 542q6 34 2.5 51.5t-18 25.5t-42.5 12q-1 11 -1.5 23t0.5 25q29 -1 61 -2t66 -1q33 0 65.5 1t64.5 2q-1 -13 -2.5 -25t-7.5 -23q-25 -4 -40 -12t-23 -26.5t-15 -54.5l-70 -403q-6 -34 -3 -52.5t17.5 -25.5t42.5 -12q2 -10 3 -22.5t-1 -25.5q-32 2 -63.5 2.5
t-64.5 0.5t-67.5 -0.5t-61.5 -2.5q0 14 2.5 26.5t7.5 21.5q26 4 41 11.5t23 25.5t14 53zM178 725q-21 38 -40 68.5t-40 59.5q20 8 46.5 8.5t49.5 -4.5q7 -30 14 -64.5t18 -70.5q-11 -1 -22 0t-26 3zM327 725q-21 38 -38.5 68.5t-38.5 59.5q19 8 44.5 8.5t48.5 -4.5
q6 -30 13 -64.5t18 -70.5q-11 -1 -22 0t-25 3z" />
    <glyph glyph-name="Idieresis" unicode="&#xcf;" horiz-adv-x="366" 
d="M184 542q6 34 2.5 51.5t-18 25.5t-42.5 12q-1 11 -1.5 23t0.5 25q29 -1 61 -2t66 -1q33 0 65.5 1t64.5 2q-1 -13 -2.5 -25t-7.5 -23q-25 -4 -40 -12t-23 -26.5t-15 -54.5l-70 -403q-6 -34 -3 -52.5t17.5 -25.5t42.5 -12q2 -10 3 -22.5t-1 -25.5q-32 2 -63.5 2.5
t-64.5 0.5t-67.5 -0.5t-61.5 -2.5q0 14 2.5 26.5t7.5 21.5q26 4 41 11.5t23 25.5t14 53zM185 733q-29 0 -44 18t-11 42q4 21 20.5 36t46.5 15q36 0 48 -19t7 -46q-5 -20 -23 -33t-44 -13zM352 734q-33 0 -47 19t-8 47q4 21 22 32.5t44 11.5q29 0 44.5 -17.5t10.5 -43.5
q-4 -19 -19 -34t-47 -15z" />
    <glyph glyph-name="uni1E2E" unicode="&#x1e2e;" horiz-adv-x="366" 
d="M184 542q6 34 2.5 51.5t-18 25.5t-42.5 12q-1 11 -1.5 23t0.5 25q29 -1 61 -2t66 -1q33 0 65.5 1t64.5 2q-1 -13 -2.5 -25t-7.5 -23q-25 -4 -40 -12t-23 -26.5t-15 -54.5l-70 -403q-6 -34 -3 -52.5t17.5 -25.5t42.5 -12q2 -10 3 -22.5t-1 -25.5q-32 2 -63.5 2.5
t-64.5 0.5t-67.5 -0.5t-61.5 -2.5q0 14 2.5 26.5t7.5 21.5q26 4 41 11.5t23 25.5t14 53zM185 733q-29 0 -44 18t-11 42q4 21 20.5 36t46.5 15q36 0 48 -19t7 -46q-5 -20 -23 -33t-44 -13zM352 734q-33 0 -47 19t-8 47q4 21 22 32.5t44 11.5q29 0 44.5 -17.5t10.5 -43.5
q-4 -19 -19 -34t-47 -15zM276 865q-13 2 -24.5 6.5t-21.5 12.5q20 24 36 48t28 45t19 35q11 2 21 3t21 1q21 0 39.5 -3.5t32.5 -10.5q-38 -32 -77.5 -67.5t-73.5 -69.5z" />
    <glyph glyph-name="Idotaccent" unicode="&#x130;" horiz-adv-x="366" 
d="M184 542q6 34 2.5 51.5t-18 25.5t-42.5 12q-1 11 -1.5 23t0.5 25q29 -1 61 -2t66 -1q33 0 65.5 1t64.5 2q-1 -13 -2.5 -25t-7.5 -23q-25 -4 -40 -12t-23 -26.5t-15 -54.5l-70 -403q-6 -34 -3 -52.5t17.5 -25.5t42.5 -12q2 -10 3 -22.5t-1 -25.5q-32 2 -63.5 2.5
t-64.5 0.5t-67.5 -0.5t-61.5 -2.5q0 14 2.5 26.5t7.5 21.5q26 4 41 11.5t23 25.5t14 53zM263 720q-28 0 -42 17t-10 45q5 28 25 43.5t47 15.5q28 0 43 -17.5t9 -46.5q-4 -27 -23.5 -42t-48.5 -15z" />
    <glyph glyph-name="uni1ECA" unicode="&#x1eca;" horiz-adv-x="366" 
d="M184 542q6 34 2.5 51.5t-18 25.5t-42.5 12q-1 11 -1.5 23t0.5 25q29 -1 61 -2t66 -1q33 0 65.5 1t64.5 2q-1 -13 -2.5 -25t-7.5 -23q-25 -4 -40 -12t-23 -26.5t-15 -54.5l-70 -403q-6 -34 -3 -52.5t17.5 -25.5t42.5 -12q2 -10 3 -22.5t-1 -25.5q-32 2 -63.5 2.5
t-64.5 0.5t-67.5 -0.5t-61.5 -2.5q0 14 2.5 26.5t7.5 21.5q26 4 41 11.5t23 25.5t14 53zM106 -218q-29 0 -43.5 17t-10.5 47q6 29 25 47t46 18q24 0 41.5 -16t11.5 -51q-4 -28 -22.5 -45t-47.5 -17z" />
    <glyph glyph-name="Igrave" unicode="&#xcc;" horiz-adv-x="366" 
d="M184 542q6 34 2.5 51.5t-18 25.5t-42.5 12q-1 11 -1.5 23t0.5 25q29 -1 61 -2t66 -1q33 0 65.5 1t64.5 2q-1 -13 -2.5 -25t-7.5 -23q-25 -4 -40 -12t-23 -26.5t-15 -54.5l-70 -403q-6 -34 -3 -52.5t17.5 -25.5t42.5 -12q2 -10 3 -22.5t-1 -25.5q-32 2 -63.5 2.5
t-64.5 0.5t-67.5 -0.5t-61.5 -2.5q0 14 2.5 26.5t7.5 21.5q26 4 41 11.5t23 25.5t14 53zM305 740q-10 -4 -27 -4t-28 4q-11 19 -27 41t-34.5 44t-36.5 40q23 8 50.5 9.5t53.5 -4.5q8 -31 20 -64.5t29 -65.5z" />
    <glyph glyph-name="uni1EC8" unicode="&#x1ec8;" horiz-adv-x="366" 
d="M184 542q6 34 2.5 51.5t-18 25.5t-42.5 12q-1 11 -1.5 23t0.5 25q29 -1 61 -2t66 -1q33 0 65.5 1t64.5 2q-1 -13 -2.5 -25t-7.5 -23q-25 -4 -40 -12t-23 -26.5t-15 -54.5l-70 -403q-6 -34 -3 -52.5t17.5 -25.5t42.5 -12q2 -10 3 -22.5t-1 -25.5q-32 2 -63.5 2.5
t-64.5 0.5t-67.5 -0.5t-61.5 -2.5q0 14 2.5 26.5t7.5 21.5q26 4 41 11.5t23 25.5t14 53zM236 731q-3 8 -4.5 17t0.5 17q5 20 21 29t32 17t21 22q4 11 -2.5 16t-18.5 5q-18 0 -33 -13.5t-25 -45.5q-15 3 -28 6.5t-22 10.5q5 16 8.5 27t2.5 27q19 10 46 18t61 8
q49 0 70.5 -17.5t13.5 -45.5q-5 -19 -18.5 -30t-29 -19t-28.5 -15.5t-16 -19.5q-1 -4 -2 -6.5t0 -9.5q-11 -1 -24.5 -1t-24.5 3z" />
    <glyph glyph-name="uni020A" unicode="&#x20a;" horiz-adv-x="366" 
d="M184 542q6 34 2.5 51.5t-18 25.5t-42.5 12q-1 11 -1.5 23t0.5 25q29 -1 61 -2t66 -1q33 0 65.5 1t64.5 2q-1 -13 -2.5 -25t-7.5 -23q-25 -4 -40 -12t-23 -26.5t-15 -54.5l-70 -403q-6 -34 -3 -52.5t17.5 -25.5t42.5 -12q2 -10 3 -22.5t-1 -25.5q-32 2 -63.5 2.5
t-64.5 0.5t-67.5 -0.5t-61.5 -2.5q0 14 2.5 26.5t7.5 21.5q26 4 41 11.5t23 25.5t14 53zM298 868q72 0 100.5 -39.5t15.5 -110.5q-11 -2 -23 -2t-23 5q-2 37 -22 57t-63 20q-44 0 -74.5 -24.5t-40.5 -63.5q-11 2 -21 6.5t-15 11.5q13 68 54 104t112 36z" />
    <glyph glyph-name="Imacron" unicode="&#x12a;" horiz-adv-x="366" 
d="M184 542q6 34 2.5 51.5t-18 25.5t-42.5 12q-1 11 -1.5 23t0.5 25q29 -1 61 -2t66 -1q33 0 65.5 1t64.5 2q-1 -13 -2.5 -25t-7.5 -23q-25 -4 -40 -12t-23 -26.5t-15 -54.5l-70 -403q-6 -34 -3 -52.5t17.5 -25.5t42.5 -12q2 -10 3 -22.5t-1 -25.5q-32 2 -63.5 2.5
t-64.5 0.5t-67.5 -0.5t-61.5 -2.5q0 14 2.5 26.5t7.5 21.5q26 4 41 11.5t23 25.5t14 53zM133 757q0 12 4 27t11 25h267q-1 -11 -4 -24.5t-10 -23.5q-48 0 -95 -0.5t-91 -1t-82 -2.5z" />
    <glyph glyph-name="Iogonek" unicode="&#x12e;" horiz-adv-x="366" 
d="M184 542q6 34 2.5 51.5t-18 25.5t-42.5 12q-1 11 -1.5 23t0.5 25q29 -1 61 -2t66 -1q33 0 65.5 1t64.5 2q-1 -13 -2.5 -25t-7.5 -23q-25 -4 -40 -12t-23 -26.5t-15 -54.5l-70 -403q-6 -34 -3 -52.5t17.5 -25.5t42.5 -12q2 -10 3 -22.5t-1 -25.5q-32 2 -63.5 2.5
t-64.5 0.5t-67.5 -0.5t-61.5 -2.5q0 14 2.5 26.5t7.5 21.5q26 4 41 11.5t23 25.5t14 53zM186 23l37 -23q-55 -26 -80 -52.5t-29 -52.5q-2 -21 11.5 -37t42.5 -16q8 0 19 2t21 6q5 -9 6.5 -20.5t-0.5 -23.5q-22 -10 -43.5 -23t-41.5 -30q-4 -1 -9 -1.5t-11 -0.5
q-24 0 -47.5 11.5t-36.5 35.5t-8 62q5 28 22.5 55.5t53.5 54.5t93 53z" />
    <glyph glyph-name="Itilde" unicode="&#x128;" horiz-adv-x="366" 
d="M184 542q6 34 2.5 51.5t-18 25.5t-42.5 12q-1 11 -1.5 23t0.5 25q29 -1 61 -2t66 -1q33 0 65.5 1t64.5 2q-1 -13 -2.5 -25t-7.5 -23q-25 -4 -40 -12t-23 -26.5t-15 -54.5l-70 -403q-6 -34 -3 -52.5t17.5 -25.5t42.5 -12q2 -10 3 -22.5t-1 -25.5q-32 2 -63.5 2.5
t-64.5 0.5t-67.5 -0.5t-61.5 -2.5q0 14 2.5 26.5t7.5 21.5q26 4 41 11.5t23 25.5t14 53zM320 732q-23 0 -36 5.5t-21.5 13t-18.5 13t-25 5.5q-20 0 -41 -10t-43 -24q-8 7 -12 16t-3 21q36 45 66 60t55 15q19 0 31.5 -5t22 -12t19.5 -12.5t24 -5.5q15 0 33 8.5t32 22.5
q9 -5 16.5 -12.5t9.5 -18.5q-24 -44 -51 -62t-58 -18z" />
    <glyph glyph-name="J" unicode="J" horiz-adv-x="318" 
d="M108 679q23 -2 57 -2.5t68 -0.5h49t41 1t43 2q-1 -28 -9 -48q-26 -4 -41.5 -12.5t-24 -28t-15.5 -56.5l-72 -413q-12 -70 -28 -124t-44 -97t-74.5 -79t-118.5 -70q-9 7 -12.5 18.5t-5.5 24.5q42 27 73.5 60.5t53 79.5t32.5 110l88 501q5 31 3 48t-16 25.5t-45 12.5
q-3 11 -3 23t1 25z" />
    <glyph glyph-name="Jcircumflex" unicode="&#x134;" horiz-adv-x="318" 
d="M108 679q23 -2 57 -2.5t68 -0.5h49t41 1t43 2q-1 -28 -9 -48q-26 -4 -41.5 -12.5t-24 -28t-15.5 -56.5l-72 -413q-12 -70 -28 -124t-44 -97t-74.5 -79t-118.5 -70q-9 7 -12.5 18.5t-5.5 24.5q42 27 73.5 60.5t53 79.5t32.5 110l88 501q5 31 3 48t-16 25.5t-45 12.5
q-3 11 -3 23t1 25zM142 708q-12 9 -19 19.5t-8 25.5q35 24 71 56t69 64q15 0 25.5 -0.5t17.5 -2.5q19 -32 41.5 -66.5t47.5 -74.5q-8 -6 -22 -10t-24 -4q-21 21 -44 40.5t-44 33.5q-31 -20 -59 -40.5t-52 -40.5z" />
    <glyph glyph-name="K" unicode="K" horiz-adv-x="662" 
d="M125 679q29 -1 61 -2t66 -1q33 0 65.5 1t64.5 2q-1 -13 -2.5 -25t-7.5 -23q-25 -4 -40 -12t-23 -26.5t-15 -54.5l-70 -403q-6 -34 -4 -52.5t14.5 -26t36.5 -11.5q2 -10 3 -22.5t-1 -25.5q-21 1 -40 1.5t-37.5 1t-40.5 0.5q-33 0 -67.5 -0.5t-61.5 -2.5q0 14 2.5 26.5
t7.5 21.5q27 3 42 11t22.5 27.5t13.5 54.5l70 404q6 34 2.5 51.5t-18 25.5t-42.5 12q-1 11 -1.5 23t0.5 25zM483 679q29 -2 54.5 -2.5t56.5 -0.5h36.5t33 1t34.5 2q0 -11 -0.5 -24.5t-5.5 -24.5q-28 -3 -49.5 -10.5t-46 -25t-62.5 -51.5l-194 -180l3 20q45 -44 82.5 -102
t75.5 -140q15 -35 28 -47.5t29 -12.5q10 0 18 3t18 13q10 -6 18 -16t12 -22q-27 -32 -56.5 -50t-68.5 -18q-37 2 -60 22.5t-41 69.5q-33 90 -68.5 152t-81.5 112l208 194q35 33 47 51t7 26.5t-24 12.5q-2 11 -3.5 23.5t0.5 24.5z" />
    <glyph glyph-name="uni01E8" unicode="&#x1e8;" horiz-adv-x="662" 
d="M125 679q29 -1 61 -2t66 -1q33 0 65.5 1t64.5 2q-1 -13 -2.5 -25t-7.5 -23q-25 -4 -40 -12t-23 -26.5t-15 -54.5l-70 -403q-6 -34 -4 -52.5t14.5 -26t36.5 -11.5q2 -10 3 -22.5t-1 -25.5q-21 1 -40 1.5t-37.5 1t-40.5 0.5q-33 0 -67.5 -0.5t-61.5 -2.5q0 14 2.5 26.5
t7.5 21.5q27 3 42 11t22.5 27.5t13.5 54.5l70 404q6 34 2.5 51.5t-18 25.5t-42.5 12q-1 11 -1.5 23t0.5 25zM483 679q29 -2 54.5 -2.5t56.5 -0.5h36.5t33 1t34.5 2q0 -11 -0.5 -24.5t-5.5 -24.5q-28 -3 -49.5 -10.5t-46 -25t-62.5 -51.5l-194 -180l3 20q45 -44 82.5 -102
t75.5 -140q15 -35 28 -47.5t29 -12.5q10 0 18 3t18 13q10 -6 18 -16t12 -22q-27 -32 -56.5 -50t-68.5 -18q-37 2 -60 22.5t-41 69.5q-33 90 -68.5 152t-81.5 112l208 194q35 33 47 51t7 26.5t-24 12.5q-2 11 -3.5 23.5t0.5 24.5zM419 732q-25 30 -57 62t-67 59q3 14 10 22.5
t20 10.5q31 -18 66 -36t66 -32q41 15 74.5 31.5t61.5 33.5q10 -4 18.5 -12.5t13.5 -18.5q-39 -25 -82.5 -54.5t-81.5 -59.5q-22 -10 -42 -6z" />
    <glyph glyph-name="uni0136" unicode="&#x136;" horiz-adv-x="662" 
d="M125 679q29 -1 61 -2t66 -1q33 0 65.5 1t64.5 2q-1 -13 -2.5 -25t-7.5 -23q-25 -4 -40 -12t-23 -26.5t-15 -54.5l-70 -403q-6 -34 -4 -52.5t14.5 -26t36.5 -11.5q2 -10 3 -22.5t-1 -25.5q-21 1 -40 1.5t-37.5 1t-40.5 0.5q-33 0 -67.5 -0.5t-61.5 -2.5q0 14 2.5 26.5
t7.5 21.5q27 3 42 11t22.5 27.5t13.5 54.5l70 404q6 34 2.5 51.5t-18 25.5t-42.5 12q-1 11 -1.5 23t0.5 25zM483 679q29 -2 54.5 -2.5t56.5 -0.5h36.5t33 1t34.5 2q0 -11 -0.5 -24.5t-5.5 -24.5q-28 -3 -49.5 -10.5t-46 -25t-62.5 -51.5l-194 -180l3 20q45 -44 82.5 -102
t75.5 -140q15 -35 28 -47.5t29 -12.5q10 0 18 3t18 13q10 -6 18 -16t12 -22q-27 -32 -56.5 -50t-68.5 -18q-37 2 -60 22.5t-41 69.5q-33 90 -68.5 152t-81.5 112l208 194q35 33 47 51t7 26.5t-24 12.5q-2 11 -3.5 23.5t0.5 24.5zM270 -285q-22 7 -28 25q26 22 42 44.5
t19 40.5q2 16 -6.5 25.5t-29.5 11.5q-2 37 19 66q26 4 49.5 11.5t43.5 18.5q18 -7 24.5 -25t1.5 -45q-10 -54 -48.5 -97.5t-86.5 -75.5z" />
    <glyph glyph-name="L" unicode="L" horiz-adv-x="560" 
d="M23 -3q1 13 2.5 25t6.5 23q29 3 44.5 12.5t23.5 31.5t14 62l69 395q7 33 3 49.5t-18.5 24t-40.5 11.5q-3 11 -3 23.5t1 24.5q29 -2 60.5 -2.5t65.5 -0.5q33 0 70 0.5t68 1.5q0 -13 -2 -25.5t-6 -21.5q-31 -4 -48.5 -13t-26 -29t-14.5 -57l-68 -391q-7 -39 -4.5 -58.5
t20 -26t53.5 -6.5h8q52 0 84.5 12.5t55.5 41.5t45 76q17 -3 29.5 -8.5t23.5 -16.5q-15 -31 -29 -72t-23 -86q-21 2 -55 2.5t-72.5 0.5h-75.5h-62t-69 -0.5t-68.5 -1t-61.5 -1.5z" />
    <glyph glyph-name="uni01C7" unicode="&#x1c7;" horiz-adv-x="878" 
d="M23 -3q1 13 2.5 25t6.5 23q29 3 44.5 12.5t23.5 31.5t14 62l69 395q7 33 3 49.5t-18.5 24t-40.5 11.5q-3 11 -3 23.5t1 24.5q29 -2 60.5 -2.5t65.5 -0.5q33 0 70 0.5t68 1.5q0 -13 -2 -25.5t-6 -21.5q-31 -4 -48.5 -13t-26 -29t-14.5 -57l-68 -391q-7 -39 -4.5 -58.5
t20 -26t53.5 -6.5h8q52 0 84.5 12.5t55.5 41.5t45 76q17 -3 29.5 -8.5t23.5 -16.5q-15 -31 -29 -72t-23 -86q-21 2 -55 2.5t-72.5 0.5h-75.5h-62t-69 -0.5t-68.5 -1t-61.5 -1.5zM668 679q23 -2 57 -2.5t68 -0.5h49t41 1t43 2q-1 -28 -9 -48q-26 -4 -41.5 -12.5t-24 -28
t-15.5 -56.5l-72 -413q-12 -70 -28 -124t-44 -97t-74.5 -79t-118.5 -70q-9 7 -12.5 18.5t-5.5 24.5q42 27 73.5 60.5t53 79.5t32.5 110l88 501q5 31 3 48t-16 25.5t-45 12.5q-3 11 -3 23t1 25z" />
    <glyph glyph-name="Lacute" unicode="&#x139;" horiz-adv-x="560" 
d="M23 -3q1 13 2.5 25t6.5 23q29 3 44.5 12.5t23.5 31.5t14 62l69 395q7 33 3 49.5t-18.5 24t-40.5 11.5q-3 11 -3 23.5t1 24.5q29 -2 60.5 -2.5t65.5 -0.5q33 0 70 0.5t68 1.5q0 -13 -2 -25.5t-6 -21.5q-31 -4 -48.5 -13t-26 -29t-14.5 -57l-68 -391q-7 -39 -4.5 -58.5
t20 -26t53.5 -6.5h8q52 0 84.5 12.5t55.5 41.5t45 76q17 -3 29.5 -8.5t23.5 -16.5q-15 -31 -29 -72t-23 -86q-21 2 -55 2.5t-72.5 0.5h-75.5h-62t-69 -0.5t-68.5 -1t-61.5 -1.5zM261 729q-13 2 -24.5 6.5t-21.5 12.5q20 24 36 48t28 45t19 35q11 2 21 3t21 1q21 0 39.5 -3.5
t32.5 -10.5q-38 -32 -77.5 -67.5t-73.5 -69.5z" />
    <glyph glyph-name="Lcaron" unicode="&#x13d;" horiz-adv-x="564" 
d="M23 -3q1 13 2.5 25t6.5 23q29 3 44.5 12.5t23.5 31.5t14 62l69 395q7 33 3 49.5t-18.5 24t-40.5 11.5q-3 11 -3 23.5t1 24.5q29 -2 60.5 -2.5t65.5 -0.5q33 0 70 0.5t68 1.5q0 -13 -2 -25.5t-6 -21.5q-31 -4 -48.5 -13t-26 -29t-14.5 -57l-68 -391q-7 -39 -4.5 -58.5
t20 -26t53.5 -6.5h8q52 0 84.5 12.5t55.5 41.5t45 76q17 -3 29.5 -8.5t23.5 -16.5q-15 -31 -29 -72t-23 -86q-21 2 -55 2.5t-72.5 0.5h-75.5h-62t-69 -0.5t-68.5 -1t-61.5 -1.5zM502 443q-14 0 -23.5 6.5t-15.5 16.5q57 56 61 94.5t-47 50.5q0 18 4.5 38t12.5 33q24 2 51 10
t43 19q22 -11 25.5 -39t-3.5 -60q-8 -39 -32.5 -82.5t-75.5 -86.5z" />
    <glyph glyph-name="uni013B" unicode="&#x13b;" horiz-adv-x="560" 
d="M23 -3q1 13 2.5 25t6.5 23q29 3 44.5 12.5t23.5 31.5t14 62l69 395q7 33 3 49.5t-18.5 24t-40.5 11.5q-3 11 -3 23.5t1 24.5q29 -2 60.5 -2.5t65.5 -0.5q33 0 70 0.5t68 1.5q0 -13 -2 -25.5t-6 -21.5q-31 -4 -48.5 -13t-26 -29t-14.5 -57l-68 -391q-7 -39 -4.5 -58.5
t20 -26t53.5 -6.5h8q52 0 84.5 12.5t55.5 41.5t45 76q17 -3 29.5 -8.5t23.5 -16.5q-15 -31 -29 -72t-23 -86q-21 2 -55 2.5t-72.5 0.5h-75.5h-62t-69 -0.5t-68.5 -1t-61.5 -1.5zM168 -285q-22 7 -28 25q26 22 42 44.5t19 40.5q2 16 -6.5 25.5t-29.5 11.5q-2 37 19 66
q26 4 49.5 11.5t43.5 18.5q18 -7 24.5 -25t1.5 -45q-10 -54 -48.5 -97.5t-86.5 -75.5z" />
    <glyph glyph-name="Ldot" unicode="&#x13f;" horiz-adv-x="560" 
d="M23 -3q1 13 2.5 25t6.5 23q29 3 44.5 12.5t23.5 31.5t14 62l69 395q7 33 3 49.5t-18.5 24t-40.5 11.5q-3 11 -3 23.5t1 24.5q29 -2 60.5 -2.5t65.5 -0.5q33 0 70 0.5t68 1.5q0 -13 -2 -25.5t-6 -21.5q-31 -4 -48.5 -13t-26 -29t-14.5 -57l-68 -391q-7 -39 -4.5 -58.5
t20 -26t53.5 -6.5h8q52 0 84.5 12.5t55.5 41.5t45 76q17 -3 29.5 -8.5t23.5 -16.5q-15 -31 -29 -72t-23 -86q-21 2 -55 2.5t-72.5 0.5h-75.5h-62t-69 -0.5t-68.5 -1t-61.5 -1.5zM484 299q-29 0 -44 18.5t-8 48.5q4 21 20 34.5t39 13.5q24 0 39.5 -18t10.5 -47
q-5 -22 -19.5 -36t-37.5 -14z" />
    <glyph glyph-name="uni1E36" unicode="&#x1e36;" horiz-adv-x="560" 
d="M23 -3q1 13 2.5 25t6.5 23q29 3 44.5 12.5t23.5 31.5t14 62l69 395q7 33 3 49.5t-18.5 24t-40.5 11.5q-3 11 -3 23.5t1 24.5q29 -2 60.5 -2.5t65.5 -0.5q33 0 70 0.5t68 1.5q0 -13 -2 -25.5t-6 -21.5q-31 -4 -48.5 -13t-26 -29t-14.5 -57l-68 -391q-7 -39 -4.5 -58.5
t20 -26t53.5 -6.5h8q52 0 84.5 12.5t55.5 41.5t45 76q17 -3 29.5 -8.5t23.5 -16.5q-15 -31 -29 -72t-23 -86q-21 2 -55 2.5t-72.5 0.5h-75.5h-62t-69 -0.5t-68.5 -1t-61.5 -1.5zM222 -218q-29 0 -43.5 17t-10.5 47q6 29 25 47t46 18q24 0 41.5 -16t11.5 -51
q-4 -28 -22.5 -45t-47.5 -17z" />
    <glyph glyph-name="uni01C8" unicode="&#x1c8;" horiz-adv-x="805" 
d="M23 -3q1 13 2.5 25t6.5 23q29 3 44.5 12.5t23.5 31.5t14 62l69 395q7 33 3 49.5t-18.5 24t-40.5 11.5q-3 11 -3 23.5t1 24.5q29 -2 60.5 -2.5t65.5 -0.5q33 0 70 0.5t68 1.5q0 -13 -2 -25.5t-6 -21.5q-31 -4 -48.5 -13t-26 -29t-14.5 -57l-68 -391q-7 -39 -4.5 -58.5
t20 -26t53.5 -6.5h8q52 0 84.5 12.5t55.5 41.5t45 76q17 -3 29.5 -8.5t23.5 -16.5q-15 -31 -29 -72t-23 -86q-21 2 -55 2.5t-72.5 0.5h-75.5h-62t-69 -0.5t-68.5 -1t-61.5 -1.5zM462 -249q-17 15 -18 41q69 47 108.5 110t55.5 149l47 255q6 32 4.5 48t-15 22t-44.5 6
q-1 11 0.5 22.5t6.5 21.5q20 2 46 8t50.5 15.5t39.5 17.5q16 -9 24.5 -21t8.5 -38.5t-11 -79.5l-45 -246q-13 -66 -33 -116.5t-51.5 -90t-74 -70t-99.5 -54.5zM745 567q-28 0 -41 18t-8 46q6 30 26 47.5t48 17.5t42 -18t8 -49q-5 -28 -25.5 -45t-49.5 -17z" />
    <glyph glyph-name="uni1E3A" unicode="&#x1e3a;" horiz-adv-x="560" 
d="M23 -3q1 13 2.5 25t6.5 23q29 3 44.5 12.5t23.5 31.5t14 62l69 395q7 33 3 49.5t-18.5 24t-40.5 11.5q-3 11 -3 23.5t1 24.5q29 -2 60.5 -2.5t65.5 -0.5q33 0 70 0.5t68 1.5q0 -13 -2 -25.5t-6 -21.5q-31 -4 -48.5 -13t-26 -29t-14.5 -57l-68 -391q-7 -39 -4.5 -58.5
t20 -26t53.5 -6.5h8q52 0 84.5 12.5t55.5 41.5t45 76q17 -3 29.5 -8.5t23.5 -16.5q-15 -31 -29 -72t-23 -86q-21 2 -55 2.5t-72.5 0.5h-75.5h-62t-69 -0.5t-68.5 -1t-61.5 -1.5zM50 -176q0 7 2 23t7 26h351q0 -10 -2 -22t-7 -23q-98 0 -186 -1t-165 -3z" />
    <glyph glyph-name="Lslash" unicode="&#x141;" horiz-adv-x="560" 
d="M23 -3q1 13 2.5 25t6.5 23q29 3 44.5 12.5t23.5 31.5t14 62l69 395q7 33 3 49.5t-18.5 24t-40.5 11.5q-3 11 -3 23.5t1 24.5q29 -2 60.5 -2.5t65.5 -0.5q33 0 70 0.5t68 1.5q0 -13 -2 -25.5t-6 -21.5q-31 -4 -48.5 -13t-26 -29t-14.5 -57l-68 -391q-7 -39 -4.5 -58.5
t20 -26t53.5 -6.5h8q52 0 84.5 12.5t55.5 41.5t45 76q17 -3 29.5 -8.5t23.5 -16.5q-15 -31 -29 -72t-23 -86q-21 2 -55 2.5t-72.5 0.5h-75.5h-62t-69 -0.5t-68.5 -1t-61.5 -1.5zM81 208q-11 9 -18 21.5t-8 25.5l116 106l77 50l94 86q10 -6 17.5 -19t7.5 -26l-129 -120
l-82 -54z" />
    <glyph glyph-name="M" unicode="M" horiz-adv-x="897" 
d="M362 -9q-32 135 -69.5 271t-80.5 271h11q-13 -59 -28.5 -118.5t-29.5 -114t-27 -99.5q-16 -60 -18.5 -91t12 -44.5t47.5 -20.5q2 -11 2.5 -23.5t-0.5 -24.5q-29 2 -55.5 2.5t-47.5 0.5q-25 0 -49 -0.5t-57 -2.5q0 12 2 24.5t7 23.5q26 7 41.5 20.5t28.5 43.5t29 85
q17 59 33.5 115.5t31 114.5t27.5 117q8 36 6.5 54t-15 25.5t-40.5 10.5q-2 12 -2 24t1 24q16 -1 31 -2t29 -1h26q21 0 41 0.5t41 2.5q44 -141 82.5 -282t71.5 -281h-22q83 137 161 278t153 285q25 -2 42.5 -2.5t33.5 -0.5q17 0 38 0.5t42 2.5q0 -13 -1.5 -25t-6.5 -23
q-26 -4 -40.5 -14t-21.5 -32.5t-10 -63.5q-6 -100 -12 -188t-13 -164q-5 -49 -2 -74t15.5 -34.5t35.5 -15.5q2 -11 2.5 -23.5t-0.5 -24.5q-24 2 -59 2.5t-71 0.5q-37 0 -69 -0.5t-60 -2.5q0 12 2.5 24.5t6.5 23.5q33 5 50 16.5t24.5 36.5t11.5 70q8 85 15.5 177.5
t11.5 190.5h15q-72 -135 -149.5 -272t-157.5 -268q-12 -4 -23.5 -4.5t-23.5 -0.5z" />
    <glyph glyph-name="uni1E42" unicode="&#x1e42;" horiz-adv-x="897" 
d="M362 -9q-32 135 -69.5 271t-80.5 271h11q-13 -59 -28.5 -118.5t-29.5 -114t-27 -99.5q-16 -60 -18.5 -91t12 -44.5t47.5 -20.5q2 -11 2.5 -23.5t-0.5 -24.5q-29 2 -55.5 2.5t-47.5 0.5q-25 0 -49 -0.5t-57 -2.5q0 12 2 24.5t7 23.5q26 7 41.5 20.5t28.5 43.5t29 85
q17 59 33.5 115.5t31 114.5t27.5 117q8 36 6.5 54t-15 25.5t-40.5 10.5q-2 12 -2 24t1 24q16 -1 31 -2t29 -1h26q21 0 41 0.5t41 2.5q44 -141 82.5 -282t71.5 -281h-22q83 137 161 278t153 285q25 -2 42.5 -2.5t33.5 -0.5q17 0 38 0.5t42 2.5q0 -13 -1.5 -25t-6.5 -23
q-26 -4 -40.5 -14t-21.5 -32.5t-10 -63.5q-6 -100 -12 -188t-13 -164q-5 -49 -2 -74t15.5 -34.5t35.5 -15.5q2 -11 2.5 -23.5t-0.5 -24.5q-24 2 -59 2.5t-71 0.5q-37 0 -69 -0.5t-60 -2.5q0 12 2.5 24.5t6.5 23.5q33 5 50 16.5t24.5 36.5t11.5 70q8 85 15.5 177.5
t11.5 190.5h15q-72 -135 -149.5 -272t-157.5 -268q-12 -4 -23.5 -4.5t-23.5 -0.5zM342 -218q-29 0 -43.5 17t-10.5 47q6 29 25 47t46 18q24 0 41.5 -16t11.5 -51q-4 -28 -22.5 -45t-47.5 -17z" />
    <glyph glyph-name="N" unicode="N" horiz-adv-x="681" 
d="M29 45q26 5 43 17.5t28 40.5t19 76l76 432l54 -1l-73 -422q-9 -53 -8.5 -82t15.5 -41.5t47 -19.5q3 -11 3.5 -22.5t-1.5 -25.5q-31 2 -60.5 2.5t-50.5 0.5q-24 0 -45.5 -0.5t-54.5 -2.5q1 27 8 48zM125 679l34 -2t36 -1q22 0 42 1t35 2q73 -128 144.5 -264t136.5 -268
l-45 -156q-77 157 -156.5 306t-165.5 301q-10 20 -22 25.5t-37 7.5q-3 11 -3 23t1 25zM532 679q23 -2 49 -2.5t46 -0.5q24 0 52 0.5t50 2.5q-1 -11 -3 -24.5t-7 -23.5q-22 -7 -36 -21t-23 -43.5t-18 -82.5l-85 -487q-10 -4 -22.5 -5t-26.5 -1l15 123l65 379q9 52 7 80
t-17 40t-45 18q-2 11 -2.5 23t1.5 25z" />
    <glyph glyph-name="uni01CA" unicode="&#x1ca;" horiz-adv-x="953" 
d="M29 45q26 5 43 17.5t28 40.5t19 76l76 432l54 -1l-73 -422q-9 -53 -8.5 -82t15.5 -41.5t47 -19.5q3 -11 3.5 -22.5t-1.5 -25.5q-31 2 -60.5 2.5t-50.5 0.5q-24 0 -45.5 -0.5t-54.5 -2.5q1 27 8 48zM125 679l34 -2t36 -1q22 0 42 1t35 2q73 -128 144.5 -264t136.5 -268
l-45 -156q-77 157 -156.5 306t-165.5 301q-10 20 -22 25.5t-37 7.5q-3 11 -3 23t1 25zM532 679q23 -2 49 -2.5t46 -0.5q24 0 52 0.5t50 2.5q-1 -11 -3 -24.5t-7 -23.5q-22 -7 -36 -21t-23 -43.5t-18 -82.5l-85 -487q-10 -4 -22.5 -5t-26.5 -1l15 123l65 379q9 52 7 80
t-17 40t-45 18q-2 11 -2.5 23t1.5 25zM742 679q23 -2 57 -2.5t68 -0.5h49t41 1t43 2q-1 -28 -9 -48q-26 -4 -41.5 -12.5t-24 -28t-15.5 -56.5l-72 -413q-12 -70 -28 -124t-44 -97t-74.5 -79t-118.5 -70q-9 7 -12.5 18.5t-5.5 24.5q42 27 73.5 60.5t53 79.5t32.5 110l88 501
q5 31 3 48t-16 25.5t-45 12.5q-3 11 -3 23t1 25z" />
    <glyph glyph-name="Nacute" unicode="&#x143;" horiz-adv-x="681" 
d="M29 45q26 5 43 17.5t28 40.5t19 76l76 432l54 -1l-73 -422q-9 -53 -8.5 -82t15.5 -41.5t47 -19.5q3 -11 3.5 -22.5t-1.5 -25.5q-31 2 -60.5 2.5t-50.5 0.5q-24 0 -45.5 -0.5t-54.5 -2.5q1 27 8 48zM125 679l34 -2t36 -1q22 0 42 1t35 2q73 -128 144.5 -264t136.5 -268
l-45 -156q-77 157 -156.5 306t-165.5 301q-10 20 -22 25.5t-37 7.5q-3 11 -3 23t1 25zM532 679q23 -2 49 -2.5t46 -0.5q24 0 52 0.5t50 2.5q-1 -11 -3 -24.5t-7 -23.5q-22 -7 -36 -21t-23 -43.5t-18 -82.5l-85 -487q-10 -4 -22.5 -5t-26.5 -1l15 123l65 379q9 52 7 80
t-17 40t-45 18q-2 11 -2.5 23t1.5 25zM432 729q-13 2 -24.5 6.5t-21.5 12.5q20 24 36 48t28 45t19 35q11 2 21 3t21 1q21 0 39.5 -3.5t32.5 -10.5q-38 -32 -77.5 -67.5t-73.5 -69.5z" />
    <glyph glyph-name="Ncaron" unicode="&#x147;" horiz-adv-x="681" 
d="M29 45q26 5 43 17.5t28 40.5t19 76l76 432l54 -1l-73 -422q-9 -53 -8.5 -82t15.5 -41.5t47 -19.5q3 -11 3.5 -22.5t-1.5 -25.5q-31 2 -60.5 2.5t-50.5 0.5q-24 0 -45.5 -0.5t-54.5 -2.5q1 27 8 48zM125 679l34 -2t36 -1q22 0 42 1t35 2q73 -128 144.5 -264t136.5 -268
l-45 -156q-77 157 -156.5 306t-165.5 301q-10 20 -22 25.5t-37 7.5q-3 11 -3 23t1 25zM532 679q23 -2 49 -2.5t46 -0.5q24 0 52 0.5t50 2.5q-1 -11 -3 -24.5t-7 -23.5q-22 -7 -36 -21t-23 -43.5t-18 -82.5l-85 -487q-10 -4 -22.5 -5t-26.5 -1l15 123l65 379q9 52 7 80
t-17 40t-45 18q-2 11 -2.5 23t1.5 25zM417 732q-25 30 -57 62t-67 59q3 14 10 22.5t20 10.5q31 -18 66 -36t66 -32q41 15 74.5 31.5t61.5 33.5q10 -4 18.5 -12.5t13.5 -18.5q-39 -25 -82.5 -54.5t-81.5 -59.5q-22 -10 -42 -6z" />
    <glyph glyph-name="uni0145" unicode="&#x145;" horiz-adv-x="681" 
d="M29 45q26 5 43 17.5t28 40.5t19 76l76 432l54 -1l-73 -422q-9 -53 -8.5 -82t15.5 -41.5t47 -19.5q3 -11 3.5 -22.5t-1.5 -25.5q-31 2 -60.5 2.5t-50.5 0.5q-24 0 -45.5 -0.5t-54.5 -2.5q1 27 8 48zM125 679l34 -2t36 -1q22 0 42 1t35 2q73 -128 144.5 -264t136.5 -268
l-45 -156q-77 157 -156.5 306t-165.5 301q-10 20 -22 25.5t-37 7.5q-3 11 -3 23t1 25zM532 679q23 -2 49 -2.5t46 -0.5q24 0 52 0.5t50 2.5q-1 -11 -3 -24.5t-7 -23.5q-22 -7 -36 -21t-23 -43.5t-18 -82.5l-85 -487q-10 -4 -22.5 -5t-26.5 -1l15 123l65 379q9 52 7 80
t-17 40t-45 18q-2 11 -2.5 23t1.5 25zM248 -285q-22 7 -28 25q26 22 42 44.5t19 40.5q2 16 -6.5 25.5t-29.5 11.5q-2 37 19 66q26 4 49.5 11.5t43.5 18.5q18 -7 24.5 -25t1.5 -45q-10 -54 -48.5 -97.5t-86.5 -75.5z" />
    <glyph glyph-name="uni1E44" unicode="&#x1e44;" horiz-adv-x="681" 
d="M29 45q26 5 43 17.5t28 40.5t19 76l76 432l54 -1l-73 -422q-9 -53 -8.5 -82t15.5 -41.5t47 -19.5q3 -11 3.5 -22.5t-1.5 -25.5q-31 2 -60.5 2.5t-50.5 0.5q-24 0 -45.5 -0.5t-54.5 -2.5q1 27 8 48zM125 679l34 -2t36 -1q22 0 42 1t35 2q73 -128 144.5 -264t136.5 -268
l-45 -156q-77 157 -156.5 306t-165.5 301q-10 20 -22 25.5t-37 7.5q-3 11 -3 23t1 25zM532 679q23 -2 49 -2.5t46 -0.5q24 0 52 0.5t50 2.5q-1 -11 -3 -24.5t-7 -23.5q-22 -7 -36 -21t-23 -43.5t-18 -82.5l-85 -487q-10 -4 -22.5 -5t-26.5 -1l15 123l65 379q9 52 7 80
t-17 40t-45 18q-2 11 -2.5 23t1.5 25zM441 720q-28 0 -42 17t-10 45q5 28 25 43.5t47 15.5q28 0 43 -17.5t9 -46.5q-4 -27 -23.5 -42t-48.5 -15z" />
    <glyph glyph-name="uni1E46" unicode="&#x1e46;" horiz-adv-x="681" 
d="M29 45q26 5 43 17.5t28 40.5t19 76l76 432l54 -1l-73 -422q-9 -53 -8.5 -82t15.5 -41.5t47 -19.5q3 -11 3.5 -22.5t-1.5 -25.5q-31 2 -60.5 2.5t-50.5 0.5q-24 0 -45.5 -0.5t-54.5 -2.5q1 27 8 48zM125 679l34 -2t36 -1q22 0 42 1t35 2q73 -128 144.5 -264t136.5 -268
l-45 -156q-77 157 -156.5 306t-165.5 301q-10 20 -22 25.5t-37 7.5q-3 11 -3 23t1 25zM532 679q23 -2 49 -2.5t46 -0.5q24 0 52 0.5t50 2.5q-1 -11 -3 -24.5t-7 -23.5q-22 -7 -36 -21t-23 -43.5t-18 -82.5l-85 -487q-10 -4 -22.5 -5t-26.5 -1l15 123l65 379q9 52 7 80
t-17 40t-45 18q-2 11 -2.5 23t1.5 25zM302 -218q-29 0 -43.5 17t-10.5 47q6 29 25 47t46 18q24 0 41.5 -16t11.5 -51q-4 -28 -22.5 -45t-47.5 -17z" />
    <glyph glyph-name="Eng" unicode="&#x14a;" horiz-adv-x="645" 
d="M306 -249q-27 0 -47 10.5t-32 25.5q0 20 4.5 38t12.5 35q11 -4 23 -6.5t22.5 -3.5t17.5 -1q49 0 74.5 20t39.5 60.5t27 101.5l78 371q22 102 12 145t-47 43q-33 0 -73 -28.5t-79 -81t-69.5 -122.5t-44.5 -153l-16 133l55 116q16 34 47 73t69 74.5t79.5 58t78.5 22.5
q22 0 47.5 -11t45 -40.5t24.5 -84.5t-14 -142l-78 -343q-12 -54 -36 -108.5t-57.5 -100t-75 -73.5t-88.5 -28zM73 0l92 491q10 49 10 71t-14 27.5t-48 5.5q0 13 1.5 24.5t5.5 20.5q20 2 49.5 9t59 17t46.5 18q18 -8 23 -25t0 -52q-7 -45 -18.5 -87t-23 -72.5t-15.5 -41.5
l-16 -201l-40 -205h-112z" />
    <glyph glyph-name="uni019D" unicode="&#x19d;" horiz-adv-x="736" 
d="M538 -9l-346 609q-9 17 -21 22.5t-38 8.5q-1 11 0.5 24.5t3.5 23.5q10 -1 24.5 -1.5t30 -1t28.5 -0.5q20 0 40 1t34 2l284 -509zM-97 -249q-30 0 -48 9.5t-26 18.5q-1 16 4.5 39.5t13.5 38.5q17 -3 34.5 -5.5t32.5 -2.5q68 0 112 46t63 147l111 569l55 -1l-110 -562
q-15 -82 -49.5 -149.5t-83.5 -107.5t-109 -40zM538 -9l17 116l74 381q11 56 10.5 86t-13.5 43t-41 14q0 17 1 27.5t2 20.5q15 -1 32.5 -1.5t35.5 -1t32 -0.5q22 0 49.5 1t47.5 2q-2 -12 -5.5 -24t-9.5 -24q-22 -1 -37.5 -13.5t-26.5 -43t-22 -86.5l-96 -491q-11 -4 -23.5 -5
t-26.5 -1z" />
    <glyph glyph-name="uni01CB" unicode="&#x1cb;" horiz-adv-x="926" 
d="M29 45q26 5 43 17.5t28 40.5t19 76l76 432l54 -1l-73 -422q-9 -53 -8.5 -82t15.5 -41.5t47 -19.5q3 -11 3.5 -22.5t-1.5 -25.5q-31 2 -60.5 2.5t-50.5 0.5q-24 0 -45.5 -0.5t-54.5 -2.5q1 27 8 48zM125 679l34 -2t36 -1q22 0 42 1t35 2q73 -128 144.5 -264t136.5 -268
l-45 -156q-77 157 -156.5 306t-165.5 301q-10 20 -22 25.5t-37 7.5q-3 11 -3 23t1 25zM532 679q23 -2 49 -2.5t46 -0.5q24 0 52 0.5t50 2.5q-1 -11 -3 -24.5t-7 -23.5q-22 -7 -36 -21t-23 -43.5t-18 -82.5l-85 -487q-10 -4 -22.5 -5t-26.5 -1l15 123l65 379q9 52 7 80
t-17 40t-45 18q-2 11 -2.5 23t1.5 25zM583 -249q-17 15 -18 41q69 47 108.5 110t55.5 149l47 255q6 32 4.5 48t-15 22t-44.5 6q-1 11 0.5 22.5t6.5 21.5q20 2 46 8t50.5 15.5t39.5 17.5q16 -9 24.5 -21t8.5 -38.5t-11 -79.5l-45 -246q-13 -66 -33 -116.5t-51.5 -90t-74 -70
t-99.5 -54.5zM866 567q-28 0 -41 18t-8 46q6 30 26 47.5t48 17.5t42 -18t8 -49q-5 -28 -25.5 -45t-49.5 -17z" />
    <glyph glyph-name="uni1E48" unicode="&#x1e48;" horiz-adv-x="681" 
d="M29 45q26 5 43 17.5t28 40.5t19 76l76 432l54 -1l-73 -422q-9 -53 -8.5 -82t15.5 -41.5t47 -19.5q3 -11 3.5 -22.5t-1.5 -25.5q-31 2 -60.5 2.5t-50.5 0.5q-24 0 -45.5 -0.5t-54.5 -2.5q1 27 8 48zM125 679l34 -2t36 -1q22 0 42 1t35 2q73 -128 144.5 -264t136.5 -268
l-45 -156q-77 157 -156.5 306t-165.5 301q-10 20 -22 25.5t-37 7.5q-3 11 -3 23t1 25zM532 679q23 -2 49 -2.5t46 -0.5q24 0 52 0.5t50 2.5q-1 -11 -3 -24.5t-7 -23.5q-22 -7 -36 -21t-23 -43.5t-18 -82.5l-85 -487q-10 -4 -22.5 -5t-26.5 -1l15 123l65 379q9 52 7 80
t-17 40t-45 18q-2 11 -2.5 23t1.5 25zM131 -176q0 7 2 23t7 26h351q0 -10 -2 -22t-7 -23q-98 0 -186 -1t-165 -3z" />
    <glyph glyph-name="Ntilde" unicode="&#xd1;" horiz-adv-x="681" 
d="M29 45q26 5 43 17.5t28 40.5t19 76l76 432l54 -1l-73 -422q-9 -53 -8.5 -82t15.5 -41.5t47 -19.5q3 -11 3.5 -22.5t-1.5 -25.5q-31 2 -60.5 2.5t-50.5 0.5q-24 0 -45.5 -0.5t-54.5 -2.5q1 27 8 48zM125 679l34 -2t36 -1q22 0 42 1t35 2q73 -128 144.5 -264t136.5 -268
l-45 -156q-77 157 -156.5 306t-165.5 301q-10 20 -22 25.5t-37 7.5q-3 11 -3 23t1 25zM532 679q23 -2 49 -2.5t46 -0.5q24 0 52 0.5t50 2.5q-1 -11 -3 -24.5t-7 -23.5q-22 -7 -36 -21t-23 -43.5t-18 -82.5l-85 -487q-10 -4 -22.5 -5t-26.5 -1l15 123l65 379q9 52 7 80
t-17 40t-45 18q-2 11 -2.5 23t1.5 25zM504 746q-21 0 -37 6t-30.5 13t-29.5 12.5t-32 5.5q-21 0 -41 -10t-39 -24q-7 9 -9.5 20t-1.5 26q35 35 67 46.5t58 11.5q28 0 48.5 -9t39 -17.5t38.5 -8.5q18 0 33.5 8.5t29.5 21.5q9 -4 17.5 -10t13.5 -17q-31 -40 -62.5 -57.5
t-62.5 -17.5z" />
    <glyph glyph-name="O" unicode="O" horiz-adv-x="741" 
d="M346 -9q-102 0 -172.5 48t-100 134t-7.5 198q12 68 45.5 125t83 99.5t111 66t131.5 23.5q99 0 170.5 -44.5t103 -130t7.5 -208.5q-17 -87 -68 -157.5t-129 -112t-175 -41.5zM362 40q63 0 111.5 34.5t81 93.5t45.5 135q18 98 -1 172.5t-65.5 117.5t-113.5 43
q-58 0 -106 -34.5t-81 -93t-47 -130.5q-13 -69 -8 -130t27 -107.5t62 -73.5t95 -27z" />
    <glyph glyph-name="Oacute" unicode="&#xd3;" horiz-adv-x="741" 
d="M346 -9q-102 0 -172.5 48t-100 134t-7.5 198q12 68 45.5 125t83 99.5t111 66t131.5 23.5q99 0 170.5 -44.5t103 -130t7.5 -208.5q-17 -87 -68 -157.5t-129 -112t-175 -41.5zM362 40q63 0 111.5 34.5t81 93.5t45.5 135q18 98 -1 172.5t-65.5 117.5t-113.5 43
q-58 0 -106 -34.5t-81 -93t-47 -130.5q-13 -69 -8 -130t27 -107.5t62 -73.5t95 -27zM444 729q-13 2 -24.5 6.5t-21.5 12.5q20 24 36 48t28 45t19 35q11 2 21 3t21 1q21 0 39.5 -3.5t32.5 -10.5q-38 -32 -77.5 -67.5t-73.5 -69.5z" />
    <glyph glyph-name="Obreve" unicode="&#x14e;" horiz-adv-x="741" 
d="M346 -9q-102 0 -172.5 48t-100 134t-7.5 198q12 68 45.5 125t83 99.5t111 66t131.5 23.5q99 0 170.5 -44.5t103 -130t7.5 -208.5q-17 -87 -68 -157.5t-129 -112t-175 -41.5zM362 40q63 0 111.5 34.5t81 93.5t45.5 135q18 98 -1 172.5t-65.5 117.5t-113.5 43
q-58 0 -106 -34.5t-81 -93t-47 -130.5q-13 -69 -8 -130t27 -107.5t62 -73.5t95 -27zM442 728q-80 0 -116.5 35.5t-23.5 103.5q12 5 26.5 7.5t26.5 1.5q0 -36 29 -56.5t80 -20.5t86.5 20.5t45.5 56.5q13 2 24.5 0t17.5 -5q-13 -69 -63.5 -106t-132.5 -37z" />
    <glyph glyph-name="uni01D1" unicode="&#x1d1;" horiz-adv-x="741" 
d="M346 -9q-102 0 -172.5 48t-100 134t-7.5 198q12 68 45.5 125t83 99.5t111 66t131.5 23.5q99 0 170.5 -44.5t103 -130t7.5 -208.5q-17 -87 -68 -157.5t-129 -112t-175 -41.5zM362 40q63 0 111.5 34.5t81 93.5t45.5 135q18 98 -1 172.5t-65.5 117.5t-113.5 43
q-58 0 -106 -34.5t-81 -93t-47 -130.5q-13 -69 -8 -130t27 -107.5t62 -73.5t95 -27zM429 732q-25 30 -57 62t-67 59q3 14 10 22.5t20 10.5q31 -18 66 -36t66 -32q41 15 74.5 31.5t61.5 33.5q10 -4 18.5 -12.5t13.5 -18.5q-39 -25 -82.5 -54.5t-81.5 -59.5q-22 -10 -42 -6z
" />
    <glyph glyph-name="Ocircumflex" unicode="&#xd4;" horiz-adv-x="741" 
d="M346 -9q-102 0 -172.5 48t-100 134t-7.5 198q12 68 45.5 125t83 99.5t111 66t131.5 23.5q99 0 170.5 -44.5t103 -130t7.5 -208.5q-17 -87 -68 -157.5t-129 -112t-175 -41.5zM362 40q63 0 111.5 34.5t81 93.5t45.5 135q18 98 -1 172.5t-65.5 117.5t-113.5 43
q-58 0 -106 -34.5t-81 -93t-47 -130.5q-13 -69 -8 -130t27 -107.5t62 -73.5t95 -27zM331 728q-9 8 -14 21t-5 24q28 16 55 33.5t52.5 36.5t48.5 37q13 2 24 0.5t22 -6.5q25 -28 53 -57t59 -60q-5 -10 -15.5 -16.5t-23.5 -7.5q-28 18 -58.5 34t-62.5 28q-23 -8 -46.5 -19.5
t-45.5 -23.5t-43 -24z" />
    <glyph glyph-name="uni1ED0" unicode="&#x1ed0;" horiz-adv-x="741" 
d="M346 -9q-102 0 -172.5 48t-100 134t-7.5 198q12 68 45.5 125t83 99.5t111 66t131.5 23.5q99 0 170.5 -44.5t103 -130t7.5 -208.5q-17 -87 -68 -157.5t-129 -112t-175 -41.5zM362 40q63 0 111.5 34.5t81 93.5t45.5 135q18 98 -1 172.5t-65.5 117.5t-113.5 43
q-58 0 -106 -34.5t-81 -93t-47 -130.5q-13 -69 -8 -130t27 -107.5t62 -73.5t95 -27zM331 728q-9 8 -14 21t-5 24q28 16 55 33.5t52.5 36.5t48.5 37q13 2 24 0.5t22 -6.5q25 -28 53 -57t59 -60q-5 -10 -15.5 -16.5t-23.5 -7.5q-28 18 -58.5 34t-62.5 28q-23 -8 -46.5 -19.5
t-45.5 -23.5t-43 -24zM616.104 853.118q-11.7002 1.7998 -22.0508 5.84961t-19.3506 11.251q18.001 21.5996 32.4014 43.2012q14.4004 21.5996 25.2002 40.501q10.8008 18.9004 17.1006 31.501q9.90039 1.7998 18.9004 2.69922q9 0.900391 18.9004 0.900391
q18.9004 0 35.5508 -3.15039q16.6514 -3.14941 29.251 -9.4502q-34.2012 -28.8008 -69.752 -60.751q-35.5508 -31.9512 -66.1514 -62.5518z" />
    <glyph glyph-name="uni1ED8" unicode="&#x1ed8;" horiz-adv-x="741" 
d="M346 -9q-102 0 -172.5 48t-100 134t-7.5 198q12 68 45.5 125t83 99.5t111 66t131.5 23.5q99 0 170.5 -44.5t103 -130t7.5 -208.5q-17 -87 -68 -157.5t-129 -112t-175 -41.5zM362 40q63 0 111.5 34.5t81 93.5t45.5 135q18 98 -1 172.5t-65.5 117.5t-113.5 43
q-58 0 -106 -34.5t-81 -93t-47 -130.5q-13 -69 -8 -130t27 -107.5t62 -73.5t95 -27zM309 -218q-29 0 -43.5 17t-10.5 47q6 29 25 47t46 18q24 0 41.5 -16t11.5 -51q-4 -28 -22.5 -45t-47.5 -17zM331 728q-9 8 -14 21t-5 24q28 16 55 33.5t52.5 36.5t48.5 37q13 2 24 0.5
t22 -6.5q25 -28 53 -57t59 -60q-5 -10 -15.5 -16.5t-23.5 -7.5q-28 18 -58.5 34t-62.5 28q-23 -8 -46.5 -19.5t-45.5 -23.5t-43 -24z" />
    <glyph glyph-name="uni1ED2" unicode="&#x1ed2;" horiz-adv-x="741" 
d="M346 -9q-102 0 -172.5 48t-100 134t-7.5 198q12 68 45.5 125t83 99.5t111 66t131.5 23.5q99 0 170.5 -44.5t103 -130t7.5 -208.5q-17 -87 -68 -157.5t-129 -112t-175 -41.5zM362 40q63 0 111.5 34.5t81 93.5t45.5 135q18 98 -1 172.5t-65.5 117.5t-113.5 43
q-58 0 -106 -34.5t-81 -93t-47 -130.5q-13 -69 -8 -130t27 -107.5t62 -73.5t95 -27zM331 728q-9 8 -14 21t-5 24q28 16 55 33.5t52.5 36.5t48.5 37q13 2 24 0.5t22 -6.5q25 -28 53 -57t59 -60q-5 -10 -15.5 -16.5t-23.5 -7.5q-28 18 -58.5 34t-62.5 28q-23 -8 -46.5 -19.5
t-45.5 -23.5t-43 -24zM649 852q-10 -4 -27 -4t-28 4q-11 19 -27 41t-34.5 44t-36.5 40q23 8 50.5 9.5t53.5 -4.5q8 -31 20 -64.5t29 -65.5z" />
    <glyph glyph-name="uni1ED4" unicode="&#x1ed4;" horiz-adv-x="741" 
d="M346 -9q-102 0 -172.5 48t-100 134t-7.5 198q12 68 45.5 125t83 99.5t111 66t131.5 23.5q99 0 170.5 -44.5t103 -130t7.5 -208.5q-17 -87 -68 -157.5t-129 -112t-175 -41.5zM362 40q63 0 111.5 34.5t81 93.5t45.5 135q18 98 -1 172.5t-65.5 117.5t-113.5 43
q-58 0 -106 -34.5t-81 -93t-47 -130.5q-13 -69 -8 -130t27 -107.5t62 -73.5t95 -27zM331 728q-9 8 -14 21t-5 24q28 16 55 33.5t52.5 36.5t48.5 37q13 2 24 0.5t22 -6.5q25 -28 53 -57t59 -60q-5 -10 -15.5 -16.5t-23.5 -7.5q-28 18 -58.5 34t-62.5 28q-23 -8 -46.5 -19.5
t-45.5 -23.5t-43 -24zM584 869q-3 8 -4.5 17t0.5 17q5 20 21 29t32 17t21 22q4 11 -2.5 16t-18.5 5q-18 0 -33 -13.5t-25 -45.5q-15 3 -28 6.5t-22 10.5q5 16 8.5 27t2.5 27q19 10 46 18t61 8q49 0 70.5 -17.5t13.5 -45.5q-5 -19 -18.5 -30t-29 -19t-28.5 -15.5t-16 -19.5
q-1 -4 -2 -6.5t0 -9.5q-11 -1 -24.5 -1t-24.5 3z" />
    <glyph glyph-name="uni1ED6" unicode="&#x1ed6;" horiz-adv-x="741" 
d="M346 -9q-102 0 -172.5 48t-100 134t-7.5 198q12 68 45.5 125t83 99.5t111 66t131.5 23.5q99 0 170.5 -44.5t103 -130t7.5 -208.5q-17 -87 -68 -157.5t-129 -112t-175 -41.5zM362 40q63 0 111.5 34.5t81 93.5t45.5 135q18 98 -1 172.5t-65.5 117.5t-113.5 43
q-58 0 -106 -34.5t-81 -93t-47 -130.5q-13 -69 -8 -130t27 -107.5t62 -73.5t95 -27zM331 728q-9 8 -14 21t-5 24q28 16 55 33.5t52.5 36.5t48.5 37q13 2 24 0.5t22 -6.5q25 -28 53 -57t59 -60q-5 -10 -15.5 -16.5t-23.5 -7.5q-28 18 -58.5 34t-62.5 28q-23 -8 -46.5 -19.5
t-45.5 -23.5t-43 -24zM555 931q-21 0 -37 6t-30.5 13t-29.5 12.5t-32 5.5q-21 0 -41 -10t-39 -24q-7 9 -9.5 20t-1.5 26q35 35 67 46.5t58 11.5q28 0 48.5 -9t39 -17.5t38.5 -8.5q18 0 33.5 8.5t29.5 21.5q9 -4 17.5 -10t13.5 -17q-31 -40 -62.5 -57.5t-62.5 -17.5z" />
    <glyph glyph-name="uni020C" unicode="&#x20c;" horiz-adv-x="741" 
d="M346 -9q-102 0 -172.5 48t-100 134t-7.5 198q12 68 45.5 125t83 99.5t111 66t131.5 23.5q99 0 170.5 -44.5t103 -130t7.5 -208.5q-17 -87 -68 -157.5t-129 -112t-175 -41.5zM362 40q63 0 111.5 34.5t81 93.5t45.5 135q18 98 -1 172.5t-65.5 117.5t-113.5 43
q-58 0 -106 -34.5t-81 -93t-47 -130.5q-13 -69 -8 -130t27 -107.5t62 -73.5t95 -27zM380 725q-23 38 -44 68.5t-45 58.5q20 9 46.5 9.5t50.5 -4.5q8 -30 17 -64.5t23 -70.5q-11 -1 -22 0t-26 3zM538 725q-23 38 -44 68.5t-44 59.5q20 8 46 8.5t50 -4.5q8 -30 17 -64.5
t23 -70.5q-11 -1 -22 0t-26 3z" />
    <glyph glyph-name="Odieresis" unicode="&#xd6;" horiz-adv-x="741" 
d="M346 -9q-102 0 -172.5 48t-100 134t-7.5 198q12 68 45.5 125t83 99.5t111 66t131.5 23.5q99 0 170.5 -44.5t103 -130t7.5 -208.5q-17 -87 -68 -157.5t-129 -112t-175 -41.5zM362 40q63 0 111.5 34.5t81 93.5t45.5 135q18 98 -1 172.5t-65.5 117.5t-113.5 43
q-58 0 -106 -34.5t-81 -93t-47 -130.5q-13 -69 -8 -130t27 -107.5t62 -73.5t95 -27zM359 730q-28 0 -41.5 19.5t-8.5 50.5q3 23 18.5 35.5t40.5 12.5q29 0 43.5 -18t7.5 -48q-12 -52 -60 -52zM561 731q-28 0 -42 18t-10 47q8 52 63 52q27 0 41 -17t9 -46q-8 -54 -61 -54z
" />
    <glyph glyph-name="uni022A" unicode="&#x22a;" horiz-adv-x="741" 
d="M346 -9q-102 0 -172.5 48t-100 134t-7.5 198q12 68 45.5 125t83 99.5t111 66t131.5 23.5q99 0 170.5 -44.5t103 -130t7.5 -208.5q-17 -87 -68 -157.5t-129 -112t-175 -41.5zM362 40q63 0 111.5 34.5t81 93.5t45.5 135q18 98 -1 172.5t-65.5 117.5t-113.5 43
q-58 0 -106 -34.5t-81 -93t-47 -130.5q-13 -69 -8 -130t27 -107.5t62 -73.5t95 -27zM359 730q-28 0 -41.5 19.5t-8.5 50.5q3 23 18.5 35.5t40.5 12.5q29 0 43.5 -18t7.5 -48q-12 -52 -60 -52zM561 731q-28 0 -42 18t-10 47q8 52 63 52q27 0 41 -17t9 -46q-8 -54 -61 -54z
M310 916q0 8 2 24t7 25h351q0 -10 -2 -21.5t-7 -23.5q-98 0 -186 -0.5t-165 -3.5z" />
    <glyph glyph-name="uni0230" unicode="&#x230;" horiz-adv-x="741" 
d="M346 -9q-102 0 -172.5 48t-100 134t-7.5 198q12 68 45.5 125t83 99.5t111 66t131.5 23.5q99 0 170.5 -44.5t103 -130t7.5 -208.5q-17 -87 -68 -157.5t-129 -112t-175 -41.5zM362 40q63 0 111.5 34.5t81 93.5t45.5 135q18 98 -1 172.5t-65.5 117.5t-113.5 43
q-58 0 -106 -34.5t-81 -93t-47 -130.5q-13 -69 -8 -130t27 -107.5t62 -73.5t95 -27zM454 720q-28 0 -42 17t-10 45q5 28 25 43.5t47 15.5q28 0 43 -17.5t9 -46.5q-4 -27 -23.5 -42t-48.5 -15zM316 888q0 8 2 24t7 25h351q0 -10 -2 -21.5t-7 -23.5q-98 0 -186 -0.5t-165 -3.5
z" />
    <glyph glyph-name="uni1ECC" unicode="&#x1ecc;" horiz-adv-x="741" 
d="M346 -9q-102 0 -172.5 48t-100 134t-7.5 198q12 68 45.5 125t83 99.5t111 66t131.5 23.5q99 0 170.5 -44.5t103 -130t7.5 -208.5q-17 -87 -68 -157.5t-129 -112t-175 -41.5zM362 40q63 0 111.5 34.5t81 93.5t45.5 135q18 98 -1 172.5t-65.5 117.5t-113.5 43
q-58 0 -106 -34.5t-81 -93t-47 -130.5q-13 -69 -8 -130t27 -107.5t62 -73.5t95 -27zM309 -218q-29 0 -43.5 17t-10.5 47q6 29 25 47t46 18q24 0 41.5 -16t11.5 -51q-4 -28 -22.5 -45t-47.5 -17z" />
    <glyph glyph-name="Ograve" unicode="&#xd2;" horiz-adv-x="741" 
d="M346 -9q-102 0 -172.5 48t-100 134t-7.5 198q12 68 45.5 125t83 99.5t111 66t131.5 23.5q99 0 170.5 -44.5t103 -130t7.5 -208.5q-17 -87 -68 -157.5t-129 -112t-175 -41.5zM362 40q63 0 111.5 34.5t81 93.5t45.5 135q18 98 -1 172.5t-65.5 117.5t-113.5 43
q-58 0 -106 -34.5t-81 -93t-47 -130.5q-13 -69 -8 -130t27 -107.5t62 -73.5t95 -27zM496 740q-10 -4 -27 -4t-28 4q-11 19 -27 41t-34.5 44t-36.5 40q23 8 50.5 9.5t53.5 -4.5q8 -31 20 -64.5t29 -65.5z" />
    <glyph glyph-name="uni1ECE" unicode="&#x1ece;" horiz-adv-x="741" 
d="M346 -9q-102 0 -172.5 48t-100 134t-7.5 198q12 68 45.5 125t83 99.5t111 66t131.5 23.5q99 0 170.5 -44.5t103 -130t7.5 -208.5q-17 -87 -68 -157.5t-129 -112t-175 -41.5zM362 40q63 0 111.5 34.5t81 93.5t45.5 135q18 98 -1 172.5t-65.5 117.5t-113.5 43
q-58 0 -106 -34.5t-81 -93t-47 -130.5q-13 -69 -8 -130t27 -107.5t62 -73.5t95 -27zM427 731q-3 8 -4.5 17t0.5 17q5 20 21 29t32 17t21 22q4 11 -2.5 16t-18.5 5q-18 0 -33 -13.5t-25 -45.5q-15 3 -28 6.5t-22 10.5q5 16 8.5 27t2.5 27q19 10 46 18t61 8q49 0 70.5 -17.5
t13.5 -45.5q-5 -19 -18.5 -30t-29 -19t-28.5 -15.5t-16 -19.5q-1 -4 -2 -6.5t0 -9.5q-11 -1 -24.5 -1t-24.5 3z" />
    <glyph glyph-name="Ohorn" unicode="&#x1a0;" horiz-adv-x="741" 
d="M346 -9q-102 0 -172.5 48t-100 134t-7.5 198q12 68 45.5 125t83 99.5t111 66t131.5 23.5q99 0 170.5 -44.5t103 -130t7.5 -208.5q-17 -87 -68 -157.5t-129 -112t-175 -41.5zM362 40q63 0 111.5 34.5t81 93.5t45.5 135q18 98 -1 172.5t-65.5 117.5t-113.5 43
q-58 0 -106 -34.5t-81 -93t-47 -130.5q-13 -69 -8 -130t27 -107.5t62 -73.5t95 -27zM604 627l-164 58q43 0 75.5 -6.5t68.5 -6.5q39 0 57 12t25 42q3 15 2.5 29t-3.5 31q14 6 33.5 9.5t34.5 0.5q10 -15 15 -35.5t0 -42.5q-9 -45 -50 -68t-94 -23z" />
    <glyph glyph-name="uni1EDA" unicode="&#x1eda;" horiz-adv-x="741" 
d="M346 -9q-102 0 -172.5 48t-100 134t-7.5 198q12 68 45.5 125t83 99.5t111 66t131.5 23.5q99 0 170.5 -44.5t103 -130t7.5 -208.5q-17 -87 -68 -157.5t-129 -112t-175 -41.5zM362 40q63 0 111.5 34.5t81 93.5t45.5 135q18 98 -1 172.5t-65.5 117.5t-113.5 43
q-58 0 -106 -34.5t-81 -93t-47 -130.5q-13 -69 -8 -130t27 -107.5t62 -73.5t95 -27zM604 627l-164 58q43 0 75.5 -6.5t68.5 -6.5q39 0 57 12t25 42q3 15 2.5 29t-3.5 31q14 6 33.5 9.5t34.5 0.5q10 -15 15 -35.5t0 -42.5q-9 -45 -50 -68t-94 -23zM444 729q-13 2 -24.5 6.5
t-21.5 12.5q20 24 36 48t28 45t19 35q11 2 21 3t21 1q21 0 39.5 -3.5t32.5 -10.5q-38 -32 -77.5 -67.5t-73.5 -69.5z" />
    <glyph glyph-name="uni1EE2" unicode="&#x1ee2;" horiz-adv-x="741" 
d="M346 -9q-102 0 -172.5 48t-100 134t-7.5 198q12 68 45.5 125t83 99.5t111 66t131.5 23.5q99 0 170.5 -44.5t103 -130t7.5 -208.5q-17 -87 -68 -157.5t-129 -112t-175 -41.5zM362 40q63 0 111.5 34.5t81 93.5t45.5 135q18 98 -1 172.5t-65.5 117.5t-113.5 43
q-58 0 -106 -34.5t-81 -93t-47 -130.5q-13 -69 -8 -130t27 -107.5t62 -73.5t95 -27zM604 627l-164 58q43 0 75.5 -6.5t68.5 -6.5q39 0 57 12t25 42q3 15 2.5 29t-3.5 31q14 6 33.5 9.5t34.5 0.5q10 -15 15 -35.5t0 -42.5q-9 -45 -50 -68t-94 -23zM309 -218q-29 0 -43.5 17
t-10.5 47q6 29 25 47t46 18q24 0 41.5 -16t11.5 -51q-4 -28 -22.5 -45t-47.5 -17z" />
    <glyph glyph-name="uni1EDC" unicode="&#x1edc;" horiz-adv-x="741" 
d="M346 -9q-102 0 -172.5 48t-100 134t-7.5 198q12 68 45.5 125t83 99.5t111 66t131.5 23.5q99 0 170.5 -44.5t103 -130t7.5 -208.5q-17 -87 -68 -157.5t-129 -112t-175 -41.5zM362 40q63 0 111.5 34.5t81 93.5t45.5 135q18 98 -1 172.5t-65.5 117.5t-113.5 43
q-58 0 -106 -34.5t-81 -93t-47 -130.5q-13 -69 -8 -130t27 -107.5t62 -73.5t95 -27zM604 627l-164 58q43 0 75.5 -6.5t68.5 -6.5q39 0 57 12t25 42q3 15 2.5 29t-3.5 31q14 6 33.5 9.5t34.5 0.5q10 -15 15 -35.5t0 -42.5q-9 -45 -50 -68t-94 -23zM496 740q-10 -4 -27 -4
t-28 4q-11 19 -27 41t-34.5 44t-36.5 40q23 8 50.5 9.5t53.5 -4.5q8 -31 20 -64.5t29 -65.5z" />
    <glyph glyph-name="uni1EDE" unicode="&#x1ede;" horiz-adv-x="741" 
d="M346 -9q-102 0 -172.5 48t-100 134t-7.5 198q12 68 45.5 125t83 99.5t111 66t131.5 23.5q99 0 170.5 -44.5t103 -130t7.5 -208.5q-17 -87 -68 -157.5t-129 -112t-175 -41.5zM362 40q63 0 111.5 34.5t81 93.5t45.5 135q18 98 -1 172.5t-65.5 117.5t-113.5 43
q-58 0 -106 -34.5t-81 -93t-47 -130.5q-13 -69 -8 -130t27 -107.5t62 -73.5t95 -27zM604 627l-164 58q43 0 75.5 -6.5t68.5 -6.5q39 0 57 12t25 42q3 15 2.5 29t-3.5 31q14 6 33.5 9.5t34.5 0.5q10 -15 15 -35.5t0 -42.5q-9 -45 -50 -68t-94 -23zM427 731q-3 8 -4.5 17
t0.5 17q5 20 21 29t32 17t21 22q4 11 -2.5 16t-18.5 5q-18 0 -33 -13.5t-25 -45.5q-15 3 -28 6.5t-22 10.5q5 16 8.5 27t2.5 27q19 10 46 18t61 8q49 0 70.5 -17.5t13.5 -45.5q-5 -19 -18.5 -30t-29 -19t-28.5 -15.5t-16 -19.5q-1 -4 -2 -6.5t0 -9.5q-11 -1 -24.5 -1
t-24.5 3z" />
    <glyph glyph-name="uni1EE0" unicode="&#x1ee0;" horiz-adv-x="741" 
d="M346 -9q-102 0 -172.5 48t-100 134t-7.5 198q12 68 45.5 125t83 99.5t111 66t131.5 23.5q99 0 170.5 -44.5t103 -130t7.5 -208.5q-17 -87 -68 -157.5t-129 -112t-175 -41.5zM362 40q63 0 111.5 34.5t81 93.5t45.5 135q18 98 -1 172.5t-65.5 117.5t-113.5 43
q-58 0 -106 -34.5t-81 -93t-47 -130.5q-13 -69 -8 -130t27 -107.5t62 -73.5t95 -27zM604 627l-164 58q43 0 75.5 -6.5t68.5 -6.5q39 0 57 12t25 42q3 15 2.5 29t-3.5 31q14 6 33.5 9.5t34.5 0.5q10 -15 15 -35.5t0 -42.5q-9 -45 -50 -68t-94 -23zM517 746q-21 0 -37 6
t-30.5 13t-29.5 12.5t-32 5.5q-21 0 -41 -10t-39 -24q-7 9 -9.5 20t-1.5 26q35 35 67 46.5t58 11.5q28 0 48.5 -9t39 -17.5t38.5 -8.5q18 0 33.5 8.5t29.5 21.5q9 -4 17.5 -10t13.5 -17q-31 -40 -62.5 -57.5t-62.5 -17.5z" />
    <glyph glyph-name="Ohungarumlaut" unicode="&#x150;" horiz-adv-x="741" 
d="M346 -9q-102 0 -172.5 48t-100 134t-7.5 198q12 68 45.5 125t83 99.5t111 66t131.5 23.5q99 0 170.5 -44.5t103 -130t7.5 -208.5q-17 -87 -68 -157.5t-129 -112t-175 -41.5zM362 40q63 0 111.5 34.5t81 93.5t45.5 135q18 98 -1 172.5t-65.5 117.5t-113.5 43
q-58 0 -106 -34.5t-81 -93t-47 -130.5q-13 -69 -8 -130t27 -107.5t62 -73.5t95 -27zM553 734q-26 2 -46 19q20 24 36 47.5t28 44.5t19 35q33 5 63.5 2.5t50.5 -12.5q-38 -32 -77.5 -67.5t-73.5 -68.5zM387 734q-26 2 -47 19q21 24 37 47.5t28 44.5t19 35q33 5 63.5 2.5
t50.5 -12.5q-39 -32 -78 -67.5t-73 -68.5z" />
    <glyph glyph-name="uni020E" unicode="&#x20e;" horiz-adv-x="741" 
d="M346 -9q-102 0 -172.5 48t-100 134t-7.5 198q12 68 45.5 125t83 99.5t111 66t131.5 23.5q99 0 170.5 -44.5t103 -130t7.5 -208.5q-17 -87 -68 -157.5t-129 -112t-175 -41.5zM362 40q63 0 111.5 34.5t81 93.5t45.5 135q18 98 -1 172.5t-65.5 117.5t-113.5 43
q-58 0 -106 -34.5t-81 -93t-47 -130.5q-13 -69 -8 -130t27 -107.5t62 -73.5t95 -27zM494 870q80 0 116.5 -35.5t23.5 -103.5q-12 -5 -26.5 -7.5t-26.5 -1.5q0 36 -29 56.5t-80 20.5t-86.5 -20.5t-45.5 -56.5q-13 -2 -24.5 0t-17.5 5q13 69 63.5 106t132.5 37z" />
    <glyph glyph-name="Omacron" unicode="&#x14c;" horiz-adv-x="741" 
d="M346 -9q-102 0 -172.5 48t-100 134t-7.5 198q12 68 45.5 125t83 99.5t111 66t131.5 23.5q99 0 170.5 -44.5t103 -130t7.5 -208.5q-17 -87 -68 -157.5t-129 -112t-175 -41.5zM362 40q63 0 111.5 34.5t81 93.5t45.5 135q18 98 -1 172.5t-65.5 117.5t-113.5 43
q-58 0 -106 -34.5t-81 -93t-47 -130.5q-13 -69 -8 -130t27 -107.5t62 -73.5t95 -27zM285 763q0 8 2 24t7 25h351q0 -10 -2 -21.5t-7 -23.5q-98 0 -186 -0.5t-165 -3.5z" />
    <glyph glyph-name="uni1E52" unicode="&#x1e52;" horiz-adv-x="741" 
d="M346 -9q-102 0 -172.5 48t-100 134t-7.5 198q12 68 45.5 125t83 99.5t111 66t131.5 23.5q99 0 170.5 -44.5t103 -130t7.5 -208.5q-17 -87 -68 -157.5t-129 -112t-175 -41.5zM362 40q63 0 111.5 34.5t81 93.5t45.5 135q18 98 -1 172.5t-65.5 117.5t-113.5 43
q-58 0 -106 -34.5t-81 -93t-47 -130.5q-13 -69 -8 -130t27 -107.5t62 -73.5t95 -27zM285 763q0 8 2 24t7 25h351q0 -10 -2 -21.5t-7 -23.5q-98 0 -186 -0.5t-165 -3.5zM471 865q-13 2 -24.5 6.5t-21.5 12.5q20 24 36 48t28 45t19 35q11 2 21 3t21 1q21 0 39.5 -3.5
t32.5 -10.5q-38 -32 -77.5 -67.5t-73.5 -69.5z" />
    <glyph glyph-name="uni1E50" unicode="&#x1e50;" horiz-adv-x="741" 
d="M346 -9q-102 0 -172.5 48t-100 134t-7.5 198q12 68 45.5 125t83 99.5t111 66t131.5 23.5q99 0 170.5 -44.5t103 -130t7.5 -208.5q-17 -87 -68 -157.5t-129 -112t-175 -41.5zM362 40q63 0 111.5 34.5t81 93.5t45.5 135q18 98 -1 172.5t-65.5 117.5t-113.5 43
q-58 0 -106 -34.5t-81 -93t-47 -130.5q-13 -69 -8 -130t27 -107.5t62 -73.5t95 -27zM285 763q0 8 2 24t7 25h351q0 -10 -2 -21.5t-7 -23.5q-98 0 -186 -0.5t-165 -3.5zM523 876q-10 -4 -27 -4t-28 4q-11 19 -27 41t-34.5 44t-36.5 40q23 8 50.5 9.5t53.5 -4.5
q8 -31 20 -64.5t29 -65.5z" />
    <glyph glyph-name="uni01EA" unicode="&#x1ea;" horiz-adv-x="741" 
d="M346 -9q-102 0 -172.5 48t-100 134t-7.5 198q12 68 45.5 125t83 99.5t111 66t131.5 23.5q99 0 170.5 -44.5t103 -130t7.5 -208.5q-17 -87 -68 -157.5t-129 -112t-175 -41.5zM362 40q63 0 111.5 34.5t81 93.5t45.5 135q18 98 -1 172.5t-65.5 117.5t-113.5 43
q-58 0 -106 -34.5t-81 -93t-47 -130.5q-13 -69 -8 -130t27 -107.5t62 -73.5t95 -27zM384 -252q-31 0 -55.5 11.5t-37 35t-7.5 60.5q4 33 23.5 66t57 64.5t97.5 59.5l43 -20q-53 -19 -84 -52t-38 -68q-5 -28 7.5 -46.5t41.5 -18.5q9 0 17 2.5t15 6.5q9 -8 14 -18.5t6 -22.5
q-22 -12 -42 -26.5t-36 -30.5q-5 -1 -9.5 -2t-12.5 -1z" />
    <glyph glyph-name="Oslash" unicode="&#xd8;" horiz-adv-x="741" 
d="M346 -9q-102 0 -172.5 48t-100 134t-7.5 198q12 68 45.5 125t83 99.5t111 66t131.5 23.5q99 0 170.5 -44.5t103 -130t7.5 -208.5q-17 -87 -68 -157.5t-129 -112t-175 -41.5zM362 40q63 0 111.5 34.5t81 93.5t45.5 135q18 98 -1 172.5t-65.5 117.5t-113.5 43
q-58 0 -106 -34.5t-81 -93t-47 -130.5q-13 -69 -8 -130t27 -107.5t62 -73.5t95 -27zM106 -9q-17 0 -31 7.5t-19 19.5l618 667q37 0 54 -23q-71 -73 -152 -158t-163 -174t-161 -176t-146 -163z" />
    <glyph glyph-name="Oslashacute" unicode="&#x1fe;" horiz-adv-x="741" 
d="M346 -9q-102 0 -172.5 48t-100 134t-7.5 198q12 68 45.5 125t83 99.5t111 66t131.5 23.5q99 0 170.5 -44.5t103 -130t7.5 -208.5q-17 -87 -68 -157.5t-129 -112t-175 -41.5zM362 40q63 0 111.5 34.5t81 93.5t45.5 135q18 98 -1 172.5t-65.5 117.5t-113.5 43
q-58 0 -106 -34.5t-81 -93t-47 -130.5q-13 -69 -8 -130t27 -107.5t62 -73.5t95 -27zM106 -9q-17 0 -31 7.5t-19 19.5l618 667q37 0 54 -23q-71 -73 -152 -158t-163 -174t-161 -176t-146 -163zM442 729q-13 2 -24.5 6.5t-21.5 12.5q20 24 36 48t28 45t19 35q11 2 21 3t21 1
q21 0 39.5 -3.5t32.5 -10.5q-38 -32 -77.5 -67.5t-73.5 -69.5z" />
    <glyph glyph-name="Otilde" unicode="&#xd5;" horiz-adv-x="741" 
d="M346 -9q-102 0 -172.5 48t-100 134t-7.5 198q12 68 45.5 125t83 99.5t111 66t131.5 23.5q99 0 170.5 -44.5t103 -130t7.5 -208.5q-17 -87 -68 -157.5t-129 -112t-175 -41.5zM362 40q63 0 111.5 34.5t81 93.5t45.5 135q18 98 -1 172.5t-65.5 117.5t-113.5 43
q-58 0 -106 -34.5t-81 -93t-47 -130.5q-13 -69 -8 -130t27 -107.5t62 -73.5t95 -27zM517 746q-21 0 -37 6t-30.5 13t-29.5 12.5t-32 5.5q-21 0 -41 -10t-39 -24q-7 9 -9.5 20t-1.5 26q35 35 67 46.5t58 11.5q28 0 48.5 -9t39 -17.5t38.5 -8.5q18 0 33.5 8.5t29.5 21.5
q9 -4 17.5 -10t13.5 -17q-31 -40 -62.5 -57.5t-62.5 -17.5z" />
    <glyph glyph-name="uni1E4C" unicode="&#x1e4c;" horiz-adv-x="741" 
d="M346 -9q-102 0 -172.5 48t-100 134t-7.5 198q12 68 45.5 125t83 99.5t111 66t131.5 23.5q99 0 170.5 -44.5t103 -130t7.5 -208.5q-17 -87 -68 -157.5t-129 -112t-175 -41.5zM362 40q63 0 111.5 34.5t81 93.5t45.5 135q18 98 -1 172.5t-65.5 117.5t-113.5 43
q-58 0 -106 -34.5t-81 -93t-47 -130.5q-13 -69 -8 -130t27 -107.5t62 -73.5t95 -27zM517 746q-21 0 -37 6t-30.5 13t-29.5 12.5t-32 5.5q-21 0 -41 -10t-39 -24q-7 9 -9.5 20t-1.5 26q35 35 67 46.5t58 11.5q28 0 48.5 -9t39 -17.5t38.5 -8.5q18 0 33.5 8.5t29.5 21.5
q9 -4 17.5 -10t13.5 -17q-31 -40 -62.5 -57.5t-62.5 -17.5zM478 903q-13 2 -24.5 6.5t-21.5 12.5q20 24 36 48t28 45t19 35q11 2 21 3t21 1q21 0 39.5 -3.5t32.5 -10.5q-38 -32 -77.5 -67.5t-73.5 -69.5z" />
    <glyph glyph-name="uni1E4E" unicode="&#x1e4e;" horiz-adv-x="741" 
d="M346 -9q-102 0 -172.5 48t-100 134t-7.5 198q12 68 45.5 125t83 99.5t111 66t131.5 23.5q99 0 170.5 -44.5t103 -130t7.5 -208.5q-17 -87 -68 -157.5t-129 -112t-175 -41.5zM362 40q63 0 111.5 34.5t81 93.5t45.5 135q18 98 -1 172.5t-65.5 117.5t-113.5 43
q-58 0 -106 -34.5t-81 -93t-47 -130.5q-13 -69 -8 -130t27 -107.5t62 -73.5t95 -27zM517 746q-21 0 -37 6t-30.5 13t-29.5 12.5t-32 5.5q-21 0 -41 -10t-39 -24q-7 9 -9.5 20t-1.5 26q35 35 67 46.5t58 11.5q28 0 48.5 -9t39 -17.5t38.5 -8.5q18 0 33.5 8.5t29.5 21.5
q9 -4 17.5 -10t13.5 -17q-31 -40 -62.5 -57.5t-62.5 -17.5zM393 904q-28 0 -41.5 19.5t-8.5 50.5q3 23 18.5 35.5t40.5 12.5q29 0 43.5 -18t7.5 -48q-12 -52 -60 -52zM595 905q-28 0 -42 18t-10 47q8 52 63 52q27 0 41 -17t9 -46q-8 -54 -61 -54z" />
    <glyph glyph-name="uni022C" unicode="&#x22c;" horiz-adv-x="741" 
d="M346 -9q-102 0 -172.5 48t-100 134t-7.5 198q12 68 45.5 125t83 99.5t111 66t131.5 23.5q99 0 170.5 -44.5t103 -130t7.5 -208.5q-17 -87 -68 -157.5t-129 -112t-175 -41.5zM362 40q63 0 111.5 34.5t81 93.5t45.5 135q18 98 -1 172.5t-65.5 117.5t-113.5 43
q-58 0 -106 -34.5t-81 -93t-47 -130.5q-13 -69 -8 -130t27 -107.5t62 -73.5t95 -27zM517 746q-21 0 -37 6t-30.5 13t-29.5 12.5t-32 5.5q-21 0 -41 -10t-39 -24q-7 9 -9.5 20t-1.5 26q35 35 67 46.5t58 11.5q28 0 48.5 -9t39 -17.5t38.5 -8.5q18 0 33.5 8.5t29.5 21.5
q9 -4 17.5 -10t13.5 -17q-31 -40 -62.5 -57.5t-62.5 -17.5zM319 937q0 8 2 24t7 25h351q0 -10 -2 -21.5t-7 -23.5q-98 0 -186 -0.5t-165 -3.5z" />
    <glyph glyph-name="OE" unicode="&#x152;" horiz-adv-x="981" 
d="M435 685q100 0 167 -47.5t92.5 -133.5t0.5 -202q-19 -87 -63.5 -157.5t-115 -112t-169.5 -41.5q-85 0 -145.5 31t-96 84.5t-45.5 122t6 142.5q21 96 73.5 166.5t129 109t166.5 38.5zM419 636q-60 0 -107.5 -34.5t-79 -93t-46.5 -130.5q-14 -66 -9.5 -126.5t26.5 -108
t61.5 -75.5t95.5 -28q63 0 108 34.5t74 93.5t42 135q18 100 2 175t-59 116.5t-108 41.5zM902 179q17 -2 28 -7t13 -15q-8 -35 -20 -75t-20 -85q-29 2 -63.5 2.5t-75 0.5h-91.5q-43 0 -82 -1.5t-77 -3t-80 -3t-94 -1.5l162 59h215q58 0 91 14.5t53.5 43.5t40.5 71zM896 448
q-5 -23 -10.5 -49t-10.5 -65q-6 -40 -8 -64.5t-4 -49.5q-15 2 -28 4.5t-24 8.5q3 32 -4.5 50t-28.5 26t-61 8h-55l9 50h51q60 0 86 16t34 63q14 3 27 3.5t27 -1.5zM431 685q29 0 53.5 -1t48 -2t50 -2.5t60.5 -2.5t79 -1q76 0 145 0.5t128 2.5q-5 -38 -7.5 -83.5t0.5 -82.5
q-24 -9 -58 -8q-1 42 -9.5 69t-37.5 39.5t-92 12.5h-221z" />
    <glyph glyph-name="P" unicode="P" horiz-adv-x="581" 
d="M26 -3q1 14 3 26.5t6 22.5q29 4 44.5 12.5t22.5 28t13 55.5l70 404q6 30 2.5 47.5t-18 25.5t-42.5 12q-5 23 -2 48q21 -1 47.5 -2t52.5 -1h46q24 0 66 1.5t83 1.5q110 0 157 -60.5t27 -167.5q-11 -62 -47.5 -108.5t-92.5 -72t-125 -25.5q-21 0 -36.5 3t-25.5 9
q-1 9 2 23.5t7 21.5q9 -3 20.5 -4.5t25.5 -1.5q63 0 105 38.5t57 114.5q16 85 -13.5 133t-112.5 48q-18 0 -34.5 -2t-37.5 -8l15 23l-85 -494q-7 -39 -5 -59t20 -29.5t58 -15.5q3 -11 3.5 -22t-0.5 -26q-38 2 -69 2.5t-66 0.5q-40 0 -73 -0.5t-68 -2.5z" />
    <glyph glyph-name="Thorn" unicode="&#xde;" horiz-adv-x="600" 
d="M26 -3q0 14 2.5 26.5t7.5 21.5q26 4 41 11.5t23 25.5t14 53l70 407q6 34 2.5 51.5t-18 25.5t-42.5 12q-1 11 -1.5 23t0.5 25q29 -1 61 -2t66 -1q33 0 65.5 1t64.5 2q-1 -13 -2.5 -25t-7.5 -23q-25 -4 -40 -12t-23 -26.5t-15 -54.5l-70 -403q-6 -34 -2 -52.5t22.5 -26
t54.5 -11.5q2 -10 3 -22.5t-1 -25.5q-34 2 -67.5 2.5t-68.5 0.5t-72.5 -0.5t-66.5 -2.5zM325 151q-22 0 -38 3t-28 11q-1 11 2 22.5t9 20.5q11 -4 22 -5.5t24 -1.5q35 0 67.5 13t57 44t33.5 85q12 69 -18 111t-112 42q-17 0 -31.5 -2t-39.5 -8l-36 53q18 0 46 0.5t58.5 1
t54.5 0.5q59 0 98.5 -16t61 -43t28.5 -62.5t0 -74.5q-9 -48 -42 -92.5t-87.5 -73t-129.5 -28.5z" />
    <glyph glyph-name="Q" unicode="Q" horiz-adv-x="741" 
d="M346 -9q-102 0 -172.5 48t-100 134t-7.5 198q12 68 45.5 125t83 99.5t111 66t131.5 23.5q99 0 170.5 -44.5t103 -130t7.5 -208.5q-17 -87 -68 -157.5t-129 -112t-175 -41.5zM362 40q63 0 111.5 34.5t81 93.5t45.5 135q18 98 -1 172.5t-65.5 117.5t-113.5 43
q-58 0 -106 -34.5t-81 -93t-47 -130.5q-13 -69 -8 -130t27 -107.5t62 -73.5t95 -27zM624 -219q-43 0 -75.5 19.5t-61.5 69.5q-28 49 -61.5 81.5t-91.5 39.5l93 24q33 -6 63.5 -21t60.5 -35.5t59 -48.5q30 -27 45.5 -34t31.5 -6q10 1 18.5 5.5t14.5 10.5q10 -5 18 -15.5
t11 -22.5q-10 -14 -28.5 -30t-43 -26.5t-53.5 -10.5z" />
    <glyph glyph-name="R" unicode="R" horiz-adv-x="658" 
d="M411 679q67 0 115 -22t70 -64t10 -103q-8 -46 -34 -82t-70 -60t-108 -36l-89 -14q-17 -1 -32 -0.5t-27 1.5l6 54q14 -2 25.5 -2.5t21.5 -0.5q55 0 94 17t63.5 48t32.5 72q15 73 -17.5 108.5t-91.5 35.5q-17 0 -38.5 -3t-38.5 -8l9 26l-89 -515q-5 -35 -3 -52t14 -23.5
t36 -10.5q2 -11 2.5 -23t-0.5 -25q-26 2 -44.5 2.5t-36 0.5h-41.5q-37 0 -65.5 -0.5t-58.5 -2.5q0 13 2.5 25t7.5 23q28 3 43 12t22.5 29t13.5 56l70 404q5 30 1.5 47.5t-18 25.5t-42.5 12q-2 11 -2 23.5t1 24.5q37 -2 67.5 -2.5t67.5 -0.5t80 1.5t71 1.5zM378 336
q22 -23 38.5 -46t33 -54.5t35.5 -81.5q16 -40 31.5 -56.5t29.5 -16.5q10 0 18 3t17 12q10 -6 18 -15.5t13 -21.5q-28 -33 -58 -50.5t-69 -17.5q-30 0 -49.5 15t-32.5 43.5t-26 70.5q-15 47 -30 83t-33 66t-39 59z" />
    <glyph glyph-name="Racute" unicode="&#x154;" horiz-adv-x="658" 
d="M411 679q67 0 115 -22t70 -64t10 -103q-8 -46 -34 -82t-70 -60t-108 -36l-89 -14q-17 -1 -32 -0.5t-27 1.5l6 54q14 -2 25.5 -2.5t21.5 -0.5q55 0 94 17t63.5 48t32.5 72q15 73 -17.5 108.5t-91.5 35.5q-17 0 -38.5 -3t-38.5 -8l9 26l-89 -515q-5 -35 -3 -52t14 -23.5
t36 -10.5q2 -11 2.5 -23t-0.5 -25q-26 2 -44.5 2.5t-36 0.5h-41.5q-37 0 -65.5 -0.5t-58.5 -2.5q0 13 2.5 25t7.5 23q28 3 43 12t22.5 29t13.5 56l70 404q5 30 1.5 47.5t-18 25.5t-42.5 12q-2 11 -2 23.5t1 24.5q37 -2 67.5 -2.5t67.5 -0.5t80 1.5t71 1.5zM378 336
q22 -23 38.5 -46t33 -54.5t35.5 -81.5q16 -40 31.5 -56.5t29.5 -16.5q10 0 18 3t17 12q10 -6 18 -15.5t13 -21.5q-28 -33 -58 -50.5t-69 -17.5q-30 0 -49.5 15t-32.5 43.5t-26 70.5q-15 47 -30 83t-33 66t-39 59zM381 729q-13 2 -24.5 6.5t-21.5 12.5q20 24 36 48t28 45
t19 35q11 2 21 3t21 1q21 0 39.5 -3.5t32.5 -10.5q-38 -32 -77.5 -67.5t-73.5 -69.5z" />
    <glyph glyph-name="Rcaron" unicode="&#x158;" horiz-adv-x="658" 
d="M411 679q67 0 115 -22t70 -64t10 -103q-8 -46 -34 -82t-70 -60t-108 -36l-89 -14q-17 -1 -32 -0.5t-27 1.5l6 54q14 -2 25.5 -2.5t21.5 -0.5q55 0 94 17t63.5 48t32.5 72q15 73 -17.5 108.5t-91.5 35.5q-17 0 -38.5 -3t-38.5 -8l9 26l-89 -515q-5 -35 -3 -52t14 -23.5
t36 -10.5q2 -11 2.5 -23t-0.5 -25q-26 2 -44.5 2.5t-36 0.5h-41.5q-37 0 -65.5 -0.5t-58.5 -2.5q0 13 2.5 25t7.5 23q28 3 43 12t22.5 29t13.5 56l70 404q5 30 1.5 47.5t-18 25.5t-42.5 12q-2 11 -2 23.5t1 24.5q37 -2 67.5 -2.5t67.5 -0.5t80 1.5t71 1.5zM378 336
q22 -23 38.5 -46t33 -54.5t35.5 -81.5q16 -40 31.5 -56.5t29.5 -16.5q10 0 18 3t17 12q10 -6 18 -15.5t13 -21.5q-28 -33 -58 -50.5t-69 -17.5q-30 0 -49.5 15t-32.5 43.5t-26 70.5q-15 47 -30 83t-33 66t-39 59zM366 732q-25 30 -57 62t-67 59q3 14 10 22.5t20 10.5
q31 -18 66 -36t66 -32q41 15 74.5 31.5t61.5 33.5q10 -4 18.5 -12.5t13.5 -18.5q-39 -25 -82.5 -54.5t-81.5 -59.5q-22 -10 -42 -6z" />
    <glyph glyph-name="uni0156" unicode="&#x156;" horiz-adv-x="658" 
d="M411 679q67 0 115 -22t70 -64t10 -103q-8 -46 -34 -82t-70 -60t-108 -36l-89 -14q-17 -1 -32 -0.5t-27 1.5l6 54q14 -2 25.5 -2.5t21.5 -0.5q55 0 94 17t63.5 48t32.5 72q15 73 -17.5 108.5t-91.5 35.5q-17 0 -38.5 -3t-38.5 -8l9 26l-89 -515q-5 -35 -3 -52t14 -23.5
t36 -10.5q2 -11 2.5 -23t-0.5 -25q-26 2 -44.5 2.5t-36 0.5h-41.5q-37 0 -65.5 -0.5t-58.5 -2.5q0 13 2.5 25t7.5 23q28 3 43 12t22.5 29t13.5 56l70 404q5 30 1.5 47.5t-18 25.5t-42.5 12q-2 11 -2 23.5t1 24.5q37 -2 67.5 -2.5t67.5 -0.5t80 1.5t71 1.5zM378 336
q22 -23 38.5 -46t33 -54.5t35.5 -81.5q16 -40 31.5 -56.5t29.5 -16.5q10 0 18 3t17 12q10 -6 18 -15.5t13 -21.5q-28 -33 -58 -50.5t-69 -17.5q-30 0 -49.5 15t-32.5 43.5t-26 70.5q-15 47 -30 83t-33 66t-39 59zM247 -285q-22 7 -28 25q26 22 42 44.5t19 40.5
q2 16 -6.5 25.5t-29.5 11.5q-2 37 19 66q26 4 49.5 11.5t43.5 18.5q18 -7 24.5 -25t1.5 -45q-10 -54 -48.5 -97.5t-86.5 -75.5z" />
    <glyph glyph-name="uni0210" unicode="&#x210;" horiz-adv-x="658" 
d="M411 679q67 0 115 -22t70 -64t10 -103q-8 -46 -34 -82t-70 -60t-108 -36l-89 -14q-17 -1 -32 -0.5t-27 1.5l6 54q14 -2 25.5 -2.5t21.5 -0.5q55 0 94 17t63.5 48t32.5 72q15 73 -17.5 108.5t-91.5 35.5q-17 0 -38.5 -3t-38.5 -8l9 26l-89 -515q-5 -35 -3 -52t14 -23.5
t36 -10.5q2 -11 2.5 -23t-0.5 -25q-26 2 -44.5 2.5t-36 0.5h-41.5q-37 0 -65.5 -0.5t-58.5 -2.5q0 13 2.5 25t7.5 23q28 3 43 12t22.5 29t13.5 56l70 404q5 30 1.5 47.5t-18 25.5t-42.5 12q-2 11 -2 23.5t1 24.5q37 -2 67.5 -2.5t67.5 -0.5t80 1.5t71 1.5zM378 336
q22 -23 38.5 -46t33 -54.5t35.5 -81.5q16 -40 31.5 -56.5t29.5 -16.5q10 0 18 3t17 12q10 -6 18 -15.5t13 -21.5q-28 -33 -58 -50.5t-69 -17.5q-30 0 -49.5 15t-32.5 43.5t-26 70.5q-15 47 -30 83t-33 66t-39 59zM317 725q-23 38 -44 68.5t-45 58.5q20 9 46.5 9.5t50.5 -4.5
q8 -30 17 -64.5t23 -70.5q-11 -1 -22 0t-26 3zM475 725q-23 38 -44 68.5t-44 59.5q20 8 46 8.5t50 -4.5q8 -30 17 -64.5t23 -70.5q-11 -1 -22 0t-26 3z" />
    <glyph glyph-name="uni1E5A" unicode="&#x1e5a;" horiz-adv-x="658" 
d="M411 679q67 0 115 -22t70 -64t10 -103q-8 -46 -34 -82t-70 -60t-108 -36l-89 -14q-17 -1 -32 -0.5t-27 1.5l6 54q14 -2 25.5 -2.5t21.5 -0.5q55 0 94 17t63.5 48t32.5 72q15 73 -17.5 108.5t-91.5 35.5q-17 0 -38.5 -3t-38.5 -8l9 26l-89 -515q-5 -35 -3 -52t14 -23.5
t36 -10.5q2 -11 2.5 -23t-0.5 -25q-26 2 -44.5 2.5t-36 0.5h-41.5q-37 0 -65.5 -0.5t-58.5 -2.5q0 13 2.5 25t7.5 23q28 3 43 12t22.5 29t13.5 56l70 404q5 30 1.5 47.5t-18 25.5t-42.5 12q-2 11 -2 23.5t1 24.5q37 -2 67.5 -2.5t67.5 -0.5t80 1.5t71 1.5zM378 336
q22 -23 38.5 -46t33 -54.5t35.5 -81.5q16 -40 31.5 -56.5t29.5 -16.5q10 0 18 3t17 12q10 -6 18 -15.5t13 -21.5q-28 -33 -58 -50.5t-69 -17.5q-30 0 -49.5 15t-32.5 43.5t-26 70.5q-15 47 -30 83t-33 66t-39 59zM301 -218q-29 0 -43.5 17t-10.5 47q6 29 25 47t46 18
q24 0 41.5 -16t11.5 -51q-4 -28 -22.5 -45t-47.5 -17z" />
    <glyph glyph-name="uni0212" unicode="&#x212;" horiz-adv-x="658" 
d="M411 679q67 0 115 -22t70 -64t10 -103q-8 -46 -34 -82t-70 -60t-108 -36l-89 -14q-17 -1 -32 -0.5t-27 1.5l6 54q14 -2 25.5 -2.5t21.5 -0.5q55 0 94 17t63.5 48t32.5 72q15 73 -17.5 108.5t-91.5 35.5q-17 0 -38.5 -3t-38.5 -8l9 26l-89 -515q-5 -35 -3 -52t14 -23.5
t36 -10.5q2 -11 2.5 -23t-0.5 -25q-26 2 -44.5 2.5t-36 0.5h-41.5q-37 0 -65.5 -0.5t-58.5 -2.5q0 13 2.5 25t7.5 23q28 3 43 12t22.5 29t13.5 56l70 404q5 30 1.5 47.5t-18 25.5t-42.5 12q-2 11 -2 23.5t1 24.5q37 -2 67.5 -2.5t67.5 -0.5t80 1.5t71 1.5zM378 336
q22 -23 38.5 -46t33 -54.5t35.5 -81.5q16 -40 31.5 -56.5t29.5 -16.5q10 0 18 3t17 12q10 -6 18 -15.5t13 -21.5q-28 -33 -58 -50.5t-69 -17.5q-30 0 -49.5 15t-32.5 43.5t-26 70.5q-15 47 -30 83t-33 66t-39 59zM430 870q80 0 116.5 -35.5t23.5 -103.5q-12 -5 -26.5 -7.5
t-26.5 -1.5q0 36 -29 56.5t-80 20.5t-86.5 -20.5t-45.5 -56.5q-13 -2 -24.5 0t-17.5 5q13 69 63.5 106t132.5 37z" />
    <glyph glyph-name="uni1E5E" unicode="&#x1e5e;" horiz-adv-x="658" 
d="M411 679q67 0 115 -22t70 -64t10 -103q-8 -46 -34 -82t-70 -60t-108 -36l-89 -14q-17 -1 -32 -0.5t-27 1.5l6 54q14 -2 25.5 -2.5t21.5 -0.5q55 0 94 17t63.5 48t32.5 72q15 73 -17.5 108.5t-91.5 35.5q-17 0 -38.5 -3t-38.5 -8l9 26l-89 -515q-5 -35 -3 -52t14 -23.5
t36 -10.5q2 -11 2.5 -23t-0.5 -25q-26 2 -44.5 2.5t-36 0.5h-41.5q-37 0 -65.5 -0.5t-58.5 -2.5q0 13 2.5 25t7.5 23q28 3 43 12t22.5 29t13.5 56l70 404q5 30 1.5 47.5t-18 25.5t-42.5 12q-2 11 -2 23.5t1 24.5q37 -2 67.5 -2.5t67.5 -0.5t80 1.5t71 1.5zM378 336
q22 -23 38.5 -46t33 -54.5t35.5 -81.5q16 -40 31.5 -56.5t29.5 -16.5q10 0 18 3t17 12q10 -6 18 -15.5t13 -21.5q-28 -33 -58 -50.5t-69 -17.5q-30 0 -49.5 15t-32.5 43.5t-26 70.5q-15 47 -30 83t-33 66t-39 59zM129 -176q0 7 2 23t7 26h351q0 -10 -2 -22t-7 -23
q-98 0 -186 -1t-165 -3z" />
    <glyph glyph-name="S" unicode="S" horiz-adv-x="471" 
d="M210 -9q-52 0 -89.5 9t-65.5 25t-54 38q11 35 19.5 70.5t10.5 70.5q15 5 32 6t32 -4q-5 -85 21.5 -123.5t99.5 -38.5q41 0 72.5 25.5t39.5 65.5q7 42 -10 71t-48.5 52.5t-67 47.5t-66.5 53.5t-46 71.5t-5 102q8 47 37 81t75.5 52.5t107.5 18.5q54 0 94.5 -13.5
t65.5 -33.5q-5 -35 -8 -67.5t-3 -65.5q-29 -11 -64 -6q-1 76 -26.5 105.5t-70.5 29.5q-46 0 -74.5 -21t-35.5 -69q-6 -34 7.5 -60t38 -47.5t55.5 -42t61 -43t54 -50t35 -62.5t3 -81q-9 -50 -41.5 -87.5t-80.5 -58.5t-105 -21z" />
    <glyph glyph-name="Sacute" unicode="&#x15a;" horiz-adv-x="471" 
d="M210 -9q-52 0 -89.5 9t-65.5 25t-54 38q11 35 19.5 70.5t10.5 70.5q15 5 32 6t32 -4q-5 -85 21.5 -123.5t99.5 -38.5q41 0 72.5 25.5t39.5 65.5q7 42 -10 71t-48.5 52.5t-67 47.5t-66.5 53.5t-46 71.5t-5 102q8 47 37 81t75.5 52.5t107.5 18.5q54 0 94.5 -13.5
t65.5 -33.5q-5 -35 -8 -67.5t-3 -65.5q-29 -11 -64 -6q-1 76 -26.5 105.5t-70.5 29.5q-46 0 -74.5 -21t-35.5 -69q-6 -34 7.5 -60t38 -47.5t55.5 -42t61 -43t54 -50t35 -62.5t3 -81q-9 -50 -41.5 -87.5t-80.5 -58.5t-105 -21zM301 729q-13 2 -24.5 6.5t-21.5 12.5
q20 24 36 48t28 45t19 35q11 2 21 3t21 1q21 0 39.5 -3.5t32.5 -10.5q-38 -32 -77.5 -67.5t-73.5 -69.5z" />
    <glyph glyph-name="uni1E64" unicode="&#x1e64;" horiz-adv-x="471" 
d="M210 -9q-52 0 -89.5 9t-65.5 25t-54 38q11 35 19.5 70.5t10.5 70.5q15 5 32 6t32 -4q-5 -85 21.5 -123.5t99.5 -38.5q41 0 72.5 25.5t39.5 65.5q7 42 -10 71t-48.5 52.5t-67 47.5t-66.5 53.5t-46 71.5t-5 102q8 47 37 81t75.5 52.5t107.5 18.5q54 0 94.5 -13.5
t65.5 -33.5q-5 -35 -8 -67.5t-3 -65.5q-29 -11 -64 -6q-1 76 -26.5 105.5t-70.5 29.5q-46 0 -74.5 -21t-35.5 -69q-6 -34 7.5 -60t38 -47.5t55.5 -42t61 -43t54 -50t35 -62.5t3 -81q-9 -50 -41.5 -87.5t-80.5 -58.5t-105 -21zM301 729q-13 2 -24.5 6.5t-21.5 12.5
q20 24 36 48t28 45t19 35q11 2 21 3t21 1q21 0 39.5 -3.5t32.5 -10.5q-38 -32 -77.5 -67.5t-73.5 -69.5zM350 924q-28 0 -42 17t-10 45q5 28 25 43.5t47 15.5q28 0 43 -17.5t9 -46.5q-4 -27 -23.5 -42t-48.5 -15z" />
    <glyph glyph-name="Scaron" unicode="&#x160;" horiz-adv-x="471" 
d="M210 -9q-52 0 -89.5 9t-65.5 25t-54 38q11 35 19.5 70.5t10.5 70.5q15 5 32 6t32 -4q-5 -85 21.5 -123.5t99.5 -38.5q41 0 72.5 25.5t39.5 65.5q7 42 -10 71t-48.5 52.5t-67 47.5t-66.5 53.5t-46 71.5t-5 102q8 47 37 81t75.5 52.5t107.5 18.5q54 0 94.5 -13.5
t65.5 -33.5q-5 -35 -8 -67.5t-3 -65.5q-29 -11 -64 -6q-1 76 -26.5 105.5t-70.5 29.5q-46 0 -74.5 -21t-35.5 -69q-6 -34 7.5 -60t38 -47.5t55.5 -42t61 -43t54 -50t35 -62.5t3 -81q-9 -50 -41.5 -87.5t-80.5 -58.5t-105 -21zM286 732q-25 30 -57 62t-67 59q3 14 10 22.5
t20 10.5q31 -18 66 -36t66 -32q41 15 74.5 31.5t61.5 33.5q10 -4 18.5 -12.5t13.5 -18.5q-39 -25 -82.5 -54.5t-81.5 -59.5q-22 -10 -42 -6z" />
    <glyph glyph-name="uni1E66" unicode="&#x1e66;" horiz-adv-x="471" 
d="M210 -9q-52 0 -89.5 9t-65.5 25t-54 38q11 35 19.5 70.5t10.5 70.5q15 5 32 6t32 -4q-5 -85 21.5 -123.5t99.5 -38.5q41 0 72.5 25.5t39.5 65.5q7 42 -10 71t-48.5 52.5t-67 47.5t-66.5 53.5t-46 71.5t-5 102q8 47 37 81t75.5 52.5t107.5 18.5q54 0 94.5 -13.5
t65.5 -33.5q-5 -35 -8 -67.5t-3 -65.5q-29 -11 -64 -6q-1 76 -26.5 105.5t-70.5 29.5q-46 0 -74.5 -21t-35.5 -69q-6 -34 7.5 -60t38 -47.5t55.5 -42t61 -43t54 -50t35 -62.5t3 -81q-9 -50 -41.5 -87.5t-80.5 -58.5t-105 -21zM286 732q-25 30 -57 62t-67 59q3 14 10 22.5
t20 10.5q31 -18 66 -36t66 -32q41 15 74.5 31.5t61.5 33.5q10 -4 18.5 -12.5t13.5 -18.5q-39 -25 -82.5 -54.5t-81.5 -59.5q-22 -10 -42 -6zM352 931q-28 0 -42 17t-10 45q5 28 25 43.5t47 15.5q28 0 43 -17.5t9 -46.5q-4 -27 -23.5 -42t-48.5 -15z" />
    <glyph glyph-name="Scedilla" unicode="&#x15e;" horiz-adv-x="471" 
d="M210 -9q-52 0 -89.5 9t-65.5 25t-54 38q11 35 19.5 70.5t10.5 70.5q15 5 32 6t32 -4q-5 -85 21.5 -123.5t99.5 -38.5q41 0 72.5 25.5t39.5 65.5q7 42 -10 71t-48.5 52.5t-67 47.5t-66.5 53.5t-46 71.5t-5 102q8 47 37 81t75.5 52.5t107.5 18.5q54 0 94.5 -13.5
t65.5 -33.5q-5 -35 -8 -67.5t-3 -65.5q-29 -11 -64 -6q-1 76 -26.5 105.5t-70.5 29.5q-46 0 -74.5 -21t-35.5 -69q-6 -34 7.5 -60t38 -47.5t55.5 -42t61 -43t54 -50t35 -62.5t3 -81q-9 -50 -41.5 -87.5t-80.5 -58.5t-105 -21zM116 -242q-2 8 -2 17t1 18q37 0 60.5 11.5
t28.5 36.5q5 28 -10.5 42.5t-43.5 14.5q-15 15 -10 39l68 79h60l-58 -70q37 -7 53 -32.5t7 -69.5t-51 -65.5t-103 -20.5z" />
    <glyph glyph-name="Scircumflex" unicode="&#x15c;" horiz-adv-x="471" 
d="M210 -9q-52 0 -89.5 9t-65.5 25t-54 38q11 35 19.5 70.5t10.5 70.5q15 5 32 6t32 -4q-5 -85 21.5 -123.5t99.5 -38.5q41 0 72.5 25.5t39.5 65.5q7 42 -10 71t-48.5 52.5t-67 47.5t-66.5 53.5t-46 71.5t-5 102q8 47 37 81t75.5 52.5t107.5 18.5q54 0 94.5 -13.5
t65.5 -33.5q-5 -35 -8 -67.5t-3 -65.5q-29 -11 -64 -6q-1 76 -26.5 105.5t-70.5 29.5q-46 0 -74.5 -21t-35.5 -69q-6 -34 7.5 -60t38 -47.5t55.5 -42t61 -43t54 -50t35 -62.5t3 -81q-9 -50 -41.5 -87.5t-80.5 -58.5t-105 -21zM188 728q-9 8 -14 21t-5 24q28 16 55 33.5
t52.5 36.5t48.5 37q13 2 24 0.5t22 -6.5q25 -28 53 -57t59 -60q-5 -10 -15.5 -16.5t-23.5 -7.5q-28 18 -58.5 34t-62.5 28q-23 -8 -46.5 -19.5t-45.5 -23.5t-43 -24z" />
    <glyph glyph-name="uni0218" unicode="&#x218;" horiz-adv-x="471" 
d="M210 -9q-52 0 -89.5 9t-65.5 25t-54 38q11 35 19.5 70.5t10.5 70.5q15 5 32 6t32 -4q-5 -85 21.5 -123.5t99.5 -38.5q41 0 72.5 25.5t39.5 65.5q7 42 -10 71t-48.5 52.5t-67 47.5t-66.5 53.5t-46 71.5t-5 102q8 47 37 81t75.5 52.5t107.5 18.5q54 0 94.5 -13.5
t65.5 -33.5q-5 -35 -8 -67.5t-3 -65.5q-29 -11 -64 -6q-1 76 -26.5 105.5t-70.5 29.5q-46 0 -74.5 -21t-35.5 -69q-6 -34 7.5 -60t38 -47.5t55.5 -42t61 -43t54 -50t35 -62.5t3 -81q-9 -50 -41.5 -87.5t-80.5 -58.5t-105 -21zM125 -285q-22 7 -28 25q26 22 42 44.5t19 40.5
q2 16 -6.5 25.5t-29.5 11.5q-2 37 19 66q26 4 49.5 11.5t43.5 18.5q18 -7 24.5 -25t1.5 -45q-10 -54 -48.5 -97.5t-86.5 -75.5z" />
    <glyph glyph-name="uni1E60" unicode="&#x1e60;" horiz-adv-x="471" 
d="M210 -9q-52 0 -89.5 9t-65.5 25t-54 38q11 35 19.5 70.5t10.5 70.5q15 5 32 6t32 -4q-5 -85 21.5 -123.5t99.5 -38.5q41 0 72.5 25.5t39.5 65.5q7 42 -10 71t-48.5 52.5t-67 47.5t-66.5 53.5t-46 71.5t-5 102q8 47 37 81t75.5 52.5t107.5 18.5q54 0 94.5 -13.5
t65.5 -33.5q-5 -35 -8 -67.5t-3 -65.5q-29 -11 -64 -6q-1 76 -26.5 105.5t-70.5 29.5q-46 0 -74.5 -21t-35.5 -69q-6 -34 7.5 -60t38 -47.5t55.5 -42t61 -43t54 -50t35 -62.5t3 -81q-9 -50 -41.5 -87.5t-80.5 -58.5t-105 -21zM311 720q-28 0 -42 17t-10 45q5 28 25 43.5
t47 15.5q28 0 43 -17.5t9 -46.5q-4 -27 -23.5 -42t-48.5 -15z" />
    <glyph glyph-name="uni1E62" unicode="&#x1e62;" horiz-adv-x="471" 
d="M210 -9q-52 0 -89.5 9t-65.5 25t-54 38q11 35 19.5 70.5t10.5 70.5q15 5 32 6t32 -4q-5 -85 21.5 -123.5t99.5 -38.5q41 0 72.5 25.5t39.5 65.5q7 42 -10 71t-48.5 52.5t-67 47.5t-66.5 53.5t-46 71.5t-5 102q8 47 37 81t75.5 52.5t107.5 18.5q54 0 94.5 -13.5
t65.5 -33.5q-5 -35 -8 -67.5t-3 -65.5q-29 -11 -64 -6q-1 76 -26.5 105.5t-70.5 29.5q-46 0 -74.5 -21t-35.5 -69q-6 -34 7.5 -60t38 -47.5t55.5 -42t61 -43t54 -50t35 -62.5t3 -81q-9 -50 -41.5 -87.5t-80.5 -58.5t-105 -21zM179 -218q-29 0 -43.5 17t-10.5 47q6 29 25 47
t46 18q24 0 41.5 -16t11.5 -51q-4 -28 -22.5 -45t-47.5 -17z" />
    <glyph glyph-name="uni1E68" unicode="&#x1e68;" horiz-adv-x="471" 
d="M210 -9q-52 0 -89.5 9t-65.5 25t-54 38q11 35 19.5 70.5t10.5 70.5q15 5 32 6t32 -4q-5 -85 21.5 -123.5t99.5 -38.5q41 0 72.5 25.5t39.5 65.5q7 42 -10 71t-48.5 52.5t-67 47.5t-66.5 53.5t-46 71.5t-5 102q8 47 37 81t75.5 52.5t107.5 18.5q54 0 94.5 -13.5
t65.5 -33.5q-5 -35 -8 -67.5t-3 -65.5q-29 -11 -64 -6q-1 76 -26.5 105.5t-70.5 29.5q-46 0 -74.5 -21t-35.5 -69q-6 -34 7.5 -60t38 -47.5t55.5 -42t61 -43t54 -50t35 -62.5t3 -81q-9 -50 -41.5 -87.5t-80.5 -58.5t-105 -21zM179 -218q-29 0 -43.5 17t-10.5 47q6 29 25 47
t46 18q24 0 41.5 -16t11.5 -51q-4 -28 -22.5 -45t-47.5 -17zM311 720q-28 0 -42 17t-10 45q5 28 25 43.5t47 15.5q28 0 43 -17.5t9 -46.5q-4 -27 -23.5 -42t-48.5 -15z" />
    <glyph glyph-name="uni1E9E" unicode="&#x1e9e;" horiz-adv-x="676" 
d="M423 679q33 0 63.5 -1.5t56.5 -1.5q27 0 55.5 0.5t53.5 2.5q7 -10 10.5 -24t1.5 -30q-35 -50 -87.5 -118t-109.5 -131l-9 17q96 -10 145.5 -68.5t31.5 -153.5q-8 -52 -38.5 -92t-81 -64t-120.5 -24q-60 0 -97.5 16t-65.5 45q11 31 19 68t10 65q14 5 32.5 6t31.5 -3
q-6 -83 8.5 -113t62.5 -30q31 0 55.5 17t40 44.5t20.5 56.5q9 53 -4.5 92.5t-51 64.5t-101.5 34q-6 9 -8 21t-1 25q35 38 71 82.5t71 91t65 89.5l-1 -34q-43 2 -74.5 3t-72.5 1q-43 0 -78.5 -18.5t-61.5 -64t-40 -128.5l-71 -422q-45 0 -85 -0.5t-92 -2.5q0 14 2.5 26.5
t7.5 21.5q26 4 41 11.5t23 25.5t14 53l50 291q14 75 42 124.5t68.5 77.5t90.5 39.5t107 11.5z" />
    <glyph glyph-name="uni018F" unicode="&#x18f;" horiz-adv-x="649" 
d="M262 -7q-71 0 -115.5 25t-67 69.5t-27.5 103t3 124.5q4 8 10 16.5t14 15.5l448 -3l-7 -49q-54 0 -110.5 -0.5t-114.5 -3t-119 -6.5q-15 -71 -10 -125.5t33 -84.5t81 -30q46 0 91.5 27t83 90t58.5 172q11 57 12 110.5t-14.5 96.5t-52.5 68t-103 25q-72 0 -107.5 -35
t-59.5 -107q-15 2 -30.5 6t-27.5 13q8 30 14.5 64t7.5 69q30 15 68 23.5t77 13t73 4.5q89 0 146 -26.5t88 -74t37.5 -108.5t-7.5 -130q-15 -72 -46.5 -136t-79.5 -112.5t-110 -76.5t-136 -28z" />
    <glyph glyph-name="T" unicode="T" horiz-adv-x="560" 
d="M252 631q-55 0 -83.5 -29.5t-51.5 -97.5q-17 0 -30.5 3t-23.5 12q7 22 14.5 50t13.5 57t9 53q30 -1 69.5 -2t87.5 -1h100h102t89.5 1t72.5 2q-6 -36 -9.5 -78.5t-2.5 -85.5q-13 -6 -26.5 -7.5t-29.5 -0.5q-2 68 -21.5 96t-80.5 28h-199zM302 648h111l-90 -516
q-6 -30 -3.5 -47t19.5 -25.5t53 -14.5q2 -11 3 -23t-1 -25q-31 2 -67.5 2.5t-71.5 0.5q-38 0 -76.5 -0.5t-68.5 -2.5q1 15 3.5 27.5t5.5 21.5q35 5 53 13.5t27 28t15 54.5z" />
    <glyph glyph-name="Tbar" unicode="&#x166;" horiz-adv-x="560" 
d="M252 631q-55 0 -83.5 -29.5t-51.5 -97.5q-17 0 -30.5 3t-23.5 12q7 22 14.5 50t13.5 57t9 53q30 -1 69.5 -2t87.5 -1h100h102t89.5 1t72.5 2q-6 -36 -9.5 -78.5t-2.5 -85.5q-13 -6 -26.5 -7.5t-29.5 -0.5q-2 68 -21.5 96t-80.5 28h-199zM302 648h111l-90 -516
q-6 -30 -3.5 -47t19.5 -25.5t53 -14.5q2 -11 3 -23t-1 -25q-31 2 -67.5 2.5t-71.5 0.5q-38 0 -76.5 -0.5t-68.5 -2.5q1 15 3.5 27.5t5.5 21.5q35 5 53 13.5t27 28t15 54.5zM121 318q0 13 3.5 30.5t8.5 26.5h364q0 -17 -2 -30.5t-9 -25.5q-44 1 -80 1h-81h-79.5t-60.5 -1
t-64 -1z" />
    <glyph glyph-name="Tcaron" unicode="&#x164;" horiz-adv-x="560" 
d="M252 631q-55 0 -83.5 -29.5t-51.5 -97.5q-17 0 -30.5 3t-23.5 12q7 22 14.5 50t13.5 57t9 53q30 -1 69.5 -2t87.5 -1h100h102t89.5 1t72.5 2q-6 -36 -9.5 -78.5t-2.5 -85.5q-13 -6 -26.5 -7.5t-29.5 -0.5q-2 68 -21.5 96t-80.5 28h-199zM302 648h111l-90 -516
q-6 -30 -3.5 -47t19.5 -25.5t53 -14.5q2 -11 3 -23t-1 -25q-31 2 -67.5 2.5t-71.5 0.5q-38 0 -76.5 -0.5t-68.5 -2.5q1 15 3.5 27.5t5.5 21.5q35 5 53 13.5t27 28t15 54.5zM341 732q-25 30 -57 62t-67 59q3 14 10 22.5t20 10.5q31 -18 66 -36t66 -32q41 15 74.5 31.5
t61.5 33.5q10 -4 18.5 -12.5t13.5 -18.5q-39 -25 -82.5 -54.5t-81.5 -59.5q-22 -10 -42 -6z" />
    <glyph glyph-name="uni0162" unicode="&#x162;" horiz-adv-x="560" 
d="M252 631q-55 0 -83.5 -29.5t-51.5 -97.5q-17 0 -30.5 3t-23.5 12q7 22 14.5 50t13.5 57t9 53q30 -1 69.5 -2t87.5 -1h100h102t89.5 1t72.5 2q-6 -36 -9.5 -78.5t-2.5 -85.5q-13 -6 -26.5 -7.5t-29.5 -0.5q-2 68 -21.5 96t-80.5 28h-199zM302 648h111l-90 -516
q-6 -30 -3.5 -47t19.5 -25.5t53 -14.5q2 -11 3 -23t-1 -25q-31 2 -67.5 2.5t-71.5 0.5q-38 0 -76.5 -0.5t-68.5 -2.5q1 15 3.5 27.5t5.5 21.5q35 5 53 13.5t27 28t15 54.5zM156 -242q-2 8 -2 17t1 18q37 0 60.5 11.5t28.5 36.5q5 28 -10.5 42.5t-43.5 14.5q-15 15 -10 39
l68 79h60l-58 -70q37 -7 53 -32.5t7 -69.5t-51 -65.5t-103 -20.5z" />
    <glyph glyph-name="uni021A" unicode="&#x21a;" horiz-adv-x="560" 
d="M252 631q-55 0 -83.5 -29.5t-51.5 -97.5q-17 0 -30.5 3t-23.5 12q7 22 14.5 50t13.5 57t9 53q30 -1 69.5 -2t87.5 -1h100h102t89.5 1t72.5 2q-6 -36 -9.5 -78.5t-2.5 -85.5q-13 -6 -26.5 -7.5t-29.5 -0.5q-2 68 -21.5 96t-80.5 28h-199zM302 648h111l-90 -516
q-6 -30 -3.5 -47t19.5 -25.5t53 -14.5q2 -11 3 -23t-1 -25q-31 2 -67.5 2.5t-71.5 0.5q-38 0 -76.5 -0.5t-68.5 -2.5q1 15 3.5 27.5t5.5 21.5q35 5 53 13.5t27 28t15 54.5zM165 -285q-22 7 -28 25q26 22 42 44.5t19 40.5q2 16 -6.5 25.5t-29.5 11.5q-2 37 19 66
q26 4 49.5 11.5t43.5 18.5q18 -7 24.5 -25t1.5 -45q-10 -54 -48.5 -97.5t-86.5 -75.5z" />
    <glyph glyph-name="uni1E6C" unicode="&#x1e6c;" horiz-adv-x="560" 
d="M252 631q-55 0 -83.5 -29.5t-51.5 -97.5q-17 0 -30.5 3t-23.5 12q7 22 14.5 50t13.5 57t9 53q30 -1 69.5 -2t87.5 -1h100h102t89.5 1t72.5 2q-6 -36 -9.5 -78.5t-2.5 -85.5q-13 -6 -26.5 -7.5t-29.5 -0.5q-2 68 -21.5 96t-80.5 28h-199zM302 648h111l-90 -516
q-6 -30 -3.5 -47t19.5 -25.5t53 -14.5q2 -11 3 -23t-1 -25q-31 2 -67.5 2.5t-71.5 0.5q-38 0 -76.5 -0.5t-68.5 -2.5q1 15 3.5 27.5t5.5 21.5q35 5 53 13.5t27 28t15 54.5zM219 -218q-29 0 -43.5 17t-10.5 47q6 29 25 47t46 18q24 0 41.5 -16t11.5 -51q-4 -28 -22.5 -45
t-47.5 -17z" />
    <glyph glyph-name="uni1E6E" unicode="&#x1e6e;" horiz-adv-x="560" 
d="M252 631q-55 0 -83.5 -29.5t-51.5 -97.5q-17 0 -30.5 3t-23.5 12q7 22 14.5 50t13.5 57t9 53q30 -1 69.5 -2t87.5 -1h100h102t89.5 1t72.5 2q-6 -36 -9.5 -78.5t-2.5 -85.5q-13 -6 -26.5 -7.5t-29.5 -0.5q-2 68 -21.5 96t-80.5 28h-199zM302 648h111l-90 -516
q-6 -30 -3.5 -47t19.5 -25.5t53 -14.5q2 -11 3 -23t-1 -25q-31 2 -67.5 2.5t-71.5 0.5q-38 0 -76.5 -0.5t-68.5 -2.5q1 15 3.5 27.5t5.5 21.5q35 5 53 13.5t27 28t15 54.5zM47 -176q0 7 2 23t7 26h351q0 -10 -2 -22t-7 -23q-98 0 -186 -1t-165 -3z" />
    <glyph glyph-name="U" unicode="U" horiz-adv-x="642" 
d="M307 -9q-130 0 -179 70t-27 195l49 290q7 32 5 49t-13 24.5t-34 11.5q-2 10 -2 22.5t1 25.5q36 -2 62 -2.5t58 -0.5q33 0 61.5 0.5t66.5 2.5q-1 -13 -2.5 -24.5t-7.5 -23.5q-30 -3 -46 -11t-24.5 -27.5t-15.5 -58.5l-48 -273q-19 -113 15 -163t105 -50q73 0 119 53
t63 148l45 259q8 45 6.5 68t-15 34.5t-42.5 20.5q-2 12 -2 23.5t1 24.5q32 -2 56 -2.5t44 -0.5q26 0 47 0.5t54 2.5q0 -13 -2.5 -25t-7.5 -23q-21 -7 -34.5 -14.5t-22.5 -20.5t-15.5 -36.5t-12.5 -61.5l-42 -240q-17 -92 -50 -151t-85.5 -87.5t-127.5 -28.5z" />
    <glyph glyph-name="Uacute" unicode="&#xda;" horiz-adv-x="642" 
d="M307 -9q-130 0 -179 70t-27 195l49 290q7 32 5 49t-13 24.5t-34 11.5q-2 10 -2 22.5t1 25.5q36 -2 62 -2.5t58 -0.5q33 0 61.5 0.5t66.5 2.5q-1 -13 -2.5 -24.5t-7.5 -23.5q-30 -3 -46 -11t-24.5 -27.5t-15.5 -58.5l-48 -273q-19 -113 15 -163t105 -50q73 0 119 53
t63 148l45 259q8 45 6.5 68t-15 34.5t-42.5 20.5q-2 12 -2 23.5t1 24.5q32 -2 56 -2.5t44 -0.5q26 0 47 0.5t54 2.5q0 -13 -2.5 -25t-7.5 -23q-21 -7 -34.5 -14.5t-22.5 -20.5t-15.5 -36.5t-12.5 -61.5l-42 -240q-17 -92 -50 -151t-85.5 -87.5t-127.5 -28.5zM429 729
q-13 2 -24.5 6.5t-21.5 12.5q20 24 36 48t28 45t19 35q11 2 21 3t21 1q21 0 39.5 -3.5t32.5 -10.5q-38 -32 -77.5 -67.5t-73.5 -69.5z" />
    <glyph glyph-name="Ubreve" unicode="&#x16c;" horiz-adv-x="642" 
d="M307 -9q-130 0 -179 70t-27 195l49 290q7 32 5 49t-13 24.5t-34 11.5q-2 10 -2 22.5t1 25.5q36 -2 62 -2.5t58 -0.5q33 0 61.5 0.5t66.5 2.5q-1 -13 -2.5 -24.5t-7.5 -23.5q-30 -3 -46 -11t-24.5 -27.5t-15.5 -58.5l-48 -273q-19 -113 15 -163t105 -50q73 0 119 53
t63 148l45 259q8 45 6.5 68t-15 34.5t-42.5 20.5q-2 12 -2 23.5t1 24.5q32 -2 56 -2.5t44 -0.5q26 0 47 0.5t54 2.5q0 -13 -2.5 -25t-7.5 -23q-21 -7 -34.5 -14.5t-22.5 -20.5t-15.5 -36.5t-12.5 -61.5l-42 -240q-17 -92 -50 -151t-85.5 -87.5t-127.5 -28.5zM426 728
q-80 0 -116.5 35.5t-23.5 103.5q12 5 26.5 7.5t26.5 1.5q0 -36 29 -56.5t80 -20.5t86.5 20.5t45.5 56.5q13 2 24.5 0t17.5 -5q-13 -69 -63.5 -106t-132.5 -37z" />
    <glyph glyph-name="uni01D3" unicode="&#x1d3;" horiz-adv-x="642" 
d="M307 -9q-130 0 -179 70t-27 195l49 290q7 32 5 49t-13 24.5t-34 11.5q-2 10 -2 22.5t1 25.5q36 -2 62 -2.5t58 -0.5q33 0 61.5 0.5t66.5 2.5q-1 -13 -2.5 -24.5t-7.5 -23.5q-30 -3 -46 -11t-24.5 -27.5t-15.5 -58.5l-48 -273q-19 -113 15 -163t105 -50q73 0 119 53
t63 148l45 259q8 45 6.5 68t-15 34.5t-42.5 20.5q-2 12 -2 23.5t1 24.5q32 -2 56 -2.5t44 -0.5q26 0 47 0.5t54 2.5q0 -13 -2.5 -25t-7.5 -23q-21 -7 -34.5 -14.5t-22.5 -20.5t-15.5 -36.5t-12.5 -61.5l-42 -240q-17 -92 -50 -151t-85.5 -87.5t-127.5 -28.5zM413 732
q-25 30 -57 62t-67 59q3 14 10 22.5t20 10.5q31 -18 66 -36t66 -32q41 15 74.5 31.5t61.5 33.5q10 -4 18.5 -12.5t13.5 -18.5q-39 -25 -82.5 -54.5t-81.5 -59.5q-22 -10 -42 -6z" />
    <glyph glyph-name="Ucircumflex" unicode="&#xdb;" horiz-adv-x="642" 
d="M307 -9q-130 0 -179 70t-27 195l49 290q7 32 5 49t-13 24.5t-34 11.5q-2 10 -2 22.5t1 25.5q36 -2 62 -2.5t58 -0.5q33 0 61.5 0.5t66.5 2.5q-1 -13 -2.5 -24.5t-7.5 -23.5q-30 -3 -46 -11t-24.5 -27.5t-15.5 -58.5l-48 -273q-19 -113 15 -163t105 -50q73 0 119 53
t63 148l45 259q8 45 6.5 68t-15 34.5t-42.5 20.5q-2 12 -2 23.5t1 24.5q32 -2 56 -2.5t44 -0.5q26 0 47 0.5t54 2.5q0 -13 -2.5 -25t-7.5 -23q-21 -7 -34.5 -14.5t-22.5 -20.5t-15.5 -36.5t-12.5 -61.5l-42 -240q-17 -92 -50 -151t-85.5 -87.5t-127.5 -28.5zM316 728
q-9 8 -14 21t-5 24q28 16 55 33.5t52.5 36.5t48.5 37q13 2 24 0.5t22 -6.5q25 -28 53 -57t59 -60q-5 -10 -15.5 -16.5t-23.5 -7.5q-28 18 -58.5 34t-62.5 28q-23 -8 -46.5 -19.5t-45.5 -23.5t-43 -24z" />
    <glyph glyph-name="uni0214" unicode="&#x214;" horiz-adv-x="642" 
d="M307 -9q-130 0 -179 70t-27 195l49 290q7 32 5 49t-13 24.5t-34 11.5q-2 10 -2 22.5t1 25.5q36 -2 62 -2.5t58 -0.5q33 0 61.5 0.5t66.5 2.5q-1 -13 -2.5 -24.5t-7.5 -23.5q-30 -3 -46 -11t-24.5 -27.5t-15.5 -58.5l-48 -273q-19 -113 15 -163t105 -50q73 0 119 53
t63 148l45 259q8 45 6.5 68t-15 34.5t-42.5 20.5q-2 12 -2 23.5t1 24.5q32 -2 56 -2.5t44 -0.5q26 0 47 0.5t54 2.5q0 -13 -2.5 -25t-7.5 -23q-21 -7 -34.5 -14.5t-22.5 -20.5t-15.5 -36.5t-12.5 -61.5l-42 -240q-17 -92 -50 -151t-85.5 -87.5t-127.5 -28.5zM364 725
q-23 38 -44 68.5t-45 58.5q20 9 46.5 9.5t50.5 -4.5q8 -30 17 -64.5t23 -70.5q-11 -1 -22 0t-26 3zM522 725q-23 38 -44 68.5t-44 59.5q20 8 46 8.5t50 -4.5q8 -30 17 -64.5t23 -70.5q-11 -1 -22 0t-26 3z" />
    <glyph glyph-name="Udieresis" unicode="&#xdc;" horiz-adv-x="642" 
d="M307 -9q-130 0 -179 70t-27 195l49 290q7 32 5 49t-13 24.5t-34 11.5q-2 10 -2 22.5t1 25.5q36 -2 62 -2.5t58 -0.5q33 0 61.5 0.5t66.5 2.5q-1 -13 -2.5 -24.5t-7.5 -23.5q-30 -3 -46 -11t-24.5 -27.5t-15.5 -58.5l-48 -273q-19 -113 15 -163t105 -50q73 0 119 53
t63 148l45 259q8 45 6.5 68t-15 34.5t-42.5 20.5q-2 12 -2 23.5t1 24.5q32 -2 56 -2.5t44 -0.5q26 0 47 0.5t54 2.5q0 -13 -2.5 -25t-7.5 -23q-21 -7 -34.5 -14.5t-22.5 -20.5t-15.5 -36.5t-12.5 -61.5l-42 -240q-17 -92 -50 -151t-85.5 -87.5t-127.5 -28.5zM344 730
q-28 0 -41.5 19.5t-8.5 50.5q3 23 18.5 35.5t40.5 12.5q29 0 43.5 -18t7.5 -48q-12 -52 -60 -52zM546 731q-28 0 -42 18t-10 47q8 52 63 52q27 0 41 -17t9 -46q-8 -54 -61 -54z" />
    <glyph glyph-name="uni01D7" unicode="&#x1d7;" horiz-adv-x="642" 
d="M307 -9q-130 0 -179 70t-27 195l49 290q7 32 5 49t-13 24.5t-34 11.5q-2 10 -2 22.5t1 25.5q36 -2 62 -2.5t58 -0.5q33 0 61.5 0.5t66.5 2.5q-1 -13 -2.5 -24.5t-7.5 -23.5q-30 -3 -46 -11t-24.5 -27.5t-15.5 -58.5l-48 -273q-19 -113 15 -163t105 -50q73 0 119 53
t63 148l45 259q8 45 6.5 68t-15 34.5t-42.5 20.5q-2 12 -2 23.5t1 24.5q32 -2 56 -2.5t44 -0.5q26 0 47 0.5t54 2.5q0 -13 -2.5 -25t-7.5 -23q-21 -7 -34.5 -14.5t-22.5 -20.5t-15.5 -36.5t-12.5 -61.5l-42 -240q-17 -92 -50 -151t-85.5 -87.5t-127.5 -28.5zM344 730
q-28 0 -41.5 19.5t-8.5 50.5q3 23 18.5 35.5t40.5 12.5q29 0 43.5 -18t7.5 -48q-12 -52 -60 -52zM546 731q-28 0 -42 18t-10 47q8 52 63 52q27 0 41 -17t9 -46q-8 -54 -61 -54zM453 882q-13 2 -24.5 6.5t-21.5 12.5q20 24 36 48t28 45t19 35q11 2 21 3t21 1q21 0 39.5 -3.5
t32.5 -10.5q-38 -32 -77.5 -67.5t-73.5 -69.5z" />
    <glyph glyph-name="uni01D9" unicode="&#x1d9;" horiz-adv-x="642" 
d="M307 -9q-130 0 -179 70t-27 195l49 290q7 32 5 49t-13 24.5t-34 11.5q-2 10 -2 22.5t1 25.5q36 -2 62 -2.5t58 -0.5q33 0 61.5 0.5t66.5 2.5q-1 -13 -2.5 -24.5t-7.5 -23.5q-30 -3 -46 -11t-24.5 -27.5t-15.5 -58.5l-48 -273q-19 -113 15 -163t105 -50q73 0 119 53
t63 148l45 259q8 45 6.5 68t-15 34.5t-42.5 20.5q-2 12 -2 23.5t1 24.5q32 -2 56 -2.5t44 -0.5q26 0 47 0.5t54 2.5q0 -13 -2.5 -25t-7.5 -23q-21 -7 -34.5 -14.5t-22.5 -20.5t-15.5 -36.5t-12.5 -61.5l-42 -240q-17 -92 -50 -151t-85.5 -87.5t-127.5 -28.5zM344 730
q-28 0 -41.5 19.5t-8.5 50.5q3 23 18.5 35.5t40.5 12.5q29 0 43.5 -18t7.5 -48q-12 -52 -60 -52zM546 731q-28 0 -42 18t-10 47q8 52 63 52q27 0 41 -17t9 -46q-8 -54 -61 -54zM438 885q-25 30 -57 62t-67 59q3 14 10 22.5t20 10.5q31 -18 66 -36t66 -32q41 15 74.5 31.5
t61.5 33.5q10 -4 18.5 -12.5t13.5 -18.5q-39 -25 -82.5 -54.5t-81.5 -59.5q-22 -10 -42 -6z" />
    <glyph glyph-name="uni01DB" unicode="&#x1db;" horiz-adv-x="642" 
d="M307 -9q-130 0 -179 70t-27 195l49 290q7 32 5 49t-13 24.5t-34 11.5q-2 10 -2 22.5t1 25.5q36 -2 62 -2.5t58 -0.5q33 0 61.5 0.5t66.5 2.5q-1 -13 -2.5 -24.5t-7.5 -23.5q-30 -3 -46 -11t-24.5 -27.5t-15.5 -58.5l-48 -273q-19 -113 15 -163t105 -50q73 0 119 53
t63 148l45 259q8 45 6.5 68t-15 34.5t-42.5 20.5q-2 12 -2 23.5t1 24.5q32 -2 56 -2.5t44 -0.5q26 0 47 0.5t54 2.5q0 -13 -2.5 -25t-7.5 -23q-21 -7 -34.5 -14.5t-22.5 -20.5t-15.5 -36.5t-12.5 -61.5l-42 -240q-17 -92 -50 -151t-85.5 -87.5t-127.5 -28.5zM344 730
q-28 0 -41.5 19.5t-8.5 50.5q3 23 18.5 35.5t40.5 12.5q29 0 43.5 -18t7.5 -48q-12 -52 -60 -52zM546 731q-28 0 -42 18t-10 47q8 52 63 52q27 0 41 -17t9 -46q-8 -54 -61 -54zM505 893q-10 -4 -27 -4t-28 4q-11 19 -27 41t-34.5 44t-36.5 40q23 8 50.5 9.5t53.5 -4.5
q8 -31 20 -64.5t29 -65.5z" />
    <glyph glyph-name="uni01D5" unicode="&#x1d5;" horiz-adv-x="642" 
d="M307 -9q-130 0 -179 70t-27 195l49 290q7 32 5 49t-13 24.5t-34 11.5q-2 10 -2 22.5t1 25.5q36 -2 62 -2.5t58 -0.5q33 0 61.5 0.5t66.5 2.5q-1 -13 -2.5 -24.5t-7.5 -23.5q-30 -3 -46 -11t-24.5 -27.5t-15.5 -58.5l-48 -273q-19 -113 15 -163t105 -50q73 0 119 53
t63 148l45 259q8 45 6.5 68t-15 34.5t-42.5 20.5q-2 12 -2 23.5t1 24.5q32 -2 56 -2.5t44 -0.5q26 0 47 0.5t54 2.5q0 -13 -2.5 -25t-7.5 -23q-21 -7 -34.5 -14.5t-22.5 -20.5t-15.5 -36.5t-12.5 -61.5l-42 -240q-17 -92 -50 -151t-85.5 -87.5t-127.5 -28.5zM344 730
q-28 0 -41.5 19.5t-8.5 50.5q3 23 18.5 35.5t40.5 12.5q29 0 43.5 -18t7.5 -48q-12 -52 -60 -52zM546 731q-28 0 -42 18t-10 47q8 52 63 52q27 0 41 -17t9 -46q-8 -54 -61 -54zM294 916q0 8 2 24t7 25h351q0 -10 -2 -21.5t-7 -23.5q-98 0 -186 -0.5t-165 -3.5z" />
    <glyph glyph-name="uni1EE4" unicode="&#x1ee4;" horiz-adv-x="642" 
d="M307 -9q-130 0 -179 70t-27 195l49 290q7 32 5 49t-13 24.5t-34 11.5q-2 10 -2 22.5t1 25.5q36 -2 62 -2.5t58 -0.5q33 0 61.5 0.5t66.5 2.5q-1 -13 -2.5 -24.5t-7.5 -23.5q-30 -3 -46 -11t-24.5 -27.5t-15.5 -58.5l-48 -273q-19 -113 15 -163t105 -50q73 0 119 53
t63 148l45 259q8 45 6.5 68t-15 34.5t-42.5 20.5q-2 12 -2 23.5t1 24.5q32 -2 56 -2.5t44 -0.5q26 0 47 0.5t54 2.5q0 -13 -2.5 -25t-7.5 -23q-21 -7 -34.5 -14.5t-22.5 -20.5t-15.5 -36.5t-12.5 -61.5l-42 -240q-17 -92 -50 -151t-85.5 -87.5t-127.5 -28.5zM273 -218
q-29 0 -43.5 17t-10.5 47q6 29 25 47t46 18q24 0 41.5 -16t11.5 -51q-4 -28 -22.5 -45t-47.5 -17z" />
    <glyph glyph-name="Ugrave" unicode="&#xd9;" horiz-adv-x="642" 
d="M307 -9q-130 0 -179 70t-27 195l49 290q7 32 5 49t-13 24.5t-34 11.5q-2 10 -2 22.5t1 25.5q36 -2 62 -2.5t58 -0.5q33 0 61.5 0.5t66.5 2.5q-1 -13 -2.5 -24.5t-7.5 -23.5q-30 -3 -46 -11t-24.5 -27.5t-15.5 -58.5l-48 -273q-19 -113 15 -163t105 -50q73 0 119 53
t63 148l45 259q8 45 6.5 68t-15 34.5t-42.5 20.5q-2 12 -2 23.5t1 24.5q32 -2 56 -2.5t44 -0.5q26 0 47 0.5t54 2.5q0 -13 -2.5 -25t-7.5 -23q-21 -7 -34.5 -14.5t-22.5 -20.5t-15.5 -36.5t-12.5 -61.5l-42 -240q-17 -92 -50 -151t-85.5 -87.5t-127.5 -28.5zM481 740
q-10 -4 -27 -4t-28 4q-11 19 -27 41t-34.5 44t-36.5 40q23 8 50.5 9.5t53.5 -4.5q8 -31 20 -64.5t29 -65.5z" />
    <glyph glyph-name="uni1EE6" unicode="&#x1ee6;" horiz-adv-x="642" 
d="M307 -9q-130 0 -179 70t-27 195l49 290q7 32 5 49t-13 24.5t-34 11.5q-2 10 -2 22.5t1 25.5q36 -2 62 -2.5t58 -0.5q33 0 61.5 0.5t66.5 2.5q-1 -13 -2.5 -24.5t-7.5 -23.5q-30 -3 -46 -11t-24.5 -27.5t-15.5 -58.5l-48 -273q-19 -113 15 -163t105 -50q73 0 119 53
t63 148l45 259q8 45 6.5 68t-15 34.5t-42.5 20.5q-2 12 -2 23.5t1 24.5q32 -2 56 -2.5t44 -0.5q26 0 47 0.5t54 2.5q0 -13 -2.5 -25t-7.5 -23q-21 -7 -34.5 -14.5t-22.5 -20.5t-15.5 -36.5t-12.5 -61.5l-42 -240q-17 -92 -50 -151t-85.5 -87.5t-127.5 -28.5zM411 731
q-3 8 -4.5 17t0.5 17q5 20 21 29t32 17t21 22q4 11 -2.5 16t-18.5 5q-18 0 -33 -13.5t-25 -45.5q-15 3 -28 6.5t-22 10.5q5 16 8.5 27t2.5 27q19 10 46 18t61 8q49 0 70.5 -17.5t13.5 -45.5q-5 -19 -18.5 -30t-29 -19t-28.5 -15.5t-16 -19.5q-1 -4 -2 -6.5t0 -9.5
q-11 -1 -24.5 -1t-24.5 3z" />
    <glyph glyph-name="Uhorn" unicode="&#x1af;" horiz-adv-x="702" 
d="M307 -9q-130 0 -179 70t-27 195l49 290q7 32 5 49t-13 24.5t-34 11.5q-2 10 -2 22.5t1 25.5q36 -2 62 -2.5t58 -0.5q33 0 61.5 0.5t66.5 2.5q-1 -13 -2.5 -24.5t-7.5 -23.5q-30 -3 -46 -11t-24.5 -27.5t-15.5 -58.5l-48 -273q-19 -113 15 -163t105 -50q73 0 119 53
t63 148l45 259q8 45 6.5 68t-15 34.5t-42.5 20.5q-2 12 -2 23.5t1 24.5q32 -2 56 -2.5t44 -0.5q26 0 47 0.5t54 2.5q0 -13 -2.5 -25t-7.5 -23q-21 -7 -34.5 -14.5t-22.5 -20.5t-15.5 -36.5t-12.5 -61.5l-42 -240q-17 -92 -50 -151t-85.5 -87.5t-127.5 -28.5zM666 628l-20 48
q40 0 58.5 11.5t25.5 41.5q3 13 2.5 28t-3.5 32q14 6 33.5 9.5t34.5 0.5q10 -15 15 -35.5t0 -42.5q-9 -45 -50.5 -69t-95.5 -24z" />
    <glyph glyph-name="uni1EE8" unicode="&#x1ee8;" horiz-adv-x="702" 
d="M307 -9q-130 0 -179 70t-27 195l49 290q7 32 5 49t-13 24.5t-34 11.5q-2 10 -2 22.5t1 25.5q36 -2 62 -2.5t58 -0.5q33 0 61.5 0.5t66.5 2.5q-1 -13 -2.5 -24.5t-7.5 -23.5q-30 -3 -46 -11t-24.5 -27.5t-15.5 -58.5l-48 -273q-19 -113 15 -163t105 -50q73 0 119 53
t63 148l45 259q8 45 6.5 68t-15 34.5t-42.5 20.5q-2 12 -2 23.5t1 24.5q32 -2 56 -2.5t44 -0.5q26 0 47 0.5t54 2.5q0 -13 -2.5 -25t-7.5 -23q-21 -7 -34.5 -14.5t-22.5 -20.5t-15.5 -36.5t-12.5 -61.5l-42 -240q-17 -92 -50 -151t-85.5 -87.5t-127.5 -28.5zM666 628l-20 48
q40 0 58.5 11.5t25.5 41.5q3 13 2.5 28t-3.5 32q14 6 33.5 9.5t34.5 0.5q10 -15 15 -35.5t0 -42.5q-9 -45 -50.5 -69t-95.5 -24zM429 729q-13 2 -24.5 6.5t-21.5 12.5q20 24 36 48t28 45t19 35q11 2 21 3t21 1q21 0 39.5 -3.5t32.5 -10.5q-38 -32 -77.5 -67.5t-73.5 -69.5z
" />
    <glyph glyph-name="uni1EF0" unicode="&#x1ef0;" horiz-adv-x="702" 
d="M307 -9q-130 0 -179 70t-27 195l49 290q7 32 5 49t-13 24.5t-34 11.5q-2 10 -2 22.5t1 25.5q36 -2 62 -2.5t58 -0.5q33 0 61.5 0.5t66.5 2.5q-1 -13 -2.5 -24.5t-7.5 -23.5q-30 -3 -46 -11t-24.5 -27.5t-15.5 -58.5l-48 -273q-19 -113 15 -163t105 -50q73 0 119 53
t63 148l45 259q8 45 6.5 68t-15 34.5t-42.5 20.5q-2 12 -2 23.5t1 24.5q32 -2 56 -2.5t44 -0.5q26 0 47 0.5t54 2.5q0 -13 -2.5 -25t-7.5 -23q-21 -7 -34.5 -14.5t-22.5 -20.5t-15.5 -36.5t-12.5 -61.5l-42 -240q-17 -92 -50 -151t-85.5 -87.5t-127.5 -28.5zM666 628l-20 48
q40 0 58.5 11.5t25.5 41.5q3 13 2.5 28t-3.5 32q14 6 33.5 9.5t34.5 0.5q10 -15 15 -35.5t0 -42.5q-9 -45 -50.5 -69t-95.5 -24zM273 -218q-29 0 -43.5 17t-10.5 47q6 29 25 47t46 18q24 0 41.5 -16t11.5 -51q-4 -28 -22.5 -45t-47.5 -17z" />
    <glyph glyph-name="uni1EEA" unicode="&#x1eea;" horiz-adv-x="702" 
d="M307 -9q-130 0 -179 70t-27 195l49 290q7 32 5 49t-13 24.5t-34 11.5q-2 10 -2 22.5t1 25.5q36 -2 62 -2.5t58 -0.5q33 0 61.5 0.5t66.5 2.5q-1 -13 -2.5 -24.5t-7.5 -23.5q-30 -3 -46 -11t-24.5 -27.5t-15.5 -58.5l-48 -273q-19 -113 15 -163t105 -50q73 0 119 53
t63 148l45 259q8 45 6.5 68t-15 34.5t-42.5 20.5q-2 12 -2 23.5t1 24.5q32 -2 56 -2.5t44 -0.5q26 0 47 0.5t54 2.5q0 -13 -2.5 -25t-7.5 -23q-21 -7 -34.5 -14.5t-22.5 -20.5t-15.5 -36.5t-12.5 -61.5l-42 -240q-17 -92 -50 -151t-85.5 -87.5t-127.5 -28.5zM666 628l-20 48
q40 0 58.5 11.5t25.5 41.5q3 13 2.5 28t-3.5 32q14 6 33.5 9.5t34.5 0.5q10 -15 15 -35.5t0 -42.5q-9 -45 -50.5 -69t-95.5 -24zM481 740q-10 -4 -27 -4t-28 4q-11 19 -27 41t-34.5 44t-36.5 40q23 8 50.5 9.5t53.5 -4.5q8 -31 20 -64.5t29 -65.5z" />
    <glyph glyph-name="uni1EEC" unicode="&#x1eec;" horiz-adv-x="702" 
d="M307 -9q-130 0 -179 70t-27 195l49 290q7 32 5 49t-13 24.5t-34 11.5q-2 10 -2 22.5t1 25.5q36 -2 62 -2.5t58 -0.5q33 0 61.5 0.5t66.5 2.5q-1 -13 -2.5 -24.5t-7.5 -23.5q-30 -3 -46 -11t-24.5 -27.5t-15.5 -58.5l-48 -273q-19 -113 15 -163t105 -50q73 0 119 53
t63 148l45 259q8 45 6.5 68t-15 34.5t-42.5 20.5q-2 12 -2 23.5t1 24.5q32 -2 56 -2.5t44 -0.5q26 0 47 0.5t54 2.5q0 -13 -2.5 -25t-7.5 -23q-21 -7 -34.5 -14.5t-22.5 -20.5t-15.5 -36.5t-12.5 -61.5l-42 -240q-17 -92 -50 -151t-85.5 -87.5t-127.5 -28.5zM666 628l-20 48
q40 0 58.5 11.5t25.5 41.5q3 13 2.5 28t-3.5 32q14 6 33.5 9.5t34.5 0.5q10 -15 15 -35.5t0 -42.5q-9 -45 -50.5 -69t-95.5 -24zM411 731q-3 8 -4.5 17t0.5 17q5 20 21 29t32 17t21 22q4 11 -2.5 16t-18.5 5q-18 0 -33 -13.5t-25 -45.5q-15 3 -28 6.5t-22 10.5q5 16 8.5 27
t2.5 27q19 10 46 18t61 8q49 0 70.5 -17.5t13.5 -45.5q-5 -19 -18.5 -30t-29 -19t-28.5 -15.5t-16 -19.5q-1 -4 -2 -6.5t0 -9.5q-11 -1 -24.5 -1t-24.5 3z" />
    <glyph glyph-name="uni1EEE" unicode="&#x1eee;" horiz-adv-x="702" 
d="M307 -9q-130 0 -179 70t-27 195l49 290q7 32 5 49t-13 24.5t-34 11.5q-2 10 -2 22.5t1 25.5q36 -2 62 -2.5t58 -0.5q33 0 61.5 0.5t66.5 2.5q-1 -13 -2.5 -24.5t-7.5 -23.5q-30 -3 -46 -11t-24.5 -27.5t-15.5 -58.5l-48 -273q-19 -113 15 -163t105 -50q73 0 119 53
t63 148l45 259q8 45 6.5 68t-15 34.5t-42.5 20.5q-2 12 -2 23.5t1 24.5q32 -2 56 -2.5t44 -0.5q26 0 47 0.5t54 2.5q0 -13 -2.5 -25t-7.5 -23q-21 -7 -34.5 -14.5t-22.5 -20.5t-15.5 -36.5t-12.5 -61.5l-42 -240q-17 -92 -50 -151t-85.5 -87.5t-127.5 -28.5zM666 628l-20 48
q40 0 58.5 11.5t25.5 41.5q3 13 2.5 28t-3.5 32q14 6 33.5 9.5t34.5 0.5q10 -15 15 -35.5t0 -42.5q-9 -45 -50.5 -69t-95.5 -24zM501 746q-21 0 -37 6t-30.5 13t-29.5 12.5t-32 5.5q-21 0 -41 -10t-39 -24q-7 9 -9.5 20t-1.5 26q35 35 67 46.5t58 11.5q28 0 48.5 -9
t39 -17.5t38.5 -8.5q18 0 33.5 8.5t29.5 21.5q9 -4 17.5 -10t13.5 -17q-31 -40 -62.5 -57.5t-62.5 -17.5z" />
    <glyph glyph-name="Uhungarumlaut" unicode="&#x170;" horiz-adv-x="642" 
d="M307 -9q-130 0 -179 70t-27 195l49 290q7 32 5 49t-13 24.5t-34 11.5q-2 10 -2 22.5t1 25.5q36 -2 62 -2.5t58 -0.5q33 0 61.5 0.5t66.5 2.5q-1 -13 -2.5 -24.5t-7.5 -23.5q-30 -3 -46 -11t-24.5 -27.5t-15.5 -58.5l-48 -273q-19 -113 15 -163t105 -50q73 0 119 53
t63 148l45 259q8 45 6.5 68t-15 34.5t-42.5 20.5q-2 12 -2 23.5t1 24.5q32 -2 56 -2.5t44 -0.5q26 0 47 0.5t54 2.5q0 -13 -2.5 -25t-7.5 -23q-21 -7 -34.5 -14.5t-22.5 -20.5t-15.5 -36.5t-12.5 -61.5l-42 -240q-17 -92 -50 -151t-85.5 -87.5t-127.5 -28.5zM537 734
q-26 2 -46 19q20 24 36 47.5t28 44.5t19 35q33 5 63.5 2.5t50.5 -12.5q-38 -32 -77.5 -67.5t-73.5 -68.5zM371 734q-26 2 -47 19q21 24 37 47.5t28 44.5t19 35q33 5 63.5 2.5t50.5 -12.5q-39 -32 -78 -67.5t-73 -68.5z" />
    <glyph glyph-name="uni0216" unicode="&#x216;" horiz-adv-x="642" 
d="M307 -9q-130 0 -179 70t-27 195l49 290q7 32 5 49t-13 24.5t-34 11.5q-2 10 -2 22.5t1 25.5q36 -2 62 -2.5t58 -0.5q33 0 61.5 0.5t66.5 2.5q-1 -13 -2.5 -24.5t-7.5 -23.5q-30 -3 -46 -11t-24.5 -27.5t-15.5 -58.5l-48 -273q-19 -113 15 -163t105 -50q73 0 119 53
t63 148l45 259q8 45 6.5 68t-15 34.5t-42.5 20.5q-2 12 -2 23.5t1 24.5q32 -2 56 -2.5t44 -0.5q26 0 47 0.5t54 2.5q0 -13 -2.5 -25t-7.5 -23q-21 -7 -34.5 -14.5t-22.5 -20.5t-15.5 -36.5t-12.5 -61.5l-42 -240q-17 -92 -50 -151t-85.5 -87.5t-127.5 -28.5zM478 870
q80 0 116.5 -35.5t23.5 -103.5q-12 -5 -26.5 -7.5t-26.5 -1.5q0 36 -29 56.5t-80 20.5t-86.5 -20.5t-45.5 -56.5q-13 -2 -24.5 0t-17.5 5q13 69 63.5 106t132.5 37z" />
    <glyph glyph-name="Umacron" unicode="&#x16a;" horiz-adv-x="642" 
d="M307 -9q-130 0 -179 70t-27 195l49 290q7 32 5 49t-13 24.5t-34 11.5q-2 10 -2 22.5t1 25.5q36 -2 62 -2.5t58 -0.5q33 0 61.5 0.5t66.5 2.5q-1 -13 -2.5 -24.5t-7.5 -23.5q-30 -3 -46 -11t-24.5 -27.5t-15.5 -58.5l-48 -273q-19 -113 15 -163t105 -50q73 0 119 53
t63 148l45 259q8 45 6.5 68t-15 34.5t-42.5 20.5q-2 12 -2 23.5t1 24.5q32 -2 56 -2.5t44 -0.5q26 0 47 0.5t54 2.5q0 -13 -2.5 -25t-7.5 -23q-21 -7 -34.5 -14.5t-22.5 -20.5t-15.5 -36.5t-12.5 -61.5l-42 -240q-17 -92 -50 -151t-85.5 -87.5t-127.5 -28.5zM270 763
q0 8 2 24t7 25h351q0 -10 -2 -21.5t-7 -23.5q-98 0 -186 -0.5t-165 -3.5z" />
    <glyph glyph-name="uni1E7A" unicode="&#x1e7a;" horiz-adv-x="642" 
d="M307 -9q-130 0 -179 70t-27 195l49 290q7 32 5 49t-13 24.5t-34 11.5q-2 10 -2 22.5t1 25.5q36 -2 62 -2.5t58 -0.5q33 0 61.5 0.5t66.5 2.5q-1 -13 -2.5 -24.5t-7.5 -23.5q-30 -3 -46 -11t-24.5 -27.5t-15.5 -58.5l-48 -273q-19 -113 15 -163t105 -50q73 0 119 53
t63 148l45 259q8 45 6.5 68t-15 34.5t-42.5 20.5q-2 12 -2 23.5t1 24.5q32 -2 56 -2.5t44 -0.5q26 0 47 0.5t54 2.5q0 -13 -2.5 -25t-7.5 -23q-21 -7 -34.5 -14.5t-22.5 -20.5t-15.5 -36.5t-12.5 -61.5l-42 -240q-17 -92 -50 -151t-85.5 -87.5t-127.5 -28.5zM270 763
q0 8 2 24t7 25h351q0 -10 -2 -21.5t-7 -23.5q-98 0 -186 -0.5t-165 -3.5zM370 866q-28 0 -41.5 19.5t-8.5 50.5q3 23 18.5 35.5t40.5 12.5q29 0 43.5 -18t7.5 -48q-12 -52 -60 -52zM572 867q-28 0 -42 18t-10 47q8 52 63 52q27 0 41 -17t9 -46q-8 -54 -61 -54z" />
    <glyph glyph-name="Uogonek" unicode="&#x172;" horiz-adv-x="642" 
d="M307 -9q-130 0 -179 70t-27 195l49 290q7 32 5 49t-13 24.5t-34 11.5q-2 10 -2 22.5t1 25.5q36 -2 62 -2.5t58 -0.5q33 0 61.5 0.5t66.5 2.5q-1 -13 -2.5 -24.5t-7.5 -23.5q-30 -3 -46 -11t-24.5 -27.5t-15.5 -58.5l-48 -273q-19 -113 15 -163t105 -50q73 0 119 53
t63 148l45 259q8 45 6.5 68t-15 34.5t-42.5 20.5q-2 12 -2 23.5t1 24.5q32 -2 56 -2.5t44 -0.5q26 0 47 0.5t54 2.5q0 -13 -2.5 -25t-7.5 -23q-21 -7 -34.5 -14.5t-22.5 -20.5t-15.5 -36.5t-12.5 -61.5l-42 -240q-17 -92 -50 -151t-85.5 -87.5t-127.5 -28.5zM310 -259
q-31 0 -55.5 11.5t-37 35t-7.5 60.5q4 33 23.5 66t57 64.5t97.5 59.5l43 -20q-53 -19 -84 -52t-38 -68q-5 -28 7.5 -46.5t41.5 -18.5q9 0 17 2.5t15 6.5q9 -8 14 -18.5t6 -22.5q-22 -12 -42 -26.5t-36 -30.5q-5 -1 -9.5 -2t-12.5 -1z" />
    <glyph glyph-name="Uring" unicode="&#x16e;" horiz-adv-x="642" 
d="M307 -9q-130 0 -179 70t-27 195l49 290q7 32 5 49t-13 24.5t-34 11.5q-2 10 -2 22.5t1 25.5q36 -2 62 -2.5t58 -0.5q33 0 61.5 0.5t66.5 2.5q-1 -13 -2.5 -24.5t-7.5 -23.5q-30 -3 -46 -11t-24.5 -27.5t-15.5 -58.5l-48 -273q-19 -113 15 -163t105 -50q73 0 119 53
t63 148l45 259q8 45 6.5 68t-15 34.5t-42.5 20.5q-2 12 -2 23.5t1 24.5q32 -2 56 -2.5t44 -0.5q26 0 47 0.5t54 2.5q0 -13 -2.5 -25t-7.5 -23q-21 -7 -34.5 -14.5t-22.5 -20.5t-15.5 -36.5t-12.5 -61.5l-42 -240q-17 -92 -50 -151t-85.5 -87.5t-127.5 -28.5zM446 721
q-56 0 -81 25t-19 61q6 33 35 51.5t77 18.5q41 0 63.5 -12t31 -32t4.5 -43q-6 -32 -34.5 -50.5t-76.5 -18.5zM449 758q16 0 28.5 9t16.5 26q4 18 -5.5 33.5t-33.5 15.5q-20 0 -32.5 -12t-15.5 -29q-4 -18 8 -30.5t34 -12.5z" />
    <glyph glyph-name="Utilde" unicode="&#x168;" horiz-adv-x="642" 
d="M307 -9q-130 0 -179 70t-27 195l49 290q7 32 5 49t-13 24.5t-34 11.5q-2 10 -2 22.5t1 25.5q36 -2 62 -2.5t58 -0.5q33 0 61.5 0.5t66.5 2.5q-1 -13 -2.5 -24.5t-7.5 -23.5q-30 -3 -46 -11t-24.5 -27.5t-15.5 -58.5l-48 -273q-19 -113 15 -163t105 -50q73 0 119 53
t63 148l45 259q8 45 6.5 68t-15 34.5t-42.5 20.5q-2 12 -2 23.5t1 24.5q32 -2 56 -2.5t44 -0.5q26 0 47 0.5t54 2.5q0 -13 -2.5 -25t-7.5 -23q-21 -7 -34.5 -14.5t-22.5 -20.5t-15.5 -36.5t-12.5 -61.5l-42 -240q-17 -92 -50 -151t-85.5 -87.5t-127.5 -28.5zM501 746
q-21 0 -37 6t-30.5 13t-29.5 12.5t-32 5.5q-21 0 -41 -10t-39 -24q-7 9 -9.5 20t-1.5 26q35 35 67 46.5t58 11.5q28 0 48.5 -9t39 -17.5t38.5 -8.5q18 0 33.5 8.5t29.5 21.5q9 -4 17.5 -10t13.5 -17q-31 -40 -62.5 -57.5t-62.5 -17.5z" />
    <glyph glyph-name="uni1E78" unicode="&#x1e78;" horiz-adv-x="642" 
d="M307 -9q-130 0 -179 70t-27 195l49 290q7 32 5 49t-13 24.5t-34 11.5q-2 10 -2 22.5t1 25.5q36 -2 62 -2.5t58 -0.5q33 0 61.5 0.5t66.5 2.5q-1 -13 -2.5 -24.5t-7.5 -23.5q-30 -3 -46 -11t-24.5 -27.5t-15.5 -58.5l-48 -273q-19 -113 15 -163t105 -50q73 0 119 53
t63 148l45 259q8 45 6.5 68t-15 34.5t-42.5 20.5q-2 12 -2 23.5t1 24.5q32 -2 56 -2.5t44 -0.5q26 0 47 0.5t54 2.5q0 -13 -2.5 -25t-7.5 -23q-21 -7 -34.5 -14.5t-22.5 -20.5t-15.5 -36.5t-12.5 -61.5l-42 -240q-17 -92 -50 -151t-85.5 -87.5t-127.5 -28.5zM501 746
q-21 0 -37 6t-30.5 13t-29.5 12.5t-32 5.5q-21 0 -41 -10t-39 -24q-7 9 -9.5 20t-1.5 26q35 35 67 46.5t58 11.5q28 0 48.5 -9t39 -17.5t38.5 -8.5q18 0 33.5 8.5t29.5 21.5q9 -4 17.5 -10t13.5 -17q-31 -40 -62.5 -57.5t-62.5 -17.5zM462 903q-13 2 -24.5 6.5t-21.5 12.5
q20 24 36 48t28 45t19 35q11 2 21 3t21 1q21 0 39.5 -3.5t32.5 -10.5q-38 -32 -77.5 -67.5t-73.5 -69.5z" />
    <glyph glyph-name="V" unicode="V" horiz-adv-x="660" 
d="M100 679q24 -1 44.5 -2t39.5 -1h38h42.5t44 1t46.5 2q0 -11 -2.5 -24.5t-7.5 -24.5q-33 -4 -50 -13t-17.5 -31t10.5 -68q25 -93 48.5 -189t45.5 -202l-16 9q59 98 109 191.5t95 188.5q19 41 24 62.5t-7.5 33t-45.5 19.5q-4 21 -1 48q22 -2 44.5 -2.5t50.5 -0.5
q26 0 46.5 0.5t49.5 2.5q-1 -25 -10 -48q-15 -7 -28 -18.5t-27.5 -36t-38.5 -70.5q-63 -125 -131.5 -250t-145.5 -256q-9 -5 -22.5 -6t-26.5 0q-22 96 -44.5 190.5t-45 181.5t-42.5 158q-11 43 -20 64.5t-19.5 30t-28.5 12.5q-2 11 -2 23t1 25z" />
    <glyph glyph-name="W" unicode="W" horiz-adv-x="964" 
d="M100 679q26 -1 47.5 -2t39.5 -1h32h38t43.5 1t42.5 2q0 -13 -1.5 -25.5t-6.5 -23.5q-36 -6 -52.5 -17t-18.5 -33.5t5 -63.5q9 -55 20 -120t21.5 -132.5t18.5 -130.5l-22 2q70 132 136.5 268t129.5 275q21 8 49 5q23 -85 44 -177.5t39 -185t32 -181.5l-24 1
q46 89 86.5 177.5t76.5 176.5q20 51 24.5 78t-8.5 39.5t-46 19.5q-4 22 -1 48q21 -2 45.5 -2.5t48.5 -0.5q26 0 51 0.5t46 2.5q-1 -25 -10 -48q-17 -7 -30.5 -21t-30 -43.5t-40.5 -86.5q-51 -120 -107 -240t-117 -240q-10 -4 -24.5 -5t-26.5 1q-13 86 -30.5 180t-38 187
t-43.5 177l24 -1q-63 -136 -131.5 -272.5t-138.5 -267.5q-6 -3 -15.5 -4t-19.5 -1t-17 2q-21 152 -43 285t-42 241q-8 46 -14 67.5t-14.5 29.5t-23.5 12q-3 11 -3.5 23t0.5 25z" />
    <glyph glyph-name="Wacute" unicode="&#x1e82;" horiz-adv-x="964" 
d="M100 679q26 -1 47.5 -2t39.5 -1h32h38t43.5 1t42.5 2q0 -13 -1.5 -25.5t-6.5 -23.5q-36 -6 -52.5 -17t-18.5 -33.5t5 -63.5q9 -55 20 -120t21.5 -132.5t18.5 -130.5l-22 2q70 132 136.5 268t129.5 275q21 8 49 5q23 -85 44 -177.5t39 -185t32 -181.5l-24 1
q46 89 86.5 177.5t76.5 176.5q20 51 24.5 78t-8.5 39.5t-46 19.5q-4 22 -1 48q21 -2 45.5 -2.5t48.5 -0.5q26 0 51 0.5t46 2.5q-1 -25 -10 -48q-17 -7 -30.5 -21t-30 -43.5t-40.5 -86.5q-51 -120 -107 -240t-117 -240q-10 -4 -24.5 -5t-26.5 1q-13 86 -30.5 180t-38 187
t-43.5 177l24 -1q-63 -136 -131.5 -272.5t-138.5 -267.5q-6 -3 -15.5 -4t-19.5 -1t-17 2q-21 152 -43 285t-42 241q-8 46 -14 67.5t-14.5 29.5t-23.5 12q-3 11 -3.5 23t0.5 25zM600 729q-13 2 -24.5 6.5t-21.5 12.5q20 24 36 48t28 45t19 35q11 2 21 3t21 1q21 0 39.5 -3.5
t32.5 -10.5q-38 -32 -77.5 -67.5t-73.5 -69.5z" />
    <glyph glyph-name="Wcircumflex" unicode="&#x174;" horiz-adv-x="964" 
d="M100 679q26 -1 47.5 -2t39.5 -1h32h38t43.5 1t42.5 2q0 -13 -1.5 -25.5t-6.5 -23.5q-36 -6 -52.5 -17t-18.5 -33.5t5 -63.5q9 -55 20 -120t21.5 -132.5t18.5 -130.5l-22 2q70 132 136.5 268t129.5 275q21 8 49 5q23 -85 44 -177.5t39 -185t32 -181.5l-24 1
q46 89 86.5 177.5t76.5 176.5q20 51 24.5 78t-8.5 39.5t-46 19.5q-4 22 -1 48q21 -2 45.5 -2.5t48.5 -0.5q26 0 51 0.5t46 2.5q-1 -25 -10 -48q-17 -7 -30.5 -21t-30 -43.5t-40.5 -86.5q-51 -120 -107 -240t-117 -240q-10 -4 -24.5 -5t-26.5 1q-13 86 -30.5 180t-38 187
t-43.5 177l24 -1q-63 -136 -131.5 -272.5t-138.5 -267.5q-6 -3 -15.5 -4t-19.5 -1t-17 2q-21 152 -43 285t-42 241q-8 46 -14 67.5t-14.5 29.5t-23.5 12q-3 11 -3.5 23t0.5 25zM486 728q-9 8 -14 21t-5 24q28 16 55 33.5t52.5 36.5t48.5 37q13 2 24 0.5t22 -6.5
q25 -28 53 -57t59 -60q-5 -10 -15.5 -16.5t-23.5 -7.5q-28 18 -58.5 34t-62.5 28q-23 -8 -46.5 -19.5t-45.5 -23.5t-43 -24z" />
    <glyph glyph-name="Wdieresis" unicode="&#x1e84;" horiz-adv-x="964" 
d="M100 679q26 -1 47.5 -2t39.5 -1h32h38t43.5 1t42.5 2q0 -13 -1.5 -25.5t-6.5 -23.5q-36 -6 -52.5 -17t-18.5 -33.5t5 -63.5q9 -55 20 -120t21.5 -132.5t18.5 -130.5l-22 2q70 132 136.5 268t129.5 275q21 8 49 5q23 -85 44 -177.5t39 -185t32 -181.5l-24 1
q46 89 86.5 177.5t76.5 176.5q20 51 24.5 78t-8.5 39.5t-46 19.5q-4 22 -1 48q21 -2 45.5 -2.5t48.5 -0.5q26 0 51 0.5t46 2.5q-1 -25 -10 -48q-17 -7 -30.5 -21t-30 -43.5t-40.5 -86.5q-51 -120 -107 -240t-117 -240q-10 -4 -24.5 -5t-26.5 1q-13 86 -30.5 180t-38 187
t-43.5 177l24 -1q-63 -136 -131.5 -272.5t-138.5 -267.5q-6 -3 -15.5 -4t-19.5 -1t-17 2q-21 152 -43 285t-42 241q-8 46 -14 67.5t-14.5 29.5t-23.5 12q-3 11 -3.5 23t0.5 25zM514 730q-28 0 -41.5 19.5t-8.5 50.5q3 23 18.5 35.5t40.5 12.5q29 0 43.5 -18t7.5 -48
q-12 -52 -60 -52zM716 731q-28 0 -42 18t-10 47q8 52 63 52q27 0 41 -17t9 -46q-8 -54 -61 -54z" />
    <glyph glyph-name="Wgrave" unicode="&#x1e80;" horiz-adv-x="964" 
d="M100 679q26 -1 47.5 -2t39.5 -1h32h38t43.5 1t42.5 2q0 -13 -1.5 -25.5t-6.5 -23.5q-36 -6 -52.5 -17t-18.5 -33.5t5 -63.5q9 -55 20 -120t21.5 -132.5t18.5 -130.5l-22 2q70 132 136.5 268t129.5 275q21 8 49 5q23 -85 44 -177.5t39 -185t32 -181.5l-24 1
q46 89 86.5 177.5t76.5 176.5q20 51 24.5 78t-8.5 39.5t-46 19.5q-4 22 -1 48q21 -2 45.5 -2.5t48.5 -0.5q26 0 51 0.5t46 2.5q-1 -25 -10 -48q-17 -7 -30.5 -21t-30 -43.5t-40.5 -86.5q-51 -120 -107 -240t-117 -240q-10 -4 -24.5 -5t-26.5 1q-13 86 -30.5 180t-38 187
t-43.5 177l24 -1q-63 -136 -131.5 -272.5t-138.5 -267.5q-6 -3 -15.5 -4t-19.5 -1t-17 2q-21 152 -43 285t-42 241q-8 46 -14 67.5t-14.5 29.5t-23.5 12q-3 11 -3.5 23t0.5 25zM651 740q-10 -4 -27 -4t-28 4q-11 19 -27 41t-34.5 44t-36.5 40q23 8 50.5 9.5t53.5 -4.5
q8 -31 20 -64.5t29 -65.5z" />
    <glyph glyph-name="X" unicode="X" horiz-adv-x="627" 
d="M312 -3q0 13 2.5 25.5t7.5 23.5q31 5 43.5 14.5t8.5 33t-23 71.5q-22 57 -48 115.5t-54 119t-59 122.5q-23 46 -35.5 67.5t-23.5 29.5t-28 12q-3 12 -3 24t2 24q26 -1 48 -2t40 -1h35h40.5t43.5 1t49 2q0 -12 -2.5 -25t-7.5 -24q-50 -8 -57 -29t21 -80q29 -60 56 -121
t53 -121.5t50 -119.5q20 -47 33.5 -69t28 -30.5t34.5 -14.5q2 -11 2.5 -22t-1.5 -26q-28 2 -50 2.5t-40 0.5h-37h-44.5t-45.5 -0.5t-39 -2.5zM-15 -3q0 25 10 48q20 5 38 14.5t39.5 29.5t52.5 55q44 49 85.5 100t79.5 102l29 -47q-29 -40 -58.5 -76.5t-61.5 -76.5
q-37 -46 -34 -69t34 -32q2 -12 2 -23.5t-1 -24.5q-31 2 -56 2.5t-51 0.5q-29 0 -54 -0.5t-54 -2.5zM382 320l-32 41q28 35 60 76t58 78q29 42 36.5 65.5t-2 34.5t-31.5 16q-5 23 -1 48q24 -2 46 -2.5t44 -0.5q24 0 49.5 0.5t52.5 2.5q0 -11 -2.5 -24t-7.5 -24
q-19 -3 -34 -12t-34 -32.5t-51 -69.5q-37 -52 -74 -101t-77 -96z" />
    </font>
</defs>
</svg>
